osu file format v14

[General]
AudioFilename: audio.mp3
AudioLeadIn: 0
PreviewTime: 0
Countdown: 0
SampleSet: Soft
StackLeniency: 0.7
Mode: 0
LetterboxInBreaks: 0
WidescreenStoryboard: 1

[Editor]
DistanceSpacing: 0.3
BeatDivisor: 4
GridSize: 32
TimelineZoom: 2.4

[Metadata]
Title:ChRoNiClESeVeN feat. Annabel
TitleUnicode:ChRøNiClESeVeN feat. Annabel
Artist:sasakure.UK
ArtistUnicode:sasakure.UK
Creator:AIR
Version:Insane
Source:セブンスドラゴンⅢ code:VFD
Tags:7th dragon
BeatmapID:1630902
BeatmapSetID:775590

[Difficulty]
HPDrainRate:5
CircleSize:4
OverallDifficulty:7
ApproachRate:9
SliderMultiplier:1.6
SliderTickRate:1

[Events]
//Background and Video events
0,0,"55419383_p0.jpg",0,0
//Break Periods
//Storyboard Layer 0 (Background)
//Storyboard Layer 1 (Fail)
//Storyboard Layer 2 (Pass)
//Storyboard Layer 3 (Foreground)
//Storyboard Sound Samples

[TimingPoints]
1013,357.142857142857,4,2,1,5,1,0
1370,468.75,4,2,1,5,1,0
1838,612.244897959184,4,2,1,5,1,0
2450,394.736842105263,4,2,1,5,1,0
2844,447.761194029851,4,2,1,5,1,0
3291,535.714285714286,4,2,1,5,1,0
3826,566.037735849057,4,2,1,5,1,0
4392,545.454545454546,4,2,1,5,1,0
4937,461.538461538462,4,2,1,5,1,0
5398,612.244897959184,4,2,1,5,1,0
6010,545.454545454546,4,2,1,5,1,0
6555,439.56043956044,4,2,1,5,1,0
7434,530.973451327434,4,2,1,5,1,0
7964,447.761194029851,4,2,1,5,1,0
8859,357.142857142857,4,2,1,40,1,0
12203,307.692307692308,4,2,1,60,1,0
12203,-125,4,2,1,60,0,0
22049,-100,4,2,1,70,0,0
31895,-125,4,2,1,60,0,0
41741,-100,4,2,1,70,0,0
51587,-83.3333333333333,4,2,1,70,0,0
52049,-100,4,2,1,70,0,0
52510,-125,4,2,1,70,0,0
54049,-83.3333333333333,4,2,1,70,0,0
54510,-100,4,2,1,70,0,0
54972,-125,4,2,1,70,0,0
56510,-100,4,2,1,70,0,0
58356,-62.5,4,2,1,70,0,0
58818,-83.3333333333333,4,2,1,70,0,0
59587,-100,4,2,1,70,0,0
61433,-166.666666666667,4,2,1,70,0,0
62049,307.692307692308,4,2,1,90,1,1
62049,-83.3333333333333,4,2,1,90,0,1
70664,-100,4,2,1,90,0,1
70818,-83.3333333333333,4,2,1,90,0,1
70972,-71.4285714285714,4,2,1,90,0,1
71125,-62.5,4,2,1,90,0,1
71279,-55.5555555555556,4,2,1,90,0,1
71433,-50,4,2,1,90,0,1
71895,-83.3333333333333,4,2,1,90,0,1
81741,-100,4,2,1,70,0,0
91587,307.692307692308,3,2,1,70,1,0
91587,-125,4,2,1,70,0,0
101433,307.692307692308,4,2,1,60,1,0
101433,-166.666666666667,4,2,1,80,0,0
111279,-100,4,2,1,80,0,0
121125,-83.3333333333333,4,2,1,70,0,0
121586,-100,4,2,1,70,0,0
122048,-125,4,2,1,70,0,0
123586,-83.3333333333333,4,2,1,70,0,0
124048,-100,4,2,1,70,0,0
124509,-125,4,2,1,70,0,0
126048,-100,4,2,1,70,0,0
128356,-83.3333333333333,4,2,1,70,0,0
129125,-100,4,2,1,70,0,0
130971,-166.666666666667,4,2,1,70,0,0
131586,307.692307692308,4,2,1,90,1,1
131586,-83.3333333333333,4,2,1,90,0,1
140201,-100,4,2,1,90,0,1
140355,-83.3333333333333,4,2,1,90,0,1
140509,-71.4285714285714,4,2,1,90,0,1
140662,-62.5,4,2,1,90,0,1
140816,-55.5555555555556,4,2,1,90,0,1
140970,-50,4,2,1,90,0,1
141432,-83.3333333333333,4,2,1,90,0,1
151278,-166.666666666667,4,2,1,60,0,0
161124,-100,4,2,1,80,0,0
170816,-55.5555555555556,4,2,1,60,0,0
170970,307.692307692308,7,2,1,60,1,0
170970,-166.666666666667,4,2,1,60,0,0
183893,307.692307692308,6,2,1,80,1,0
183893,-83.3333333333333,4,2,1,80,0,0
184816,-100,4,2,1,80,0,0
185739,307.692307692308,3,2,1,80,1,0
185739,-125,4,2,1,80,0,0
186200,-142.857142857143,4,2,1,80,0,0
186662,-166.666666666667,4,2,1,80,0,0
187123,-200,4,2,1,80,0,0
187585,307.692307692308,4,2,1,60,1,0
197123,-166.666666666667,4,2,1,5,0,0
199892,-125,4,2,1,60,0,0
209738,-100,4,2,1,80,0,0
219585,-83.3333333333333,4,2,1,90,0,1
228200,-100,4,2,1,90,0,1
228354,-83.3333333333333,4,2,1,90,0,1
228508,-71.4285714285714,4,2,1,90,0,1
228661,-62.5,4,2,1,90,0,1
228815,-55.5555555555556,4,2,1,90,0,1
228969,-50,4,2,1,90,0,1
229431,-83.3333333333333,4,2,1,90,0,1
238661,-83.3333333333333,4,2,1,90,0,0
239277,-83.3333333333333,4,2,1,90,0,1
247892,-100,4,2,1,90,0,1
248046,-83.3333333333333,4,2,1,90,0,1
248200,-71.4285714285714,4,2,1,90,0,1
248354,-62.5,4,2,1,90,0,1
248508,-55.5555555555556,4,2,1,90,0,1
248661,-50,4,2,1,90,0,1
249123,-83.3333333333333,4,2,1,90,0,1
258354,-100,4,2,1,70,0,0
258661,-83.3333333333333,4,2,1,70,0,0
258969,-100,4,2,1,70,0,0
259738,-83.3333333333333,4,2,1,70,0,0
260046,-125,4,2,1,70,0,0
260354,-100,4,2,1,70,0,0
261123,-83.3333333333333,4,2,1,70,0,0
261431,-100,4,2,1,70,0,0
261892,-125,4,2,1,70,0,0
262200,-100,4,2,1,70,0,0
263277,-83.3333333333333,4,2,1,70,0,0
263585,-125,4,2,1,70,0,0
263892,-100,4,2,1,70,0,0
264969,-125,4,2,1,70,0,0
265277,-100,4,2,1,70,0,0
266354,-125,4,2,1,70,0,0
266661,-100,4,2,1,70,0,0
266969,-83.3333333333333,4,2,1,70,0,0
267431,-71.4285714285714,4,2,1,70,0,0
267738,-100,4,2,1,70,0,0
268200,-125,4,2,1,70,0,0
268508,-100,4,2,1,70,0,0
268815,-83.3333333333333,4,2,1,70,0,0
269123,-100,4,2,1,70,0,0
269585,-125,4,2,1,70,0,0
269892,-100,4,2,1,70,0,0
270969,-125,4,2,1,70,0,0
271277,-83.3333333333333,4,2,1,70,0,0
271738,-100,4,2,1,70,0,0
272815,-125,4,2,1,70,0,0
273123,-100,4,2,1,70,0,0
273431,-83.3333333333333,4,2,1,70,0,0
273738,-100,4,2,1,70,0,0
276200,-125,4,2,1,60,0,0
278354,348.837209302326,4,2,1,60,1,0

[Colours]
Combo1 : 81,81,230
Combo2 : 233,233,233
Combo3 : 255,45,45
Combo4 : 255,6,131

[HitObjects]
141,218,12203,6,0,L|146:140,1,64,2|0,0:0|0:0,0:0:0:0:
141,218,12510,1,0,0:0:0:0:
361,160,12818,1,0,0:0:0:0:
361,160,12972,2,0,L|368:235,1,64,0|0,0:0|0:0,0:0:0:0:
210,292,13279,2,0,L|70:302,1,128,2|0,0:0|0:0,0:0:0:0:
302,92,13895,2,0,L|442:82,1,128,2|0,0:0|0:0,0:0:0:0:
491,153,14356,2,0,P|457:186|455:208,1,64,0|0,0:0|0:0,0:0:0:0:
489,271,14664,5,2,0:0:0:0:
248,201,14972,2,0,L|246:120,1,64,0|0,0:0|0:0,0:0:0:0:
145,68,15279,1,0,0:0:0:0:
145,68,15433,2,0,L|69:73,1,64,0|0,0:0|0:0,0:0:0:0:
30,212,15741,2,0,L|179:200,1,128,2|0,0:0|0:0,0:0:0:0:
362,323,16356,2,0,P|408:339|419:272,1,128,2|0,0:0|0:0,0:0:0:0:
334,244,16818,1,0,0:0:0:0:
252,253,16972,1,0,0:0:0:0:
242,254,17049,1,0,0:0:0:0:
232,255,17126,5,2,0:0:0:0:
49,286,17433,2,0,L|75:153,1,128,0|0,0:0|0:0,0:0:0:0:
166,113,17895,2,0,P|176:151|166:176,1,64,0|0,0:0|0:0,0:0:0:0:
74,59,18203,1,2,0:0:0:0:
418,52,18510,1,0,0:0:0:0:
255,320,18818,2,0,L|268:228,1,64,2|0,0:0|0:0,0:0:0:0:
444,257,19126,1,0,0:0:0:0:
444,257,19279,2,0,L|452:339,1,64,0|0,0:0|0:0,0:0:0:0:
356,316,19587,6,0,P|350:245|363:177,1,128,2|0,0:0|0:0,0:0:0:0:
220,136,20049,2,0,P|254:92|285:148,1,128,0|0,0:0|0:0,0:0:0:0:
126,146,20510,2,0,L|40:141,1,64,0|0,0:0|0:0,0:0:0:0:
59,262,20818,2,0,L|199:253,1,128,2|0,0:0|0:0,0:0:0:0:
305,246,21279,2,0,B|346:270|363:320|363:320|370:294|378:283,1,128,2|0,0:0|0:0,0:0:0:0:
383,290,21664,1,0,0:0:0:0:
392,290,21741,1,0,0:0:0:0:
401,290,21818,1,0,0:0:0:0:
410,290,21895,1,0,0:0:0:0:
419,290,21972,1,0,0:0:0:0:
431,290,22049,5,6,0:0:0:0:
424,200,22203,2,0,L|408:107,1,80,0|8,0:0|0:0,0:0:0:0:
482,37,22510,2,0,L|513:219,1,160,2|2,0:0|0:0,0:0:0:0:
340,203,22972,1,8,0:0:0:0:
340,203,23126,2,0,P|330:144|232:122,1,160,2|2,0:0|0:0,0:0:0:0:
181,211,23587,1,8,0:0:0:0:
261,208,23741,1,2,0:0:0:0:
261,208,23818,1,2,0:0:0:0:
261,208,23895,1,2,0:0:0:0:
243,116,24049,2,0,L|247:28,2,80,2|8|2,0:0|0:0|0:0,0:0:0:0:
159,126,24510,6,0,L|-8:133,1,160,2|8,0:0|0:0,0:0:0:0:
9,46,24972,1,2,0:0:0:0:
254,326,25279,2,0,L|263:237,1,80,2|8,0:0|0:0,0:0:0:0:
350,237,25587,2,0,P|394:275|392:382,1,160,2|2,0:0|0:0,0:0:0:0:
254,326,26049,1,8,0:0:0:0:
155,335,26203,1,2,0:0:0:0:
143,336,26279,1,2,0:0:0:0:
131,337,26356,1,2,0:0:0:0:
32,342,26510,2,0,L|49:247,1,80,2|8,0:0|0:0,0:0:0:0:
154,188,26818,1,2,0:0:0:0:
16,106,26972,6,0,L|46:264,1,160,6|8,0:0|0:0,0:0:0:0:
154,188,27433,1,2,0:0:0:0:
119,88,27587,2,0,P|110:39|129:6,1,80,0|2,0:0|0:0,0:0:0:0:
255,20,27895,1,8,0:0:0:0:
336,5,28049,2,0,B|345:90|345:90|384:138|397:168,1,160,2|2,0:0|0:0,0:0:0:0:
447,218,28510,1,8,0:0:0:0:
446,80,28664,1,2,0:0:0:0:
446,80,28741,1,2,0:0:0:0:
446,80,28818,1,2,0:0:0:0:
312,164,28972,2,0,P|297:198|297:246,1,80,2|8,0:0|0:0,0:0:0:0:
401,333,29279,1,2,0:0:0:0:
401,333,29433,6,0,P|417:284|412:237,1,80,2|0,0:0|0:0,0:0:0:0:
295,240,29741,2,0,L|185:248,1,80,8|2,0:0|0:0,0:0:0:0:
130,313,30049,2,0,L|32:321,1,80,0|2,0:0|0:0,0:0:0:0:
215,329,30356,1,8,0:0:0:0:
128,226,30510,2,0,B|128:149|128:149|187:71,1,160,2|2,0:0|0:0,0:0:0:0:
266,15,30972,1,8,0:0:0:0:
362,37,31126,1,2,0:0:0:0:
373,39,31203,1,2,0:0:0:0:
384,41,31279,1,2,0:0:0:0:
481,39,31433,2,0,L|494:125,1,80,2|8,0:0|0:0,0:0:0:0:
354,130,31741,1,2,0:0:0:0:
354,130,31895,5,6,0:0:0:0:
176,307,32203,2,0,L|186:224,1,64,2|2,0:3|0:0,0:0:0:0:
336,307,32510,1,0,0:0:0:0:
336,307,32664,2,0,L|328:243,1,64,2|2,0:0|0:3,0:0:0:0:
213,118,32972,2,0,P|175:98|147:93,1,64,2|0,0:0|0:0,0:0:0:0:
77,181,33279,2,0,P|130:175|164:160,1,64,2|2,0:0|0:3,0:0:0:0:
299,118,33587,2,0,P|337:98|365:93,1,64,2|2,0:0|0:0,0:0:0:0:
435,181,33895,2,0,P|382:175|348:160,1,64,2|2,0:0|0:3,0:0:0:0:
254,48,34203,1,2,0:0:0:0:
254,48,34356,5,2,0:0:0:0:
399,253,34664,2,0,L|403:334,1,64,2|2,0:3|0:0,0:0:0:0:
255,337,34972,1,0,0:0:0:0:
255,337,35126,2,0,L|255:266,1,64,2|2,0:0|0:3,0:0:0:0:
113,253,35433,2,0,L|109:334,1,64,2|0,0:0|0:0,0:0:0:0:
230,200,35741,2,0,P|193:191|166:218,1,64,2|2,0:0|0:3,0:0:0:0:
255,337,36049,2,0,P|292:346|319:319,1,64,2|2,0:0|0:0,0:0:0:0:
332,167,36356,1,0,0:0:0:0:
413,176,36510,2,0,L|503:185,1,64,2|2,0:3|0:0,0:0:0:0:
332,167,36818,5,6,0:0:0:0:
151,107,37126,2,0,L|67:111,1,64,2|2,0:3|0:0,0:0:0:0:
0,111,37433,2,0,L|6:35,1,64,0|2,0:0|0:0,0:0:0:0:
223,39,37741,1,2,0:3:0:0:
223,39,37895,2,0,L|236:113,1,64,2|0,0:0|0:0,0:0:0:0:
361,107,38203,2,0,L|445:111,1,64,2|2,0:0|0:3,0:0:0:0:
512,111,38510,2,0,L|506:35,1,64,2|2,0:0|0:0,0:0:0:0:
322,21,38818,1,2,0:0:0:0:
301,155,38972,2,0,L|288:233,1,64,2|2,0:3|0:0,0:0:0:0:
192,249,39279,6,0,P|153:211|69:193,1,128,2|2,0:0|0:3,0:0:0:0:
268,297,39741,2,0,P|315:307|405:281,1,128,2|2,0:0|0:0,0:0:0:0:
194,324,40203,2,0,P|166:354|178:376,1,64,2|2,0:3|0:0,0:0:0:0:
268,297,40510,6,0,L|255:204,1,64,0|2,0:0|0:0,0:0:0:0:
325,158,40818,1,2,0:3:0:0:
188,149,40972,1,2,0:0:0:0:
178,147,41049,1,0,0:0:0:0:
168,145,41126,2,0,L|177:103,1,32,2|0,0:0|0:0,0:0:0:0:
255,96,41279,2,0,L|264:54,1,32,2|0,0:0|0:0,0:0:0:0:
338,36,41433,1,0,0:0:0:0:
347,35,41510,1,0,0:0:0:0:
356,34,41587,1,0,0:0:0:0:
365,33,41664,1,0,0:0:0:0:
377,32,41741,5,6,0:0:0:0:
76,304,42049,2,0,L|59:197,1,80,8|2,0:0|0:0,0:0:0:0:
228,171,42356,1,0,0:0:0:0:
228,171,42510,2,0,P|272:197|274:237,1,80,2|8,0:0|0:0,0:0:0:0:
183,296,42818,2,0,L|349:296,1,160,2|2,0:0|0:0,0:0:0:0:
450,346,43279,1,8,0:0:0:0:
463,261,43433,1,2,0:0:0:0:
465,249,43510,1,8,0:0:0:0:
467,237,43587,1,8,0:0:0:0:
414,141,43741,2,0,P|379:172|405:219,1,80,2|8,0:0|0:0,0:0:0:0:
500,111,44049,1,2,0:0:0:0:
500,111,44203,5,2,0:0:0:0:
131,131,44510,2,0,L|116:41,1,80,8|2,0:0|0:0,0:0:0:0:
204,17,44818,1,0,0:0:0:0:
131,131,44972,2,0,L|45:121,1,80,2|8,0:0|0:0,0:0:0:0:
204,17,45279,2,0,L|370:38,1,160,2|2,0:0|0:0,0:0:0:0:
369,125,45741,1,8,0:0:0:0:
255,113,45895,1,2,0:0:0:0:
243,116,45972,1,8,0:0:0:0:
231,119,46049,1,8,0:0:0:0:
167,210,46203,1,2,0:0:0:0:
268,218,46356,1,8,0:0:0:0:
130,118,46510,1,4,0:3:0:0:
112,280,46664,5,6,0:0:0:0:
457,195,46972,2,0,L|472:280,1,80,8|2,0:0|0:0,0:0:0:0:
363,317,47279,1,0,0:0:0:0:
389,192,47433,2,0,P|433:176|459:200,1,80,2|8,0:0|0:0,0:0:0:0:
363,317,47741,2,0,P|311:333|216:272,1,160,2|2,0:0|0:0,0:0:0:0:
121,238,48203,1,8,0:0:0:0:
41,302,48356,1,2,0:0:0:0:
41,302,48433,1,0,0:0:0:0:
41,302,48510,1,0,0:0:0:0:
121,238,48664,2,0,L|126:138,2,80,2|8|2,0:0|0:0|0:0,0:0:0:0:
31,213,49126,6,0,L|39:44,1,160,2|8,0:0|0:0,0:0:0:0:
252,36,49587,2,0,L|253:125,1,80,2|0,0:0|0:0,0:0:0:0:
168,76,49895,1,2,0:0:0:0:
333,75,50049,1,8,0:0:0:0:
356,213,50203,1,2,0:0:0:0:
156,213,50356,5,8,0:0:0:0:
252,115,50510,1,8,0:0:0:0:
255,276,50664,1,8,0:0:0:0:
104,291,50818,1,0,0:0:0:0:
104,291,50895,1,0,0:0:0:0:
104,291,50972,2,0,L|149:277,1,40,2|0,0:0|0:0,0:0:0:0:
255,276,51126,2,0,L|292:289,1,40,2|0,0:0|0:0,0:0:0:0:
369,279,51279,2,0,L|408:291,1,40,8|0,1:3|0:0,0:0:0:0:
255,276,51433,2,0,L|217:289,1,40,4|0,1:3|0:0,0:0:0:0:
161,364,51587,6,0,L|185:162,1,191.999994140625,4|0,0:0|0:0,0:0:0:0:
130,118,52049,6,0,P|126:106|79:133,2,80,2|8|2,0:0|0:0|0:0,0:0:0:0:
210,86,52510,6,0,L|220:-1,1,64,2|2,0:0|0:0,0:0:0:0:
445,10,52818,1,0,0:0:0:0:
463,350,53126,1,0,0:0:0:0:
376,349,53279,2,0,L|292:346,1,64,2|8,0:0|0:0,0:0:0:0:
223,309,53587,2,0,P|177:369|108:351,1,128,2|2,0:0|0:0,0:0:0:0:
25,304,54049,6,0,P|55:237|139:299,1,191.999994140625,2|0,0:0|0:0,0:0:0:0:
223,309,54510,6,0,L|241:213,2,80,2|8|2,0:0|0:0|0:0,0:0:0:0:
341,234,54972,6,0,L|354:320,1,64,2|2,0:0|0:0,0:0:0:0:
443,261,55279,1,0,0:0:0:0:
79,180,55587,1,0,0:0:0:0:
150,136,55741,2,0,P|171:106|157:63,1,64,2|8,0:0|0:0,0:0:0:0:
95,86,56049,2,0,L|239:143,1,128,2|2,0:0|0:0,0:0:0:0:
449,85,56510,6,0,L|289:135,1,160,4|8,0:0|0:0,0:0:0:0:
262,220,56972,1,8,0:0:0:0:
262,220,57049,1,8,0:0:0:0:
262,220,57126,1,8,0:0:0:0:
379,250,57279,1,0,0:0:0:0:
252,68,57433,1,8,0:0:0:0:
146,267,57587,2,0,L|47:297,1,80,8|0,0:0|0:0,0:0:0:0:
2,206,57895,1,8,0:0:0:0:
70,291,58049,2,0,L|192:306,1,120,8|0,0:0|0:0,0:0:0:0:
238,312,58356,1,8,0:0:0:0:
428,374,58510,1,8,0:0:0:0:
376,168,58664,1,8,0:0:0:0:
340,286,58818,6,0,P|412:284|492:178,1,191.999994140625,12|0,0:0|0:0,0:0:0:0:
376,168,59279,2,0,P|335:165|356:209,1,95.9999970703126,2|0,0:1|0:0,0:0:0:0:
352,68,59587,6,0,B|293:68|293:68|255:27|190:33,1,160,8|2,0:0|0:1,0:0:0:0:
65,139,60049,1,8,0:0:0:0:
232,177,60203,2,0,P|243:150|207:111,1,80,0|0,1:0|1:1,0:0:0:0:
65,139,60510,1,2,1:1:0:0:
57,304,60664,1,8,0:0:0:0:
195,301,60818,1,8,0:0:0:0:
123,222,60972,1,0,1:0:0:0:
123,222,61049,1,0,1:0:0:0:
123,222,61126,1,2,1:0:0:0:
123,374,61279,1,0,0:0:0:0:
195,301,61433,6,0,L|382:311,1,167.999994873047,0|0,0:0|0:0,0:0:0:0:
422,313,62049,6,0,P|477:270|484:126,1,191.999994140625,6|8,3:2|0:0,0:0:0:0:
493,5,62510,2,0,P|438:48|431:192,1,191.999994140625,2|2,0:0|0:0,0:0:0:0:
332,58,62972,2,0,L|237:62,1,95.9999970703126,8|2,0:0|0:0,0:0:0:0:
141,194,63279,1,0,0:0:0:0:
237,322,63433,2,0,L|332:326,1,95.9999970703126,2|8,0:0|0:0,0:0:0:0:
371,194,63741,1,2,0:0:0:0:
356,193,63818,1,8,0:0:0:0:
341,192,63895,1,8,0:0:0:0:
241,186,64049,2,0,P|217:138|183:102,2,95.9999970703126,2|8|2,0:0|0:0|0:0,0:0:0:0:
93,268,64510,6,0,P|48:220|112:109,1,191.999994140625,2|8,0:0|0:0,0:0:0:0:
241,186,64972,2,0,B|238:297|238:297|203:327|199:370,1,191.999994140625,2|2,0:0|0:0,0:0:0:0:
292,372,65433,1,8,0:0:0:0:
412,324,65587,2,0,L|410:219,1,95.9999970703126,2|0,0:0|0:0,0:0:0:0:
412,60,65895,2,0,L|410:165,1,95.9999970703126,2|8,0:0|0:0,0:0:0:0:
508,227,66202,1,2,0:0:0:0:
507,212,66279,1,8,0:0:0:0:
506,197,66356,1,8,0:0:0:0:
313,200,66510,1,2,0:0:0:0:
316,326,66664,2,0,L|424:319,1,95.9999970703126,8|2,0:0|0:0,0:0:0:0:
313,200,66972,6,0,L|150:208,1,143.999995605469,2|0,0:0|0:0,0:0:0:0:
115,211,67279,1,8,0:0:0:0:
10,218,67433,2,0,L|26:111,1,95.9999970703126,2|0,0:0|0:0,0:0:0:0:
175,128,67741,2,0,L|191:21,1,95.9999970703126,2|8,0:0|0:0,0:0:0:0:
337,128,68049,2,0,L|321:21,1,95.9999970703126,2|0,0:0|0:0,0:0:0:0:
487,123,68356,2,0,L|502:218,1,95.9999970703126,2|8,0:0|0:0,0:0:0:0:
332,218,68664,1,2,0:0:0:0:
317,217,68741,1,8,0:0:0:0:
302,216,68818,1,8,0:0:0:0:
172,229,68972,2,0,P|172:290|185:325,2,95.9999970703126,2|8|2,0:0|0:0|0:0,0:0:0:0:
319,327,69433,6,0,P|337:262|323:163,1,143.999995605469,2|0,0:0|0:0,0:0:0:0:
305,140,69741,2,0,P|289:124|328:110,1,47.9999985351563,8|0,0:0|0:0,0:0:0:0:
416,29,69895,2,0,P|474:52|416:158,1,191.999994140625,2|2,0:0|0:0,0:0:0:0:
376,105,70356,1,8,0:0:0:0:
211,104,70510,1,2,0:0:0:0:
211,104,70587,1,2,0:0:0:0:
211,104,70664,6,0,L|146:93,1,40,2|0,0:1|0:0,0:0:0:0:
130,90,70818,6,0,L|63:79,1,47.9999985351563,0|0,0:0|0:0,0:0:0:0:
186,186,70972,6,0,L|120:180,1,55.9999982910157,8|0,0:0|0:0,0:0:0:0:
91,176,71125,6,0,L|14:168,1,64,2|8,0:1|0:0,0:0:0:0:
190,274,71279,6,0,L|111:272,1,71.9999978027344,0|0,0:0|0:0,0:0:0:0:
81,271,71433,6,0,L|-2:269,1,80,2|0,0:1|0:0,0:0:0:0:
216,206,71587,2,0,P|263:281|217:342,1,160,8|4,1:3|1:3,0:0:0:0:
187,361,71818,1,0,0:0:0:0:
187,361,71895,6,0,P|228:271|326:291,1,191.999994140625,6|8,3:2|0:0,0:0:0:0:
479,110,72356,2,0,P|476:226|405:251,1,191.999994140625,2|2,0:0|0:0,0:0:0:0:
288,99,72818,1,8,0:0:0:0:
394,68,72972,2,0,L|492:117,1,95.9999970703126,2|0,0:0|0:0,0:0:0:0:
277,184,73279,2,0,L|191:141,1,95.9999970703126,2|8,0:0|0:0,0:0:0:0:
48,67,73587,1,2,0:0:0:0:
50,52,73664,1,8,0:0:0:0:
52,37,73741,1,8,0:0:0:0:
228,32,73895,1,2,0:0:0:0:
191,141,74049,2,0,P|157:162|108:125,1,95.9999970703126,8|2,0:0|0:0,0:0:0:0:
316,141,74356,6,0,P|381:115|448:205,1,191.999994140625,2|8,0:0|0:0,0:0:0:0:
340,311,74818,2,0,B|287:315|255:270|255:270|220:320|157:309,1,191.999994140625,2|2,0:0|0:0,0:0:0:0:
48,313,75279,2,0,L|56:209,1,95.9999970703126,8|2,0:0|0:0,0:0:0:0:
179,220,75587,1,0,0:0:0:0:
333,220,75741,1,2,0:0:0:0:
256,359,75895,1,8,0:0:0:0:
256,200,76049,1,2,0:0:0:0:
256,185,76125,1,8,0:0:0:0:
256,170,76202,1,8,0:0:0:0:
456,217,76356,2,0,L|464:313,1,95.9999970703126,2|8,0:0|0:0,0:0:0:0:
179,220,76818,6,0,P|162:137|120:94,1,143.999995605469,2|0,0:0|0:0,0:0:0:0:
75,79,77125,1,8,0:0:0:0:
25,207,77279,2,0,P|86:234|102:199,1,95.9999970703126,2|0,0:0|0:0,0:0:0:0:
254,95,77587,1,2,0:0:0:0:
254,95,77741,1,8,0:0:0:0:
341,158,77895,2,0,B|495:164|495:164|454:138,1,191.999994140625,2|2,0:0|0:0,0:0:0:0:
396,67,78356,1,8,0:0:0:0:
393,243,78510,1,2,0:0:0:0:
405,250,78587,1,8,0:0:0:0:
417,257,78664,1,8,0:0:0:0:
341,158,78818,2,0,P|296:208|296:247,1,95.9999970703126,2|8,0:0|0:0,0:0:0:0:
190,101,79279,6,0,P|276:147|283:262,1,191.999994140625,2|8,0:0|0:0,0:0:0:0:
185,249,79741,2,0,P|174:197|218:212,1,95.9999970703126,2|0,0:0|0:0,0:0:0:0:
257,324,80049,1,2,0:0:0:0:
257,324,80202,1,8,0:0:0:0:
113,279,80356,2,0,L|10:284,1,95.9999970703126,2|0,0:0|0:0,0:0:0:0:
17,100,80664,2,0,L|113:105,1,95.9999970703126,8|8,0:0|0:0,0:0:0:0:
289,109,80972,1,8,0:0:0:0:
291,94,81049,1,8,0:0:0:0:
293,79,81125,1,8,0:0:0:0:
473,13,81279,5,8,0:0:0:0:
468,222,81433,1,8,1:3:0:0:
282,170,81587,1,4,1:3:0:0:
299,18,81741,6,0,P|386:64|383:142,1,160,6|8,0:0|0:0,0:0:0:0:
363,193,82202,2,0,P|354:228|390:255,2,80,2|2|2,0:0|0:1|0:0,0:0:0:0:
446,194,82664,1,8,0:0:0:0:
446,194,82818,1,2,0:0:0:0:
75,192,83125,1,2,0:0:0:0:
75,192,83279,2,0,L|87:101,1,80,8|2,0:0|0:0,0:0:0:0:
97,113,83510,1,8,0:0:0:0:
108,113,83587,2,0,L|120:22,1,80,2|2,0:1|0:0,0:0:0:0:
167,184,83895,2,0,L|265:184,1,80,8|2,0:0|0:0,0:0:0:0:
269,36,84202,5,2,0:0:0:0:
175,363,84510,1,8,0:0:0:0:
132,288,84664,1,2,0:0:0:0:
217,295,84818,1,2,0:1:0:0:
95,360,84972,1,2,0:0:0:0:
94,222,85125,1,8,0:0:0:0:
217,295,85279,2,0,P|288:318|381:295,1,160,2|2,0:0|0:0,0:0:0:0:
435,217,85741,1,8,0:0:0:0:
486,292,85895,1,2,0:0:0:0:
474,290,85972,1,8,0:0:0:0:
462,288,86049,1,2,0:1:0:0:
349,222,86202,2,0,L|340:125,1,80,2|8,0:0|0:0,0:0:0:0:
427,137,86510,6,0,L|437:240,1,80,2|6,0:0|0:0,0:0:0:0:
77,216,86972,2,0,L|85:137,1,80,8|2,0:0|0:0,0:0:0:0:
179,124,87279,1,2,0:1:0:0:
177,235,87433,2,0,P|139:282|135:325,1,80,2|8,0:0|0:0,0:0:0:0:
298,377,87741,2,0,P|304:325|211:317,1,160,2|2,0:0|0:0,0:0:0:0:
166,377,88202,1,8,0:0:0:0:
49,346,88356,1,2,0:0:0:0:
38,351,88433,1,8,0:0:0:0:
27,357,88510,1,2,0:1:0:0:
86,243,88664,1,2,0:0:0:0:
16,167,88818,2,0,L|15:75,1,80,8|2,0:0|0:0,0:0:0:0:
134,39,89125,5,2,0:0:0:0:
496,87,89433,2,0,L|496:167,1,80,8|2,0:0|0:0,0:0:0:0:
387,210,89741,1,2,0:1:0:0:
308,169,89895,2,0,P|309:124|343:89,1,80,2|8,0:0|0:0,0:0:0:0:
174,88,90202,2,0,P|210:150|167:233,1,160,2|2,0:0|0:0,0:0:0:0:
119,158,90664,1,8,0:0:0:0:
282,158,90818,1,2,0:0:0:0:
293,158,90895,1,8,0:0:0:0:
304,158,90972,1,2,0:1:0:0:
206,304,91125,1,2,0:0:0:0:
342,158,91279,2,0,L|348:249,1,80,8|2,0:0|0:0,0:0:0:0:
487,286,91587,6,0,L|477:140,1,128,4|0,0:0|0:0,0:0:0:0:
384,37,92048,2,0,P|354:66|377:102,1,64,0|8,0:0|0:0,0:0:0:0:
434,95,92356,1,0,0:0:0:0:
287,44,92510,2,0,L|152:51,1,128,0|0,0:0|0:0,0:0:0:0:
85,96,92971,2,0,P|80:67|42:50,2,64,0|8|0,0:0|0:0|0:0,0:0:0:0:
12,125,93433,6,0,L|19:278,1,128,0|0,0:0|0:0,0:0:0:0:
150,329,93894,2,0,P|164:284|153:258,1,64,0|8,0:0|0:0,0:0:0:0:
84,289,94202,1,0,0:0:0:0:
239,310,94356,2,0,L|394:303,1,128,0|0,0:0|0:0,0:0:0:0:
512,200,94817,1,8,1:3:0:0:
495,371,94971,1,4,1:3:0:0:
413,217,95125,1,4,1:3:0:0:
399,335,95279,5,6,0:0:0:0:
150,150,95587,1,0,0:0:0:0:
105,238,95740,2,0,L|254:219,1,128,8|2,0:0|0:0,0:0:0:0:
231,221,96125,1,0,0:0:0:0:
231,221,96202,1,2,0:0:0:0:
307,165,96356,2,0,L|456:146,1,128,0|8,0:0|0:0,0:0:0:0:
433,148,96740,1,8,0:0:0:0:
433,148,96817,1,8,0:0:0:0:
366,235,96971,1,2,0:0:0:0:
230,140,97125,6,0,L|217:84,5,32,6|0|0|0|2|0,0:0|0:0|0:0|0:0|0:0|0:0,0:0:0:0:
151,144,97587,2,0,L|138:88,5,32,6|0|0|0|2|0,0:0|0:0|0:0|0:0|0:0|0:0,0:0:0:0:
72,148,98048,2,0,L|59:92,5,32,6|0|0|0|2|0,0:0|0:0|0:0|0:0|0:0|0:0,0:0:0:0:
72,236,98510,2,0,L|59:292,5,32,6|0|0|0|2|0,0:0|0:0|0:0|0:0|0:0|0:0,0:0:0:0:
153,237,98971,1,6,0:0:0:0:
256,192,99048,12,8,101125,0:0:0:0:
143,193,101433,6,0,L|136:251,1,47.9999985351563,2|0,0:0|0:0,0:0:0:0:
93,126,101740,2,0,L|25:125,1,47.9999985351563,2|0,0:0|0:0,0:0:0:0:
45,258,102048,1,2,0:0:0:0:
45,258,102202,2,0,L|93:258,1,47.9999985351563,0|2,0:0|0:0,0:0:0:0:
230,149,102509,2,0,P|232:116|223:85,1,47.9999985351563,0|2,0:0|0:0,0:0:0:0:
230,235,102817,2,0,P|232:268|223:299,1,47.9999985351563,0|2,0:0|0:0,0:0:0:0:
318,148,103125,2,0,L|380:138,1,47.9999985351563,0|2,0:0|0:0,0:0:0:0:
318,236,103433,2,0,L|380:246,1,47.9999985351563,0|2,0:0|0:0,0:0:0:0:
468,194,103740,1,0,0:0:0:0:
468,194,103894,5,2,0:0:0:0:
339,106,104202,2,0,P|317:147|317:167,1,47.9999985351563,2|0,0:0|0:0,0:0:0:0:
339,278,104509,1,2,0:0:0:0:
339,278,104663,2,0,P|317:237|317:217,1,47.9999985351563,0|2,0:0|0:0,0:0:0:0:
203,124,104971,2,0,L|141:109,1,47.9999985351563,0|2,0:0|0:0,0:0:0:0:
203,260,105279,2,0,L|141:275,1,47.9999985351563,0|2,0:0|0:0,0:0:0:0:
57,146,105586,2,0,P|85:158|96:184,1,47.9999985351563,0|2,0:0|0:0,0:0:0:0:
23,269,105894,2,0,L|37:205,1,47.9999985351563,0|2,0:0|0:0,0:0:0:0:
172,192,106202,1,0,0:0:0:0:
172,192,106356,6,0,L|197:89,1,95.9999970703126,2|2,0:0|0:0,0:0:0:0:
326,296,106971,1,2,0:0:0:0:
326,296,107125,2,0,L|312:231,1,47.9999985351563,0|2,0:0|0:0,0:0:0:0:
197,302,107433,2,0,P|179:328|181:353,1,47.9999985351563,0|2,0:0|0:0,0:0:0:0:
333,343,107740,2,0,P|330:320|315:302,1,47.9999985351563,0|2,0:0|0:0,0:0:0:0:
197,302,108048,2,0,L|85:315,1,95.9999970703126,0|0,0:0|0:0,0:0:0:0:
10,320,108509,2,0,L|20:267,1,47.9999985351563,2|0,0:0|0:0,0:0:0:0:
26,271,108740,1,0,0:0:0:0:
33,269,108817,6,0,L|53:163,1,95.9999970703126,2|2,0:0|0:0,0:0:0:0:
239,169,109279,2,0,L|254:278,1,95.9999970703126,0|0,0:0|0:0,0:0:0:0:
122,235,109740,2,0,P|155:222|170:229,1,47.9999985351563,2|0,0:0|0:0,0:0:0:0:
339,237,110048,2,0,P|391:265|441:255,1,95.9999970703126,2|2,0:0|0:0,0:0:0:0:
487,146,110509,2,0,P|435:153|395:197,1,95.9999970703126,0|0,0:0|0:0,0:0:0:0:
506,226,110971,1,2,0:0:0:0:
465,69,111125,1,0,0:0:0:0:
464,62,111202,1,0,0:0:0:0:
462,55,111279,5,4,0:0:0:0:
219,27,111586,2,0,P|165:84|231:101,1,160,0|8,0:0|0:0,0:0:0:0:
357,69,112048,2,0,L|269:70,1,80,0|0,0:0|0:0,0:0:0:0:
55,109,112356,2,0,L|233:108,1,160,0|0,0:0|0:0,0:0:0:0:
292,200,112817,1,0,0:0:0:0:
212,250,112971,2,0,L|211:338,1,80,0|8,0:0|0:0,0:0:0:0:
377,325,113279,2,0,P|385:274|359:250,1,80,0|0,0:0|0:0,0:0:0:0:
285,296,113586,1,0,0:0:0:0:
296,297,113663,1,0,0:0:0:0:
307,298,113740,5,0,0:0:0:0:
491,311,114048,2,0,B|505:233|505:233|472:195|443:140,1,160,0|8,0:0|0:0,0:0:0:0:
441,83,114509,2,0,P|490:77|505:118,1,80,0|0,0:0|0:0,0:0:0:0:
365,144,114817,2,0,L|334:53,1,80,0|0,0:0|0:0,0:0:0:0:
291,169,115125,2,0,L|260:78,1,80,0|0,0:0|0:0,0:0:0:0:
216,196,115433,2,0,L|185:105,1,80,0|8,0:0|0:0,0:0:0:0:
13,83,115740,1,0,0:0:0:0:
93,162,115894,1,0,0:0:0:0:
121,47,116048,1,0,0:0:0:0:
125,35,116125,1,0,0:0:0:0:
129,23,116202,5,0,0:0:0:0:
12,200,116509,2,0,P|39:277|26:362,1,160,0|8,0:0|0:0,0:0:0:0:
108,224,116971,2,0,L|204:242,1,80,0|0,0:0|0:0,0:0:0:0:
253,311,117279,2,0,L|349:329,1,80,0|0,0:0|0:0,0:0:0:0:
305,157,117586,2,0,P|274:215|269:251,1,80,0|0,0:0|0:0,0:0:0:0:
412,366,117894,2,0,P|443:308|448:272,1,80,0|8,0:0|0:0,0:0:0:0:
454,116,118202,2,0,P|393:193|368:262,1,160,0|0,0:0|0:0,0:0:0:0:
382,250,118586,1,0,0:0:0:0:
393,250,118663,6,0,P|364:197|347:95,1,160,0|0,0:0|0:0,0:0:0:0:
165,99,119125,2,0,P|154:178|119:250,1,160,0|0,0:0|0:0,0:0:0:0:
15,122,119586,2,0,P|73:129|86:156,1,80,0|0,0:0|0:0,0:0:0:0:
119,249,119894,2,0,P|162:263|189:235,1,80,0|0,0:0|0:0,0:0:0:0:
312,157,120202,1,0,0:0:0:0:
247,89,120356,1,0,0:0:0:0:
241,99,120433,1,0,0:0:0:0:
235,109,120509,2,0,L|235:157,1,40,8|0,0:3|0:0,0:0:0:0:
312,157,120663,2,0,L|312:205,1,40,4|0,0:3|0:0,0:0:0:0:
389,184,120817,2,0,L|389:232,1,40,2|0,0:0|0:0,0:0:0:0:
464,210,120971,2,0,L|464:258,1,40,2|0,0:0|0:0,0:0:0:0:
319,317,121125,6,0,L|121:333,1,191.999994140625,6|0,0:0|0:0,0:0:0:0:
48,299,121586,6,0,B|32:259|32:259|74:216,2,80,2|8|2,0:0|0:0|0:0,0:0:0:0:
152,246,122048,6,0,L|99:118,1,128,0|2,0:0|0:0,0:0:0:0:
362,126,122663,1,0,0:0:0:0:
279,147,122817,2,0,L|287:64,1,64,2|8,0:0|0:0,0:0:0:0:
446,82,123125,2,0,B|439:168|439:168|461:197|474:222,1,128,2|2,0:0|0:0,0:0:0:0:
403,360,123586,6,0,P|352:335|403:231,1,191.999994140625,2|0,0:0|0:0,0:0:0:0:
440,292,124048,6,0,L|265:309,1,160,2|2,0:0|0:0,0:0:0:0:
194,315,124509,6,0,P|159:356|130:361,1,64,2|0,0:0|0:0,0:0:0:0:
115,280,124817,1,2,0:0:0:0:
346,65,125125,1,2,0:0:0:0:
255,49,125279,2,0,L|268:128,1,64,2|8,0:0|0:0,0:0:0:0:
168,161,125586,2,0,P|154:117|92:48,1,128,2|2,0:0|0:0,0:0:0:0:
6,24,126048,5,4,0:0:0:0:
310,203,126356,1,8,0:0:0:0:
386,163,126509,1,8,0:0:0:0:
384,174,126586,1,8,0:0:0:0:
382,185,126663,1,8,0:0:0:0:
226,220,126817,1,8,0:0:0:0:
314,113,126971,1,8,0:0:0:0:
356,259,127125,2,0,L|343:347,1,80,8|8,0:0|0:0,0:0:0:0:
182,335,127433,2,0,L|154:162,1,160,8|8,0:0|0:0,0:0:0:0:
7,109,127894,1,8,0:0:0:0:
39,226,128048,1,8,0:0:0:0:
124,61,128202,1,0,0:0:0:0:
156,177,128356,5,4,0:0:0:0:
256,172,128509,2,0,L|457:165,1,191.999994140625,2|2,0:0|0:1,0:0:0:0:
413,37,129125,6,0,P|327:35|280:90,1,160,8|2,0:0|0:1,0:0:0:0:
256,172,129586,1,8,0:0:0:0:
354,277,129740,1,2,0:0:0:0:
407,207,129894,1,8,0:0:0:0:
255,255,130048,1,2,0:1:0:0:
254,371,130202,1,8,0:0:0:0:
354,277,130356,1,8,0:0:0:0:
158,277,130509,1,2,0:0:0:0:
154,288,130586,1,2,0:0:0:0:
150,299,130663,1,2,1:0:0:0:
105,207,130817,1,8,0:0:0:0:
14,254,130971,6,0,L|35:81,1,167.999994873047,0|0,0:0|0:0,0:0:0:0:
43,25,131586,6,0,B|185:22|185:22|172:102,1,191.999994140625,6|8,3:2|0:0,0:0:0:0:
360,137,132047,2,0,B|351:186|351:186|493:183,1,191.999994140625,2|2,0:0|0:0,0:0:0:0:
292,98,132509,2,0,L|273:201,1,95.9999970703126,8|2,0:0|0:0,0:0:0:0:
246,351,132816,1,0,0:0:0:0:
193,233,132970,2,0,L|210:138,1,95.9999970703126,2|8,0:0|0:0,0:0:0:0:
235,17,133278,1,2,0:0:0:0:
249,17,133355,1,8,0:0:0:0:
263,17,133432,1,8,0:0:0:0:
274,192,133586,1,2,0:0:0:0:
104,201,133739,2,0,L|-9:206,1,95.9999970703126,8|2,0:0|0:0,0:0:0:0:
210,138,134047,6,0,B|325:134|325:134|381:206,1,191.999994140625,2|8,0:0|0:0,0:0:0:0:
246,351,134509,2,0,B|136:356|136:356|172:269,1,191.999994140625,2|2,0:0|0:0,0:0:0:0:
395,101,134970,2,0,L|465:190,1,95.9999970703126,8|2,0:0|0:0,0:0:0:0:
308,294,135278,1,0,0:0:0:0:
175,227,135432,2,0,L|216:121,1,95.9999970703126,2|8,0:0|0:0,0:0:0:0:
96,23,135739,1,2,0:0:0:0:
82,27,135816,1,8,0:0:0:0:
68,32,135893,1,8,0:0:0:0:
55,269,136047,1,2,0:0:0:0:
322,289,136201,2,0,B|344:353|344:353|316:360,1,95.9999970703126,8|2,0:0|0:0,0:0:0:0:
161,355,136508,6,0,B|138:339|138:339|201:244|201:244|259:282,1,191.999994140625,2|8,0:0|0:0,0:0:0:0:
308,158,136970,2,0,B|342:62|342:62|243:5,1,191.999994140625,2|2,0:0|0:0,0:0:0:0:
141,41,137432,1,8,0:0:0:0:
212,164,137586,2,0,L|323:156,1,95.9999970703126,2|0,0:0|0:0,0:0:0:0:
44,178,137893,2,0,L|155:170,1,95.9999970703126,2|8,0:0|0:0,0:0:0:0:
385,148,138201,1,2,0:0:0:0:
399,146,138278,1,8,0:0:0:0:
413,144,138355,1,8,0:0:0:0:
497,299,138509,1,2,0:0:0:0:
363,256,138662,2,0,L|341:353,1,95.9999970703126,8|2,0:0|0:0,0:0:0:0:
178,353,138970,6,0,B|162:248|162:248|68:213,1,191.999994140625,2|8,0:0|0:0,0:0:0:0:
8,275,139432,2,0,B|91:304|91:304|162:217,1,191.999994140625,2|2,0:0|0:0,0:0:0:0:
232,116,139893,1,8,0:0:0:0:
81,126,140047,1,2,0:0:0:0:
81,126,140124,1,2,0:0:0:0:
81,126,140201,6,0,L|72:70,1,40,2|0,0:1|0:0,0:0:0:0:
142,19,140355,6,0,L|154:103,1,47.9999985351563,0|0,0:0|0:0,0:0:0:0:
232,116,140509,6,0,L|222:48,1,55.9999982910157,8|0,0:0|0:0,0:0:0:0:
294,9,140662,6,0,L|306:81,1,64,2|8,0:1|0:0,0:0:0:0:
390,117,140816,6,0,L|377:43,1,71.9999978027344,8|0,0:0|0:0,0:0:0:0:
450,0,140970,6,0,L|467:93,1,80,2|0,0:1|0:0,0:0:0:0:
416,216,141124,2,0,B|440:330|440:330|454:274,1,160,8|4,0:3|0:3,0:0:0:0:
465,288,141355,1,0,0:0:0:0:
479,288,141432,6,0,B|461:199|461:199|356:193,1,191.999994140625,6|8,3:2|0:0,0:0:0:0:
152,266,141893,2,0,B|170:355|170:355|275:361,1,191.999994140625,2|2,0:0|0:0,0:0:0:0:
362,280,142355,2,0,L|260:273,1,95.9999970703126,8|2,0:0|0:0,0:0:0:0:
34,259,142662,1,0,0:0:0:0:
161,89,142816,2,0,L|184:205,1,95.9999970703126,2|8,0:0|0:0,0:0:0:0:
79,328,143124,1,2,0:0:0:0:
76,313,143201,1,8,0:0:0:0:
73,298,143278,1,8,0:0:0:0:
36,173,143432,2,0,L|17:78,2,95.9999970703126,2|8|2,0:0|0:0|0:0,0:0:0:0:
179,183,143893,6,0,B|194:78|194:78|255:5,1,191.999994140625,0|8,0:0|0:0,0:0:0:0:
382,113,144355,2,0,B|318:190|318:190|263:95,1,191.999994140625,2|2,0:0|0:0,0:0:0:0:
459,100,144816,2,0,L|470:213,1,95.9999970703126,8|2,0:0|0:0,0:0:0:0:
399,369,145124,1,0,0:0:0:0:
258,318,145278,2,0,L|248:222,1,95.9999970703126,2|8,0:0|0:0,0:0:0:0:
390,272,145586,1,2,0:0:0:0:
376,277,145662,1,8,0:0:0:0:
362,282,145739,1,0,0:0:0:0:
188,344,145893,2,0,L|178:248,1,95.9999970703126,2|8,0:0|0:0,0:0:0:0:
272,126,146201,2,0,B|260:4,2,95.9999970703126,2|2|0,0:0|0:0|0:0,0:0:0:0:
361,104,146662,5,8,0:0:0:0:
406,223,146816,2,0,B|512:268|512:268|495:183,1,191.999994140625,2|2,0:0|0:0,0:0:0:0:
405,27,147278,1,8,0:0:0:0:
336,191,147432,2,0,L|293:297,1,95.9999970703126,2|0,0:0|0:0,0:0:0:0:
496,192,147739,2,0,L|473:84,1,95.9999970703126,2|8,0:0|0:0,0:0:0:0:
270,100,148047,1,2,0:0:0:0:
264,113,148124,1,8,0:0:0:0:
258,126,148201,1,8,0:0:0:0:
110,180,148355,2,0,L|87:72,2,95.9999970703126,2|8|2,0:0|0:0|0:0,0:0:0:0:
206,46,148816,6,0,B|233:176|233:176|202:238,1,191.999994140625,2|8,0:0|0:0,0:0:0:0:
128,277,149278,2,0,B|103:328|103:328|148:310,1,95.9999970703126,2|0,0:0|0:0,0:0:0:0:
282,322,149586,1,2,0:0:0:0:
282,322,149739,1,8,0:0:0:0:
403,275,149893,2,0,L|505:315,1,95.9999970703126,2|0,0:0|0:0,0:0:0:0:
401,180,150201,2,0,L|503:220,1,95.9999970703126,8|8,0:0|0:0,0:0:0:0:
398,84,150509,1,8,0:0:0:0:
411,88,150586,1,8,0:0:0:0:
424,93,150662,1,8,0:0:0:0:
254,177,150816,5,8,0:0:0:0:
197,88,150970,2,0,L|188:37,1,47.9999985351563,8|0,1:3|0:0,0:0:0:0:
325,40,151124,2,0,L|316:87,1,47.9999985351563,4|0,1:3|0:0,0:0:0:0:
254,177,151278,6,0,P|226:215|234:274,1,95.9999970703126,6|2,0:1|0:0,0:0:0:0:
371,276,151893,1,2,0:0:0:0:
141,276,152201,1,2,0:0:0:0:
72,299,152355,1,2,0:0:0:0:
4,323,152509,1,2,0:1:0:0:
10,179,152816,2,0,L|112:194,1,95.9999970703126,2|2,0:0|0:0,0:0:0:0:
439,219,153432,1,2,0:0:0:0:
415,151,153586,1,2,0:0:0:0:
391,83,153739,5,2,0:1:0:0:
134,86,154047,1,2,0:0:0:0:
108,345,154355,1,2,0:0:0:0:
323,264,154662,1,2,0:0:0:0:
250,266,154816,1,2,0:0:0:0:
178,269,154970,1,2,0:1:0:0:
422,320,155278,1,2,0:0:0:0:
90,199,155586,1,2,0:0:0:0:
273,16,155893,1,2,0:0:0:0:
269,87,156047,1,2,0:0:0:0:
265,158,156201,5,2,0:1:0:0:
507,278,156509,2,0,L|492:177,1,95.9999970703126,2|2,0:0|0:0,0:0:0:0:
99,77,157124,1,2,0:0:0:0:
89,148,157278,1,2,0:0:0:0:
80,219,157432,1,2,0:1:0:0:
404,186,157739,1,2,0:0:0:0:
4,200,158047,1,2,0:0:0:0:
223,362,158355,1,2,0:0:0:0:
294,352,158509,1,2,0:0:0:0:
365,343,158662,5,2,0:1:0:0:
372,19,158970,1,2,0:0:0:0:
186,180,159278,1,2,0:0:0:0:
510,195,159586,1,2,0:0:0:0:
438,193,159739,1,2,0:0:0:0:
365,192,159893,1,2,0:1:0:0:
95,182,160201,2,0,L|105:234,1,47.9999985351563,2|0,0:0|0:0,0:0:0:0:
18,192,160509,2,0,L|28:244,1,47.9999985351563,2|0,0:1|0:0,0:0:0:0:
179,253,160816,1,2,0:1:0:0:
181,229,160893,1,2,0:0:0:0:
183,205,160970,1,2,0:0:0:0:
185,181,161047,1,2,0:0:0:0:
189,141,161124,6,0,P|266:122|378:128,1,160,6|8,0:0|0:0,0:0:0:0:
415,163,161586,2,0,P|397:240|343:197,1,160,2|2,0:0|0:0,0:0:0:0:
264,212,162047,1,8,0:0:0:0:
346,122,162201,2,0,B|380:93|391:39|391:39|414:80|459:89,1,160,2|2,0:0|0:0,0:0:0:0:
503,148,162662,1,8,0:0:0:0:
476,234,162816,1,2,0:0:0:0:
476,234,162893,1,2,0:0:0:0:
476,234,162970,1,2,0:0:0:0:
394,266,163124,2,0,L|404:356,2,80,2|8|2,0:0|0:0|0:0,0:0:0:0:
303,358,163586,6,0,P|265:309|159:278,1,160,2|8,0:0|0:0,0:0:0:0:
83,295,164047,1,2,0:0:0:0:
299,33,164355,2,0,P|343:54|380:53,1,80,2|8,0:0|0:0,0:0:0:0:
440,13,164662,2,0,P|398:29|380:143,1,160,2|2,0:0|0:0,0:0:0:0:
476,198,165124,1,8,0:0:0:0:
477,93,165278,1,8,0:0:0:0:
465,94,165355,1,8,0:0:0:0:
453,96,165432,1,8,0:0:0:0:
289,118,165586,1,2,0:0:0:0:
148,136,165739,1,8,1:3:0:0:
116,130,165816,1,0,0:0:0:0:
92,108,165893,1,4,1:3:0:0:
84,76,165970,1,0,0:0:0:0:
96,46,166047,6,0,P|131:56|130:71,3,40,4|0|0|0,0:0|0:0|0:0|0:0,0:0:0:0:
148,136,166355,2,0,L|141:193,1,40,8|0,0:0|0:0,0:0:0:0:
125,294,166509,2,0,P|69:288|31:190,1,160,2|2,0:0|0:0,0:0:0:0:
250,194,166970,1,8,0:0:0:0:
318,249,167124,1,2,0:0:0:0:
318,261,167201,1,0,0:0:0:0:
318,273,167278,5,0,0:0:0:0:
405,247,167432,2,0,L|414:338,1,80,2|8,0:0|0:0,0:0:0:0:
492,228,167739,2,0,L|503:275,2,40,2|8|2,0:0|0:0|0:0,0:0:0:0:
299,155,168047,1,2,0:0:0:0:
459,143,168201,1,8,1:3:0:0:
478,117,168278,1,0,0:0:0:0:
482,85,168355,1,4,1:3:0:0:
472,54,168432,1,0,0:0:0:0:
446,34,168509,6,0,L|283:48,1,160,2|8,0:0|0:0,0:0:0:0:
224,115,168970,2,0,L|61:129,1,160,2|2,0:0|0:0,0:0:0:0:
5,66,169432,1,8,0:0:0:0:
224,115,169586,2,0,L|250:205,1,80,2|0,0:0|0:0,0:0:0:0:
216,384,169893,2,0,L|193:307,1,80,2|8,0:0|0:0,0:0:0:0:
360,299,170201,1,8,0:0:0:0:
359,311,170278,1,8,0:0:0:0:
358,323,170355,1,8,0:0:0:0:
273,274,170509,1,2,0:0:0:0:
438,241,170662,2,0,L|464:331,1,80,8|4,1:3|1:3,0:0:0:0:
434,155,170970,6,0,L|453:42,1,95.9999970703126,4|8,0:0|0:1,0:0:0:0:
118,73,171585,2,0,L|126:134,1,47.9999985351563,8|8,0:1|0:1,0:0:0:0:
361,93,172046,1,8,0:1:0:0:
24,162,172354,1,8,0:1:0:0:
25,138,172508,1,8,0:1:0:0:
26,114,172662,1,8,0:1:0:0:
27,90,172816,1,8,0:1:0:0:
28,66,172970,1,8,0:1:0:0:
208,48,173123,6,0,P|234:99|213:150,1,95.9999970703126,8|8,0:1|0:1,0:0:0:0:
37,308,173739,2,0,P|53:275|77:266,1,47.9999985351563,8|8,0:1|0:1,0:0:0:0:
323,372,174200,1,8,0:1:0:0:
506,302,174508,1,8,0:1:0:0:
504,278,174662,1,8,0:1:0:0:
502,254,174816,1,8,0:1:0:0:
500,230,174970,1,8,0:1:0:0:
499,206,175123,1,8,0:1:0:0:
361,201,175277,6,0,L|351:309,1,95.9999970703126,8|8,0:1|0:1,0:0:0:0:
178,300,175893,2,0,L|171:244,1,47.9999985351563,8|8,0:1|0:1,0:0:0:0:
449,139,176354,1,8,0:1:0:0:
154,162,176662,1,8,0:1:0:0:
177,160,176816,1,8,0:1:0:0:
200,158,176970,1,8,0:1:0:0:
223,156,177123,1,8,0:1:0:0:
247,155,177277,1,8,0:1:0:0:
94,165,177431,6,0,L|97:54,1,95.9999970703126,8|8,0:1|0:1,0:0:0:0:
343,84,178046,2,0,L|352:142,1,47.9999985351563,8|8,0:1|0:1,0:0:0:0:
65,307,178508,1,8,0:1:0:0:
372,299,178816,1,8,0:1:0:0:
347,299,178970,1,8,0:1:0:0:
323,299,179123,1,8,0:1:0:0:
298,299,179277,1,8,0:1:0:0:
273,299,179431,1,8,0:1:0:0:
414,222,179585,6,0,P|446:264|499:291,1,95.9999970703126,8|8,0:1|0:1,0:0:0:0:
199,235,180200,2,0,P|174:268|159:280,1,47.9999985351563,8|8,0:1|0:1,0:0:0:0:
14,151,180662,1,8,0:1:0:0:
325,142,180970,1,8,0:1:0:0:
324,165,181123,1,8,0:1:0:0:
323,189,181277,1,8,0:1:0:0:
322,213,181431,1,8,0:1:0:0:
321,237,181585,1,8,0:1:0:0:
184,106,181739,6,0,L|168:11,1,95.9999970703126,8|8,0:1|0:1,0:0:0:0:
338,40,182354,2,0,L|325:97,1,47.9999985351563,8|8,0:1|0:1,0:0:0:0:
465,192,182816,1,8,0:1:0:0:
109,218,183123,1,8,0:1:0:0:
93,236,183277,1,8,0:1:0:0:
77,254,183431,1,8,0:1:0:0:
61,272,183585,1,8,0:1:0:0:
46,290,183739,1,8,0:1:0:0:
159,376,183893,6,0,P|225:344|188:229,1,191.999994140625,6|0,0:0|0:0,0:0:0:0:
133,181,184354,2,0,L|125:77,2,95.9999970703126,2|0|0,0:0|0:0|0:0,0:0:0:0:
257,59,184816,6,0,B|266:180|266:180|298:138,1,160,6|0,0:0|0:0,0:0:0:0:
379,102,185277,2,0,P|417:111|459:140,2,80,2|0|0,0:0|0:0|0:0,0:0:0:0:
458,240,185739,6,0,P|382:198|401:178,1,128,2|0,0:0|0:0,0:0:0:0:
298,263,186200,6,0,L|182:265,1,111.999996582031,6|0,0:0|0:0,0:0:0:0:
61,268,186662,6,0,P|28:235|65:211,1,95.9999970703126,6|0,0:0|0:0,0:0:0:0:
170,187,187123,6,0,L|170:95,1,80,6|0,0:0|0:0,0:0:0:0:
89,21,187585,5,4,0:0:0:0:
256,192,187661,12,0,190046,3:0:0:0:
256,192,190123,12,0,192508,3:0:0:0:
256,192,192585,12,0,194969,3:0:0:0:
256,192,195046,12,0,197431,0:0:0:0:
128,254,199892,6,0,L|141:115,1,128,2|0,0:0|0:0,0:0:0:0:
63,128,200354,2,0,B|43:153|43:153|57:191,1,64,2|0,0:0|0:0,0:0:0:0:
383,217,200815,2,0,B|412:160|412:160|366:84,1,128,2|0,0:0|0:0,0:0:0:0:
283,113,201277,1,2,0:0:0:0:
283,113,201431,2,0,P|301:182|298:203,1,64,0|0,0:0|0:0,0:0:0:0:
192,272,201738,2,0,P|225:245|245:236,1,64,2|0,0:0|0:0,0:0:0:0:
379,275,202046,2,0,P|342:269|309:249,1,64,2|0,0:0|0:0,0:0:0:0:
357,86,202354,6,0,P|414:91|495:115,1,128,2|0,0:0|0:0,0:0:0:0:
485,198,202815,2,0,P|442:188|435:169,1,64,2|0,0:0|0:0,0:0:0:0:
210,73,203277,2,0,P|152:149|123:160,1,128,2|0,0:0|0:0,0:0:0:0:
9,111,203738,1,2,0:0:0:0:
62,214,203892,2,0,L|52:353,1,128,0|2,0:0|0:0,0:0:0:0:
135,259,204354,2,0,L|203:237,1,64,0|2,0:0|0:0,0:0:0:0:
253,295,204661,2,0,L|252:371,1,64,0|2,0:0|0:0,0:0:0:0:
467,357,205123,5,0,0:0:0:0:
467,357,205277,2,0,P|470:285|440:229,1,128,2|0,0:0|0:0,0:0:0:0:
411,162,205738,2,0,P|445:133|463:144,1,64,2|0,0:0|0:0,0:0:0:0:
88,129,206200,1,2,0:0:0:0:
385,94,206508,1,0,0:0:0:0:
139,66,206815,2,0,P|168:125|136:194,1,128,0|0,0:0|0:0,0:0:0:0:
100,212,207277,6,0,B|86:275|86:275|161:265,1,128,2|0,0:0|0:0,0:0:0:0:
348,268,207738,2,0,B|414:260|414:260|401:330,1,128,2|0,0:0|0:0,0:0:0:0:
172,357,208200,1,2,0:0:0:0:
221,295,208354,2,0,L|248:149,1,128,0|2,0:0|0:0,0:0:0:0:
328,119,208815,2,0,P|363:161|366:186,1,64,0|0,0:0|0:0,0:0:0:0:
126,179,209123,2,0,P|168:123|226:96,1,128,2|2,0:0|0:0,0:0:0:0:
387,294,209738,6,0,L|300:290,1,80,4|0,0:0|0:0,0:0:0:0:
125,294,210046,2,0,L|212:290,1,80,8|0,0:0|0:0,0:0:0:0:
359,219,210354,2,0,P|383:275|388:314,1,80,0|0,0:0|0:0,0:0:0:0:
125,293,210661,2,0,P|135:254|153:219,1,80,8|0,0:0|0:0,0:0:0:0:
307,135,210969,1,0,0:0:0:0:
392,133,211123,2,0,L|401:42,1,80,0|8,0:0|0:0,0:0:0:0:
197,56,211431,2,0,L|204:135,1,80,0|8,0:0|0:0,0:0:0:0:
307,135,211738,2,0,L|314:55,1,80,0|8,0:0|0:0,0:0:0:0:
112,53,212046,1,0,0:0:0:0:
112,53,212200,6,0,L|120:133,1,80,0|0,0:0|0:0,0:0:0:0:
23,269,212508,2,0,P|21:231|63:232,1,80,8|0,0:0|0:0,0:0:0:0:
150,353,212815,2,0,P|117:321|95:285,1,80,0|0,0:0|0:0,0:0:0:0:
255,248,213123,2,0,L|255:350,1,80,8|0,0:0|0:0,0:0:0:0:
413,292,213431,2,0,P|391:325|362:352,1,80,0|0,0:0|0:0,0:0:0:0:
456,225,213738,2,0,P|492:232|489:269,1,80,8|0,0:0|0:0,0:0:0:0:
340,138,214046,1,8,0:0:0:0:
334,19,214200,1,0,0:0:0:0:
411,76,214354,1,8,0:0:0:0:
261,86,214508,1,0,0:0:0:0:
179,94,214661,6,0,P|105:8|43:10,1,160,0|8,0:0|0:0,0:0:0:0:
31,98,215123,2,0,P|76:120|92:93,1,80,0|0,0:0|0:0,0:0:0:0:
155,168,215431,2,0,L|143:250,1,80,0|8,0:0|0:0,0:0:0:0:
368,247,215738,2,0,L|357:168,1,80,0|0,0:0|0:0,0:0:0:0:
208,306,216046,2,0,P|150:336|132:336,1,80,0|8,0:0|0:0,0:0:0:0:
304,306,216354,2,0,P|362:336|380:336,1,80,0|8,0:0|0:0,0:0:0:0:
256,150,216661,1,0,0:0:0:0:
254,246,216815,1,8,0:0:0:0:
333,111,216969,1,0,0:0:0:0:
333,111,217046,1,0,0:0:0:0:
333,111,217123,6,0,L|345:23,1,80,0|0,0:0|0:0,0:0:0:0:
168,31,217431,2,0,L|179:111,1,80,8|0,0:0|0:0,0:0:0:0:
46,224,217738,1,0,0:0:0:0:
23,150,217892,2,0,P|66:142|97:169,1,80,0|8,0:0|0:0,0:0:0:0:
192,260,218200,2,0,L|199:357,1,80,0|0,0:0|0:0,0:0:0:0:
277,234,218508,5,0,0:0:0:0:
277,234,218661,2,0,L|284:331,1,80,8|0,0:0|0:0,0:0:0:0:
443,351,218969,1,2,0:0:0:0:
465,327,219046,1,2,0:0:0:0:
481,299,219123,1,2,0:0:0:0:
487,267,219200,1,2,0:0:0:0:
478,236,219277,1,8,0:0:0:0:
458,210,219354,1,8,0:0:0:0:
432,190,219431,1,8,0:0:0:0:
400,186,219508,1,8,0:0:0:0:
361,190,219585,6,0,B|326:171|284:177|284:177|331:134|320:70,1,191.999994140625,6|8,3:2|0:0,0:0:0:0:
97,87,220046,2,0,B|93:135|115:171|115:171|66:214|72:287,1,191.999994140625,2|2,0:0|0:0,0:0:0:0:
181,347,220508,2,0,P|201:299|165:252,1,95.9999970703126,8|2,0:0|0:0,0:0:0:0:
72,352,220815,1,0,0:0:0:0:
287,304,220969,2,0,L|400:302,1,95.9999970703126,2|8,0:0|0:0,0:0:0:0:
495,297,221277,1,2,0:0:0:0:
489,283,221354,1,8,0:0:0:0:
484,269,221431,1,8,0:0:0:0:
317,169,221585,2,0,L|330:62,1,95.9999970703126,2|8,0:0|0:0,0:0:0:0:
494,60,221892,1,2,0:0:0:0:
392,202,222046,6,0,P|327:251|237:179,1,191.999994140625,2|8,0:0|0:0,0:0:0:0:
131,44,222508,2,0,B|52:17|52:17|5:74|5:74|49:90,1,191.999994140625,2|2,0:0|0:0,0:0:0:0:
200,118,222969,2,0,L|258:26,1,95.9999970703126,8|2,0:0|0:0,0:0:0:0:
74,168,223277,1,0,0:0:0:0:
279,137,223431,2,0,L|337:45,1,95.9999970703126,2|8,0:0|0:0,0:0:0:0:
126,97,223738,1,2,0:0:0:0:
117,108,223815,1,8,0:0:0:0:
109,120,223892,1,8,0:0:0:0:
6,259,224046,2,0,L|112:262,1,95.9999970703126,2|8,0:0|0:0,0:0:0:0:
463,246,224508,6,0,B|500:367|500:367|427:354,1,191.999994140625,2|8,0:0|0:0,0:0:0:0:
407,156,224969,2,0,L|508:132,1,95.9999970703126,2|0,0:0|0:0,0:0:0:0:
352,244,225277,1,2,0:0:0:0:
352,244,225431,1,8,0:0:0:0:
290,152,225585,2,0,P|270:94|273:29,1,95.9999970703126,2|0,0:0|0:0,0:0:0:0:
242,259,225892,2,0,P|225:324|228:371,1,95.9999970703126,2|8,0:0|0:0,0:0:0:0:
142,145,226200,1,2,0:0:0:0:
137,131,226277,1,8,0:0:0:0:
132,117,226354,1,8,0:0:0:0:
113,252,226508,2,0,P|96:306|92:354,1,95.9999970703126,2|8,0:0|0:0,0:0:0:0:
211,183,226815,1,2,0:0:0:0:
38,175,226969,6,0,P|6:114|52:2,1,191.999994140625,2|8,0:0|0:0,0:0:0:0:
322,67,227431,2,0,P|287:136|254:62,1,191.999994140625,2|2,0:0|0:0,0:0:0:0:
445,28,227892,1,8,0:0:0:0:
455,135,228046,1,2,0:0:0:0:
455,135,228123,1,2,0:0:0:0:
455,135,228200,6,0,P|443:169|418:185,1,40,2|0,0:1|0:0,0:0:0:0:
448,251,228354,6,0,P|466:276|472:317,1,47.9999985351563,0|0,0:0|0:0,0:0:0:0:
372,214,228508,6,0,P|360:229|316:239,1,55.9999982910157,8|0,0:0|0:0,0:0:0:0:
249,228,228661,6,0,P|228:206|210:161,1,64,2|8,0:1|0:0,0:0:0:0:
307,102,228815,6,0,P|315:144|298:174,1,71.9999978027344,8|0,0:0|0:0,0:0:0:0:
163,241,228969,6,0,P|126:229|98:185,1,80,2|0,0:1|0:0,0:0:0:0:
0,52,229123,2,0,P|83:86|41:136,1,160,8|4,1:3|1:3,0:0:0:0:
30,166,229354,1,0,0:0:0:0:
30,166,229431,6,0,B|75:217|54:286|54:286|102:318|99:374,1,191.999994140625,6|8,3:2|0:0,0:0:0:0:
279,339,229892,2,0,B|299:317|303:282|303:282|377:335|441:284,1,191.999994140625,2|2,0:0|0:0,0:0:0:0:
504,151,230354,1,8,0:0:0:0:
364,172,230508,2,0,P|348:201|407:214,1,95.9999970703126,2|0,0:0|0:0,0:0:0:0:
504,151,230815,2,0,L|492:46,1,95.9999970703126,2|8,0:0|0:0,0:0:0:0:
276,58,231123,1,2,0:0:0:0:
274,72,231200,1,8,0:0:0:0:
272,86,231277,1,8,0:0:0:0:
368,86,231431,1,2,0:0:0:0:
163,73,231585,2,0,L|54:86,1,95.9999970703126,8|2,0:0|0:0,0:0:0:0:
64,255,231892,6,0,B|172:268|172:268|250:318,1,191.999994140625,2|8,0:0|0:0,0:0:0:0:
415,210,232354,2,0,B|366:290|366:290|264:223,1,191.999994140625,2|2,0:0|0:0,0:0:0:0:
338,146,232815,1,8,0:0:0:0:
497,222,232969,2,0,L|444:310,1,95.9999970703126,2|0,0:0|0:0,0:0:0:0:
338,146,233277,2,0,L|338:37,1,95.9999970703126,2|8,0:0|0:0,0:0:0:0:
454,28,233585,1,2,0:0:0:0:
456,42,233661,1,8,0:0:0:0:
458,56,233738,1,8,0:0:0:0:
254,128,233892,1,2,0:0:0:0:
170,73,234046,2,0,P|111:41|34:43,1,143.999995605469,8|0,0:0|0:0,0:0:0:0:
2,64,234354,6,0,P|23:131|68:115,1,95.9999970703126,2|0,0:0|0:0,0:0:0:0:
254,128,234661,1,8,0:0:0:0:
175,186,234815,2,0,L|165:289,1,95.9999970703126,2|0,0:0|0:0,0:0:0:0:
89,361,235123,1,2,0:0:0:0:
89,361,235277,1,8,0:0:0:0:
259,317,235431,2,0,P|314:332|359:375,1,95.9999970703126,2|0,0:0|0:0,0:0:0:0:
423,273,235738,2,0,P|460:241|509:228,1,95.9999970703126,2|8,0:0|0:0,0:0:0:0:
281,209,236046,1,2,0:0:0:0:
293,216,236123,1,8,0:0:0:0:
305,223,236200,1,8,0:0:0:0:
413,156,236354,2,0,P|453:128|501:117,2,95.9999970703126,2|8|2,0:0|0:0|0:0,0:0:0:0:
185,166,236815,6,0,P|125:131|45:119,1,143.999995605469,2|0,0:0|0:0,0:0:0:0:
3,125,237123,2,0,P|14:75|43:94,1,95.9999970703126,8|2,0:0|0:0,0:0:0:0:
54,271,237431,1,0,0:0:0:0:
185,166,237585,2,0,L|204:51,1,95.9999970703126,2|8,0:0|0:0,0:0:0:0:
327,166,237892,2,0,L|308:51,1,95.9999970703126,2|0,0:0|0:0,0:0:0:0:
115,203,238200,1,2,0:0:0:0:
397,203,238354,1,8,0:0:0:0:
254,157,238508,1,8,0:0:0:0:
254,157,238585,1,8,0:0:0:0:
254,157,238661,5,8,0:0:0:0:
158,330,238815,1,0,0:0:0:0:
354,330,238969,1,8,0:0:0:0:
334,296,239046,1,8,0:0:0:0:
297,282,239123,1,8,0:0:0:0:
258,287,239200,1,8,0:0:0:0:
233,316,239277,5,2,0:1:0:0:
62,368,239431,2,0,L|44:259,1,95.9999970703126,0|8,0:0|0:0,0:0:0:0:
124,189,239738,1,2,0:0:0:0:
52,157,239892,2,0,L|34:48,1,95.9999970703126,2|2,0:1|0:0,0:0:0:0:
231,24,240200,1,8,0:0:0:0:
314,6,240354,2,0,P|341:46|347:204,1,191.999994140625,2|2,0:0|0:0,0:0:0:0:
254,190,240815,2,0,P|234:145|268:112,1,95.9999970703126,8|2,0:0|0:0,0:0:0:0:
275,117,241046,1,8,0:0:0:0:
288,121,241123,1,2,0:1:0:0:
310,262,241277,2,0,L|179:275,2,95.9999970703126,2|8|2,0:0|0:0|0:0,0:0:0:0:
169,370,241738,6,0,P|199:311|316:262,1,191.999994140625,2|8,0:1|0:0,0:0:0:0:
477,295,242200,2,0,B|494:304|503:321|503:321|414:291|425:187,1,191.999994140625,2|2,0:0|0:0,0:0:0:0:
438,13,242661,1,8,0:0:0:0:
500,87,242815,2,0,L|388:123,1,95.9999970703126,2|2,0:0|0:1,0:0:0:0:
189,161,243123,2,0,L|203:48,1,95.9999970703126,2|8,0:0|0:0,0:0:0:0:
316,112,243431,1,2,0:0:0:0:
315,126,243508,1,8,0:0:0:0:
314,140,243585,1,2,0:1:0:0:
242,278,243738,1,2,0:0:0:0:
110,177,243892,2,0,L|124:64,1,95.9999970703126,8|0,0:0|0:0,0:0:0:0:
90,285,244200,6,0,L|38:292,3,47.9999985351563,2|0|0|0,0:1|0:0|0:0|0:0,0:0:0:0:
0,293,244508,2,0,L|12:237,1,47.9999985351563,8|0,0:0|0:0,0:0:0:0:
169,242,244661,2,0,B|193:370|193:370|220:303,1,191.999994140625,2|2,0:1|0:1,0:0:0:0:
323,295,245123,1,8,0:0:0:0:
406,295,245277,1,2,0:1:0:0:
490,295,245431,5,2,0:1:0:0:
323,295,245585,2,0,L|310:189,1,95.9999970703126,2|8,0:1|0:0,0:0:0:0:
423,175,245892,2,0,P|443:198|422:219,2,47.9999985351563,2|8|8,0:1|0:0|0:0,0:0:0:0:
354,109,246200,1,2,0:1:0:0:
457,84,246354,1,2,1:1:0:0:
440,49,246431,1,0,0:0:0:0:
409,25,246508,1,4,1:3:0:0:
371,16,246585,1,0,0:0:0:0:
333,19,246661,6,0,B|298:45|261:51|261:51|290:112|270:176,1,191.999994140625,2|8,0:1|0:0,0:0:0:0:
27,174,247123,2,0,L|21:64,1,95.9999970703126,2|2,0:1|0:0,0:0:0:0:
177,114,247431,2,0,L|184:220,1,95.9999970703126,2|8,0:1|0:0,0:0:0:0:
16,282,247738,1,2,0:0:0:0:
16,282,247815,1,2,0:0:0:0:
16,282,247892,6,0,P|44:280|38:309,1,40,2|0,0:1|0:0,0:0:0:0:
143,355,248046,6,0,P|123:368|97:351,1,47.9999985351563,2|0,0:1|0:0,0:0:0:0:
203,291,248200,6,0,P|225:274|263:281,1,55.9999982910157,8|0,0:0|0:0,0:0:0:0:
303,376,248354,6,0,P|266:371|251:344,1,64,2|8,0:1|0:0,0:0:0:0:
454,269,248508,6,0,L|466:353,1,71.9999978027344,8|0,0:0|0:0,0:0:0:0:
387,362,248661,6,0,L|373:283,1,80,2|0,0:1|0:0,0:0:0:0:
363,81,248815,2,0,P|405:28|474:71,1,160,8|4,0:3|0:3,0:0:0:0:
486,88,249046,1,0,0:0:0:0:
486,88,249123,6,0,P|429:138|295:142,1,191.999994140625,6|8,0:1|0:0,0:0:0:0:
227,34,249585,2,0,P|290:23|288:77,1,95.9999970703126,2|2,0:0|0:1,0:0:0:0:
199,177,249892,1,2,0:0:0:0:
94,128,250046,2,0,L|77:20,1,95.9999970703126,8|2,0:0|0:0,0:0:0:0:
175,95,250354,1,2,0:1:0:0:
109,214,250508,1,0,0:0:0:0:
77,235,250585,1,0,0:0:0:0:
57,267,250661,1,8,0:0:0:0:
52,305,250738,1,0,0:0:0:0:
59,342,250815,2,0,P|94:337|94:309,1,47.9999985351563,2|8,0:0|0:0,0:0:0:0:
236,313,250969,2,0,P|278:362|326:368,1,95.9999970703126,2|2,0:1|0:0,0:0:0:0:
488,290,251277,1,8,0:0:0:0:
403,291,251431,6,0,L|383:93,1,191.999994140625,2|2,0:0|0:0,0:0:0:0:
459,27,251892,1,8,0:0:0:0:
489,110,252046,2,0,P|499:166|463:169,1,95.9999970703126,2|2,0:1|0:1,0:0:0:0:
301,89,252354,2,0,L|173:84,1,95.9999970703126,2|8,0:0|0:0,0:0:0:0:
303,194,252661,2,0,L|87:208,1,191.999994140625,2|2,0:0|0:0,0:0:0:0:
10,128,253123,1,8,0:0:0:0:
108,100,253277,1,2,0:0:0:0:
112,113,253354,1,8,0:0:0:0:
116,126,253431,1,2,0:1:0:0:
21,220,253585,1,0,0:0:0:0:
14,57,253738,2,0,L|51:160,1,95.9999970703126,8|2,0:0|0:0,0:0:0:0:
131,326,254046,6,0,P|174:275|309:290,1,191.999994140625,2|8,0:1|0:0,0:0:0:0:
379,329,254508,2,0,P|425:357|436:313,1,95.9999970703126,2|2,0:0|0:1,0:0:0:0:
370,167,254815,1,2,0:0:0:0:
477,173,254969,2,0,L|488:71,1,95.9999970703126,8|2,0:0|0:1,0:0:0:0:
285,62,255277,1,2,0:1:0:0:
172,73,255431,2,0,L|177:185,1,95.9999970703126,2|8,0:0|0:0,0:0:0:0:
262,226,255738,1,2,0:0:0:0:
261,211,255815,1,8,0:0:0:0:
260,196,255892,1,2,0:1:0:0:
65,183,256046,1,2,0:0:0:0:
59,329,256200,2,0,L|172:317,1,95.9999970703126,8|2,0:0|0:0,0:0:0:0:
344,301,256508,6,0,P|354:275|353:240,3,47.9999985351563,2|0|0|0,0:1|0:0|0:0|0:0,0:0:0:0:
411,240,256815,2,0,P|434:274|456:297,1,47.9999985351563,8|0,0:0|0:0,0:0:0:0:
500,208,256969,2,0,B|504:128|504:128|375:151,1,191.999994140625,2|2,0:1|0:1,0:0:0:0:
244,177,257431,1,8,0:0:0:0:
137,165,257585,1,2,0:1:0:0:
136,150,257661,1,0,0:0:0:0:
135,135,257738,1,2,0:0:0:0:
15,78,257892,2,0,L|8:184,1,95.9999970703126,2|8,0:1|1:3,0:0:0:0:
74,296,258200,1,4,1:3:0:0:
74,296,258277,1,0,0:0:0:0:
74,296,258354,6,0,L|186:278,1,80,2|2,0:0|0:0,0:0:0:0:
367,280,258661,6,0,L|466:297,1,95.9999970703126,2|2,0:0|0:0,0:0:0:0:
229,234,258969,6,0,L|212:72,1,160,6|8,0:0|0:0,0:0:0:0:
304,92,259431,2,0,L|309:187,1,80,2|0,0:0|0:0,0:0:0:0:
145,198,259738,6,0,P|84:204|71:249,1,95.9999970703126,2|8,0:0|0:0,0:0:0:0:
115,340,260046,6,0,B|190:334|190:334|256:362,1,128,2|2,0:0|0:0,0:0:0:0:
343,320,260508,5,8,0:0:0:0:
422,355,260661,1,2,0:0:0:0:
422,355,260738,1,8,0:0:0:0:
422,355,260815,1,2,0:0:0:0:
496,304,260969,2,0,L|507:204,1,80,0|8,0:0|0:0,0:0:0:0:
386,221,261277,1,2,0:0:0:0:
292,225,261431,6,0,L|306:55,1,160,2|8,0:0|0:0,0:0:0:0:
197,60,261892,6,0,P|121:93|58:95,1,128,2|2,0:0|0:0,0:0:0:0:
6,58,262354,5,8,0:0:0:0:
13,142,262508,2,0,L|31:246,1,80,2|0,0:0|0:0,0:0:0:0:
2,340,262815,1,2,0:0:0:0:
94,307,262969,1,8,0:0:0:0:
190,326,263123,1,2,0:0:0:0:
190,326,263200,1,8,0:0:0:0:
190,326,263277,6,0,P|230:365|257:340,1,95.9999970703126,2|0,0:0|0:0,0:0:0:0:
316,226,263585,6,0,L|239:265,1,64,8|2,0:0|0:0,0:0:0:0:
369,157,263892,6,0,L|517:83,1,160,6|8,0:0|0:0,0:0:0:0:
338,71,264354,1,2,0:0:0:0:
338,71,264508,2,0,P|307:92|270:68,1,80,0|2,0:0|0:0,0:0:0:0:
303,0,264815,1,8,0:0:0:0:
306,158,264969,6,0,B|325:234|325:234|297:307|299:306,1,128,2|2,0:0|0:0,0:0:0:0:
405,289,265431,5,8,0:0:0:0:
222,232,265585,1,2,0:0:0:0:
210,232,265661,1,0,0:0:0:0:
197,232,265738,1,2,0:0:0:0:
103,229,265892,2,0,L|10:228,2,80,2|8|2,0:0|0:0|0:0,0:0:0:0:
17,109,266354,6,0,L|166:106,1,128,2|8,0:0|0:0,0:0:0:0:
262,100,266815,1,2,0:0:0:0:
350,123,266969,6,0,P|382:73|420:46,1,95.9999970703126,0|2,0:0|0:0,0:0:0:0:
420,188,267277,1,8,0:0:0:0:
450,285,267431,6,0,P|395:272|257:373,1,223.999993164063,2|2,0:0|0:0,0:0:0:0:
361,368,267892,1,8,0:0:0:0:
187,281,268046,1,2,0:0:0:0:
184,269,268123,1,8,0:0:0:0:
182,259,268200,1,2,0:0:0:0:
271,239,268354,1,2,0:0:0:0:
103,296,268508,6,0,P|55:315|2:295,1,80,8|2,0:0|0:0,0:0:0:0:
13,101,268815,6,0,P|93:107|157:197,1,191.999994140625,6|8,0:0|0:0,0:0:0:0:
48,204,269277,1,2,0:0:0:0:
386,194,269585,6,0,L|402:109,1,64,2|8,0:0|0:0,0:0:0:0:
488,70,269892,6,0,L|458:234,1,160,2|2,0:0|0:0,0:0:0:0:
290,244,270354,1,8,0:0:0:0:
279,153,270508,1,2,0:0:0:0:
279,153,270585,1,8,0:0:0:0:
279,153,270661,1,2,0:0:0:0:
209,80,270815,1,2,0:0:0:0:
184,170,270969,6,0,P|197:217|225:229,1,64,8|2,0:0|0:0,0:0:0:0:
397,200,271277,6,0,P|394:128|294:56,1,191.999994140625,2|8,0:0|0:0,0:0:0:0:
209,80,271738,6,0,L|119:82,1,80,2|0,0:0|0:0,0:0:0:0:
131,248,272046,2,0,L|42:250,1,80,2|8,0:0|0:0,0:0:0:0:
6,160,272354,1,2,0:0:0:0:
297,327,272661,1,2,0:0:0:0:
361,249,272815,6,0,L|415:302,1,64,8|2,0:0|0:0,0:0:0:0:
414,299,273046,1,8,0:0:0:0:
423,305,273123,6,0,L|473:242,1,80,2|2,0:0|0:0,0:0:0:0:
360,126,273431,6,0,L|294:204,1,95.9999970703126,8|2,0:0|0:0,0:0:0:0:
481,135,273738,5,4,0:0:0:0:
94,175,274046,2,0,L|75:75,1,80,8|2,0:0|0:0,0:0:0:0:
184,28,274354,1,0,0:0:0:0:
184,28,274508,2,0,P|225:62|231:109,1,80,2|8,0:0|0:0,0:0:0:0:
305,129,274815,2,0,P|339:66|423:20,1,160,2|2,0:0|0:0,0:0:0:0:
423,138,275277,1,8,0:0:0:0:
362,198,275431,1,2,0:0:0:0:
362,198,275508,1,8,0:0:0:0:
362,198,275585,1,2,0:0:0:0:
366,280,275738,2,0,L|388:369,2,80,2|8|2,0:0|0:0|0:0,0:0:0:0:
181,376,276200,6,0,L|195:236,1,128,4|0,0:0|0:0,0:0:0:0:
103,203,276661,1,0,0:0:0:0:
37,259,276815,1,0,0:0:0:0:
291,196,277123,1,0,0:0:0:0:
371,244,277277,2,0,P|422:246|474:167,1,128,0|0,0:0|0:0,0:0:0:0:
193,70,277738,2,0,L|178:138,1,64,0|0,0:0|0:0,0:0:0:0:
326,131,278046,2,0,L|310:62,1,64,0|0,0:0|0:0,0:0:0:0:
214,198,278354,6,0,P|259:188|298:200,1,80,0|0,0:0|0:0,0:0:0:0:
