osu file format v14

[General]
AudioFilename: audio.mp3
AudioLeadIn: 0
PreviewTime: 0
Countdown: 0
SampleSet: Soft
StackLeniency: 0.7
Mode: 0
LetterboxInBreaks: 0
WidescreenStoryboard: 1

[Editor]
DistanceSpacing: 0.3
BeatDivisor: 4
GridSize: 32
TimelineZoom: 2.4

[Metadata]
Title:ChRoNiClESeVeN feat. Annabel
TitleUnicode:ChRøNiClESeVeN feat. Annabel
Artist:sasakure.UK
ArtistUnicode:sasakure.UK
Creator:AIR
Version:Hyper
Source:セブンスドラゴンⅢ code:VFD
Tags:7th dragon
BeatmapID:1630901
BeatmapSetID:775590

[Difficulty]
HPDrainRate:4
CircleSize:4
OverallDifficulty:6
ApproachRate:8
SliderMultiplier:1.4
SliderTickRate:1

[Events]
//Background and Video events
0,0,"55419383_p0.jpg",0,0
//Break Periods
2,81941,90837
2,151478,160066
//Storyboard Layer 0 (Background)
//Storyboard Layer 1 (Fail)
//Storyboard Layer 2 (Pass)
//Storyboard Layer 3 (Foreground)
//Storyboard Sound Samples

[TimingPoints]
1013,357.142857142857,4,2,1,5,1,0
1370,468.75,4,2,1,5,1,0
1838,612.244897959184,4,2,1,5,1,0
2450,394.736842105263,4,2,1,5,1,0
2844,447.761194029851,4,2,1,5,1,0
3291,535.714285714286,4,2,1,5,1,0
3826,566.037735849057,4,2,1,5,1,0
4392,545.454545454546,4,2,1,5,1,0
4937,461.538461538462,4,2,1,5,1,0
5398,612.244897959184,4,2,1,5,1,0
6010,545.454545454546,4,2,1,5,1,0
6555,439.56043956044,4,2,1,5,1,0
7434,530.973451327434,4,2,1,5,1,0
7964,447.761194029851,4,2,1,5,1,0
8859,357.142857142857,4,2,1,40,1,0
12203,307.692307692308,4,2,1,60,1,0
12203,-100,4,2,1,60,0,0
22049,-100,4,2,1,70,0,0
31895,-100,4,2,1,60,0,0
41741,-100,4,2,1,70,0,0
51587,-100,4,2,1,70,0,0
52049,-100,4,2,1,70,0,0
52510,-100,4,2,1,70,0,0
54049,-100,4,2,1,70,0,0
54510,-100,4,2,1,70,0,0
54972,-100,4,2,1,70,0,0
56510,-100,4,2,1,70,0,0
58356,-100,4,2,1,70,0,0
58818,-100,4,2,1,70,0,0
59587,-100,4,2,1,70,0,0
61433,-100,4,2,1,70,0,0
62049,307.692307692308,4,2,1,90,1,1
62049,-100,4,2,1,90,0,1
70664,-100,4,2,1,90,0,1
70818,-100,4,2,1,90,0,1
70972,-100,4,2,1,90,0,1
71125,-100,4,2,1,90,0,1
71279,-100,4,2,1,90,0,1
71433,-100,4,2,1,90,0,1
71587,-100,4,2,1,90,0,1
71895,-100,4,2,1,90,0,1
81741,-100,4,2,1,70,0,0
91587,307.692307692308,3,2,1,70,1,0
91587,-100,4,2,1,70,0,0
101433,307.692307692308,4,2,1,60,1,0
101433,-100,4,2,1,80,0,0
111279,-100,4,2,1,80,0,0
121125,-100,4,2,1,70,0,0
121586,-100,4,2,1,70,0,0
122048,-100,4,2,1,70,0,0
123586,-100,4,2,1,70,0,0
124048,-100,4,2,1,70,0,0
124509,-100,4,2,1,70,0,0
126048,-100,4,2,1,70,0,0
128356,-100,4,2,1,70,0,0
129125,-100,4,2,1,70,0,0
130971,-100,4,2,1,70,0,0
131586,307.692307692308,4,2,1,90,1,1
131586,-100,4,2,1,90,0,1
140201,-100,4,2,1,90,0,1
140355,-100,4,2,1,90,0,1
140509,-100,4,2,1,90,0,1
140662,-100,4,2,1,90,0,1
140816,-100,4,2,1,90,0,1
140970,-100,4,2,1,90,0,1
141124,-100,4,2,1,90,0,1
141432,-100,4,2,1,90,0,1
151278,-100,4,2,1,60,0,0
161124,-100,4,2,1,80,0,0
170816,-100,4,2,1,60,0,0
170970,307.692307692308,7,2,1,60,1,0
170970,-100,4,2,1,60,0,0
183893,307.692307692308,6,2,1,80,1,0
183893,-100,4,2,1,80,0,0
184816,-100,4,2,1,80,0,0
185739,307.692307692308,3,2,1,80,1,0
185739,-100,4,2,1,80,0,0
186662,-100,4,2,1,80,0,0
187585,307.692307692308,4,2,1,60,1,0
197123,-100,4,2,1,5,0,0
199892,-100,4,2,1,60,0,0
209738,-100,4,2,1,80,0,0
219585,-100,4,2,1,90,0,1
228200,-100,4,2,1,90,0,1
228354,-100,4,2,1,90,0,1
228508,-100,4,2,1,90,0,1
228661,-100,4,2,1,90,0,1
228815,-100,4,2,1,90,0,1
228969,-100,4,2,1,90,0,1
229123,-100,4,2,1,90,0,1
229431,-100,4,2,1,90,0,1
238661,-100,4,2,1,90,0,0
239277,-100,4,2,1,90,0,1
247892,-100,4,2,1,90,0,1
248046,-100,4,2,1,90,0,1
248200,-100,4,2,1,90,0,1
248354,-100,4,2,1,90,0,1
248508,-100,4,2,1,90,0,1
248661,-100,4,2,1,90,0,1
248815,-100,4,2,1,90,0,1
249123,-100,4,2,1,90,0,1
258354,-100,4,2,1,70,0,0
258661,-100,4,2,1,70,0,0
258969,-100,4,2,1,70,0,0
259738,-100,4,2,1,70,0,0
260046,-100,4,2,1,70,0,0
260354,-100,4,2,1,70,0,0
261123,-100,4,2,1,70,0,0
261431,-100,4,2,1,70,0,0
261892,-100,4,2,1,70,0,0
262200,-100,4,2,1,70,0,0
263277,-100,4,2,1,70,0,0
263585,-100,4,2,1,70,0,0
263892,-100,4,2,1,70,0,0
264969,-100,4,2,1,70,0,0
265277,-100,4,2,1,70,0,0
266354,-100,4,2,1,70,0,0
266661,-100,4,2,1,70,0,0
266969,-100,4,2,1,70,0,0
267431,-100,4,2,1,70,0,0
267738,-100,4,2,1,70,0,0
268200,-100,4,2,1,70,0,0
268508,-100,4,2,1,70,0,0
268815,-100,4,2,1,70,0,0
269123,-100,4,2,1,70,0,0
269585,-100,4,2,1,70,0,0
269892,-100,4,2,1,70,0,0
270969,-100,4,2,1,70,0,0
271277,-100,4,2,1,70,0,0
271738,-100,4,2,1,70,0,0
272815,-100,4,2,1,70,0,0
273123,-100,4,2,1,70,0,0
273431,-100,4,2,1,70,0,0
273738,-100,4,2,1,70,0,0
276200,-100,4,2,1,60,0,0
278354,348.837209302326,4,2,1,60,1,0

[Colours]
Combo1 : 81,81,230
Combo2 : 233,233,233
Combo3 : 255,45,45
Combo4 : 255,6,131

[HitObjects]
119,195,12203,5,2,0:0:0:0:
119,195,12510,2,0,B|113:260|113:260|79:285|65:331,1,140,0|0,0:0|0:0,0:0:0:0:
160,372,12972,2,0,P|190:356|160:324,1,70,0|0,0:0|0:0,0:0:0:0:
228,248,13279,2,0,L|377:246,1,140,2|0,0:0|0:0,0:0:0:0:
512,154,13895,2,0,L|372:155,1,140,2|0,0:0|0:0,0:0:0:0:
292,119,14356,2,0,P|279:78|294:51,2,70,0|0|2,0:0|0:0|0:0,0:0:0:0:
152,57,14972,6,0,P|163:89|149:120,1,70,0|0,0:0|0:0,0:0:0:0:
55,58,15279,1,0,0:0:0:0:
55,58,15433,2,0,P|34:109|95:184,1,140,0|2,0:0|0:0,0:0:0:0:
261,200,16049,2,0,P|305:234|341:319,1,140,0|2,0:0|0:0,0:0:0:0:
261,200,16664,2,0,P|305:166|341:81,1,140,0|0,0:0|0:0,0:0:0:0:
339,90,17049,1,0,0:0:0:0:
339,90,17126,5,2,0:0:0:0:
170,103,17433,1,0,0:0:0:0:
154,296,17741,1,0,0:0:0:0:
154,296,17895,2,0,L|229:314,1,70,0|0,0:0|0:0,0:0:0:0:
341,318,18203,2,0,L|480:271,1,140,2|0,0:0|0:0,0:0:0:0:
506,144,18818,2,0,L|373:188,1,140,2|0,0:0|0:0,0:0:0:0:
311,104,19279,2,0,P|311:67|354:49,1,70,0|0,0:0|0:0,0:0:0:0:
392,100,19587,6,0,P|315:94|232:49,1,140,2|0,0:0|0:0,0:0:0:0:
195,15,20049,1,0,0:0:0:0:
17,90,20356,1,0,0:0:0:0:
17,90,20510,2,0,L|21:189,1,70,0|0,0:0|0:0,0:0:0:0:
116,148,20818,2,0,L|122:288,1,140,2|0,0:0|0:0,0:0:0:0:
221,289,21279,2,0,L|228:138,1,140,2|0,0:0|0:0,0:0:0:0:
238,148,21664,1,0,0:0:0:0:
248,147,21741,1,0,0:0:0:0:
258,146,21818,1,0,0:0:0:0:
268,145,21895,1,0,0:0:0:0:
278,144,21972,1,0,0:0:0:0:
288,144,22049,5,6,0:0:0:0:
469,213,22356,1,8,0:0:0:0:
395,244,22510,2,0,P|361:169|383:115,1,140,2|2,0:0|0:0,0:0:0:0:
438,46,22972,1,8,0:0:0:0:
438,46,23126,1,2,0:0:0:0:
125,125,23433,1,2,0:0:0:0:
125,125,23587,2,0,P|120:73|97:48,1,70,8|2,0:0|0:0,0:0:0:0:
116,205,23895,2,0,P|145:238|191:237,1,70,2|2,0:0|0:0,0:0:0:0:
55,158,24203,2,0,P|15:177|0:215,1,70,8|2,0:0|0:0,0:0:0:0:
23,315,24510,6,0,L|178:316,1,140,2|8,0:0|0:0,0:0:0:0:
260,316,24972,1,2,0:0:0:0:
260,316,25126,1,0,0:0:0:0:
281,152,25433,1,8,0:0:0:0:
281,152,25587,2,0,L|426:153,1,140,2|2,0:0|0:0,0:0:0:0:
500,210,26049,1,8,0:0:0:0:
410,249,26203,2,0,P|401:269|411:281,2,35,2|2|2,0:0|0:0|0:0,0:0:0:0:
495,323,26510,1,2,0:0:0:0:
414,368,26664,2,0,L|334:369,1,70,8|2,0:0|0:0,0:0:0:0:
260,369,26972,6,0,L|252:215,1,140,6|8,0:0|0:0,0:0:0:0:
181,166,27433,1,2,0:0:0:0:
181,166,27587,1,0,0:0:0:0:
324,20,27895,1,8,0:0:0:0:
324,20,28049,2,0,P|340:98|313:169,1,140,2|2,0:0|0:0,0:0:0:0:
235,84,28510,1,8,0:0:0:0:
154,52,28664,2,0,P|135:61|101:52,2,35,2|2|2,0:0|0:0|0:0,0:0:0:0:
86,136,28972,1,2,0:0:0:0:
25,62,29126,2,0,L|3:148,1,70,8|2,0:0|0:0,0:0:0:0:
62,220,29433,6,0,L|24:367,1,140,2|8,0:0|0:0,0:0:0:0:
131,328,29895,1,2,0:0:0:0:
131,328,30049,1,0,0:0:0:0:
316,343,30356,1,8,0:0:0:0:
316,343,30510,2,0,P|351:304|444:306,1,140,2|2,0:0|0:0,0:0:0:0:
501,344,30972,1,8,0:0:0:0:
484,233,31126,2,0,P|474:225|476:198,2,35,2|2|2,0:0|0:0|0:0,0:0:0:0:
506,125,31433,1,2,0:0:0:0:
427,69,31587,1,8,0:0:0:0:
359,133,31741,1,2,0:0:0:0:
359,133,31818,1,2,0:0:0:0:
359,133,31895,6,0,L|214:149,1,140,6|2,0:0|0:3,0:0:0:0:
55,280,32510,1,0,0:0:0:0:
55,280,32664,2,0,P|92:238|95:208,1,70,2|2,0:0|0:3,0:0:0:0:
177,206,32972,2,0,P|203:271|278:317,1,140,2|2,0:0|0:0,0:0:0:0:
359,133,33587,2,0,P|333:68|258:22,1,140,2|2,0:0|0:0,0:0:0:0:
181,29,34049,2,0,L|164:115,1,70,2|2,0:3|0:0,0:0:0:0:
65,116,34356,5,2,0:0:0:0:
321,264,34664,2,0,L|476:254,1,140,2|0,0:3|0:0,0:0:0:0:
490,332,35126,2,0,P|435:353|415:336,1,70,2|2,0:0|0:3,0:0:0:0:
460,254,35433,2,0,B|474:189|474:189|452:156|437:113,1,140,2|2,0:0|0:0,0:0:0:0:
244,144,36049,2,0,B|230:209|230:209|252:242|267:285,1,140,2|0,0:0|0:0,0:0:0:0:
181,325,36510,2,0,P|145:298|157:281,1,70,2|2,0:3|0:0,0:0:0:0:
70,253,36818,5,6,0:0:0:0:
157,31,37126,2,0,L|308:46,1,140,2|0,0:3|0:0,0:0:0:0:
388,286,37741,1,2,0:3:0:0:
308,308,37895,2,0,P|303:260|255:171,1,140,2|2,0:0|0:0,0:0:0:0:
21,294,38510,2,0,P|30:333|109:303,1,140,2|2,0:0|0:0,0:0:0:0:
89,232,38972,2,0,L|65:155,1,70,2|2,0:3|0:0,0:0:0:0:
37,65,39279,6,0,L|194:104,1,140,2|2,0:0|0:3,0:0:0:0:
277,122,39741,1,2,0:0:0:0:
277,122,40049,1,2,0:0:0:0:
386,94,40203,2,0,L|395:8,1,70,2|2,0:3|0:0,0:0:0:0:
470,123,40510,2,0,P|499:155|505:259,1,140,0|2,0:0|0:3,0:0:0:0:
452,316,40972,2,0,L|379:285,1,70,2|2,0:0|0:0,0:0:0:0:
296,254,41279,2,0,L|154:280,1,140,2|0,0:0|0:0,0:0:0:0:
139,282,41664,1,0,0:0:0:0:
122,285,41741,6,0,L|92:140,1,140,6|8,0:0|0:0,0:0:0:0:
350,103,42356,1,0,0:0:0:0:
350,103,42510,2,0,L|346:178,1,70,2|8,0:0|0:0,0:0:0:0:
189,139,42818,2,0,P|226:106|263:104,1,70,2|0,0:0|0:0,0:0:0:0:
194,228,43126,2,0,P|152:223|123:192,1,70,2|8,0:0|0:0,0:0:0:0:
260,182,43433,2,0,P|296:214|310:306,1,140,2|2,0:0|0:0,0:0:0:0:
248,366,43895,1,8,0:0:0:0:
35,180,44203,5,2,0:0:0:0:
252,18,44510,2,0,L|230:105,1,70,8|2,0:0|0:0,0:0:0:0:
340,142,44818,1,0,0:0:0:0:
340,142,44972,2,0,L|360:58,1,70,2|8,0:0|0:0,0:0:0:0:
466,29,45279,2,0,P|489:57|499:97,1,70,2|0,0:0|0:0,0:0:0:0:
430,195,45587,2,0,P|421:162|446:121,1,70,2|8,0:0|0:0,0:0:0:0:
493,237,45895,2,0,P|507:282|482:375,1,140,2|2,0:0|0:0,0:0:0:0:
375,374,46356,1,8,0:0:0:0:
374,247,46510,1,4,0:3:0:0:
374,247,46664,6,0,L|224:251,1,140,6|8,0:0|0:0,0:0:0:0:
11,338,47279,1,0,0:0:0:0:
11,338,47433,2,0,L|17:249,1,70,2|8,0:0|0:0,0:0:0:0:
79,213,47741,2,0,B|84:159|84:159|133:108|147:81,1,140,2|2,0:0|0:0,0:0:0:0:
381,94,48356,2,0,P|424:100|391:165,1,140,2|2,0:0|0:0,0:0:0:0:
285,169,48818,2,0,L|296:78,1,70,8|2,0:0|0:0,0:0:0:0:
182,97,49126,6,0,L|192:258,1,140,2|8,0:0|0:0,0:0:0:0:
128,294,49587,1,2,0:0:0:0:
375,298,49895,1,2,0:0:0:0:
375,298,50049,2,0,L|382:217,1,70,8|2,0:0|0:0,0:0:0:0:
434,136,50356,1,8,0:0:0:0:
434,136,50510,2,0,L|351:137,1,70,8|8,0:0|0:0,0:0:0:0:
259,138,50818,1,0,0:0:0:0:
248,138,50895,1,0,0:0:0:0:
237,138,50972,1,0,0:0:0:0:
131,139,51126,2,0,L|111:65,2,70,0|8|4,0:0|1:3|1:3,0:0:0:0:
195,52,51587,6,0,L|242:210,1,140,4|0,0:0|0:0,0:0:0:0:
320,211,52049,2,0,L|365:353,1,140,2|2,0:0|0:0,0:0:0:0:
257,366,52510,2,0,P|233:340|257:310,1,70,2|2,0:0|0:0,0:0:0:0:
145,324,52818,1,0,0:0:0:0:
320,211,53126,1,0,0:0:0:0:
401,220,53279,2,0,L|485:224,1,70,2|8,0:0|0:0,0:0:0:0:
509,144,53587,2,0,L|356:137,1,140,2|2,0:0|0:0,0:0:0:0:
244,137,54049,6,0,P|206:87|220:6,1,140,2|0,0:0|0:0,0:0:0:0:
285,60,54510,2,0,P|244:92|141:55,1,140,2|2,0:0|0:0,0:0:0:0:
83,60,54972,2,0,P|42:38|23:54,1,70,2|2,0:0|0:0,0:0:0:0:
25,168,55279,1,0,0:0:0:0:
195,284,55587,1,0,0:0:0:0:
152,209,55741,2,0,L|315:224,1,140,2|2,0:0|0:0,0:0:0:0:
379,236,56203,2,0,L|434:158,1,70,0|2,0:0|0:0,0:0:0:0:
475,109,56510,5,4,0:0:0:0:
256,68,56818,2,0,L|208:137,1,70,8|8,0:0|0:0,0:0:0:0:
132,171,57126,2,0,P|101:147|91:97,1,70,8|0,0:0|0:0,0:0:0:0:
212,217,57433,1,8,0:0:0:0:
212,217,57587,2,0,P|245:258|250:348,1,140,8|8,0:0|0:0,0:0:0:0:
154,349,58049,1,8,0:0:0:0:
406,285,58356,2,0,L|490:330,1,70,8|8,0:0|0:0,0:0:0:0:
334,320,58664,1,8,0:0:0:0:
334,320,58818,6,0,P|410:260|441:194,1,140,12|0,0:0|0:0,0:0:0:0:
412,135,59279,1,2,0:1:0:0:
112,71,59587,2,0,L|118:216,1,140,8|2,0:0|0:1,0:0:0:0:
217,183,60049,1,8,0:0:0:0:
217,183,60203,2,0,L|226:98,1,70,0|0,1:0|1:1,0:0:0:0:
322,110,60510,2,0,L|342:196,1,70,2|8,1:1|0:0,0:0:0:0:
449,194,60818,1,8,0:0:0:0:
432,78,60972,2,0,L|449:28,2,35,0|0|2,1:0|1:0|1:0,0:0:0:0:
322,110,61279,2,0,P|320:233|385:311,1,210,0|0,0:0|0:0,0:0:0:0:
272,322,62049,6,0,P|214:277|137:264,1,140,6|8,3:2|0:0,0:0:0:0:
29,303,62510,2,0,L|52:155,1,140,2|2,0:0|0:0,0:0:0:0:
26,58,62972,2,0,P|88:95|153:84,1,140,8|0,0:0|0:0,0:0:0:0:
230,45,63433,2,0,P|290:13|375:26,1,140,2|2,0:0|0:0,0:0:0:0:
359,18,63818,1,8,0:0:0:0:
359,18,63895,1,8,0:0:0:0:
434,87,64049,2,0,P|485:94|503:77,1,70,2|8,0:0|0:0,0:0:0:0:
293,132,64510,6,0,L|279:277,1,140,2|8,0:0|0:0,0:0:0:0:
361,300,64972,2,0,L|375:147,1,140,2|2,0:0|0:0,0:0:0:0:
293,132,65433,2,0,L|137:175,1,140,8|0,0:0|0:0,0:0:0:0:
79,281,65895,2,0,L|240:233,1,140,2|2,0:0|0:0,0:0:0:0:
213,241,66279,1,8,0:0:0:0:
213,241,66356,1,8,0:0:0:0:
158,169,66510,2,0,P|117:144|87:142,1,70,2|8,0:0|0:0,0:0:0:0:
359,350,66972,6,0,P|389:315|396:208,1,140,2|8,0:0|0:0,0:0:0:0:
383,126,67433,2,0,P|406:75|490:50,1,140,2|2,0:0|0:0,0:0:0:0:
470,136,67895,1,8,0:0:0:0:
383,126,68049,2,0,L|227:106,1,140,2|2,0:0|0:0,0:0:0:0:
145,66,68510,1,8,0:0:0:0:
81,145,68664,2,0,L|38:151,2,35,2|8|8,0:0|0:0|0:0,0:0:0:0:
152,207,68972,2,0,P|184:257|201:362,1,140,2|2,0:0|0:0,0:0:0:0:
91,330,69433,5,2,0:0:0:0:
402,341,69741,1,8,0:0:0:0:
402,341,69895,2,0,L|429:185,1,140,2|2,0:0|0:0,0:0:0:0:
498,155,70356,1,8,0:0:0:0:
498,155,70510,2,0,P|499:99|471:79,1,70,2|2,0:0|0:1,0:0:0:0:
341,110,70818,1,0,0:0:0:0:
341,110,70972,2,0,L|337:202,1,70,8|2,0:0|0:1,0:0:0:0:
218,185,71279,2,0,L|212:93,1,70,0|2,0:0|0:1,0:0:0:0:
100,113,71587,2,0,L|87:189,1,70,8|4,1:3|1:3,0:0:0:0:
77,182,71818,1,2,0:0:0:0:
66,182,71895,6,0,L|49:10,1,140,6|8,3:2|0:0,0:0:0:0:
177,27,72356,2,0,L|195:190,1,140,2|2,0:0|0:0,0:0:0:0:
316,165,72818,2,0,L|339:-5,1,140,8|0,0:0|0:0,0:0:0:0:
473,34,73279,2,0,L|451:196,1,140,2|2,0:0|0:0,0:0:0:0:
454,172,73664,1,8,0:0:0:0:
454,172,73741,1,8,0:0:0:0:
401,244,73895,2,0,P|447:284|463:321,1,70,2|8,0:0|0:0,0:0:0:0:
301,369,74356,6,0,P|238:336|234:252,1,140,2|8,0:0|0:0,0:0:0:0:
215,194,74818,2,0,L|62:206,1,140,2|2,0:0|0:0,0:0:0:0:
10,282,75279,2,0,L|149:271,1,140,8|0,0:0|0:0,0:0:0:0:
75,204,75741,2,0,P|107:155|97:63,1,140,2|2,0:0|0:0,0:0:0:0:
103,75,76125,1,8,0:0:0:0:
103,75,76202,1,8,0:0:0:0:
28,33,76356,2,0,L|12:104,1,70,2|8,0:0|0:0,0:0:0:0:
212,152,76818,6,0,L|241:8,1,140,2|8,0:0|0:0,0:0:0:0:
332,29,77279,1,2,0:0:0:0:
307,245,77587,2,0,L|389:235,1,70,2|8,0:0|0:0,0:0:0:0:
499,222,77895,2,0,L|469:82,1,140,2|2,0:0|0:0,0:0:0:0:
350,117,78356,1,8,0:0:0:0:
391,199,78510,2,0,P|421:209|421:225,2,35,2|8|8,0:0|0:0|0:0,0:0:0:0:
371,285,78818,2,0,B|321:334|321:334|262:294,1,140,2|2,0:0|0:0,0:0:0:0:
134,267,79279,6,0,B|80:228|80:228|23:285,1,140,2|8,0:0|0:0,0:0:0:0:
255,186,79895,1,0,0:0:0:0:
255,186,80049,2,0,L|263:95,1,70,2|8,0:0|0:0,0:0:0:0:
178,45,80356,2,0,L|161:214,1,140,2|8,0:0|0:0,0:0:0:0:
210,268,80818,1,8,0:0:0:0:
316,253,80972,1,8,0:0:0:0:
316,253,81049,1,8,0:0:0:0:
316,253,81125,1,8,0:0:0:0:
415,253,81279,2,0,P|445:306|444:343,2,70,8|8|4,0:0|1:3|1:3,0:0:0:0:
428,166,81741,5,6,0:0:0:0:
92,178,91587,6,0,L|250:195,1,140,4|0,0:0|0:0,0:0:0:0:
318,198,92048,2,0,P|332:164|320:131,2,70,0|8|0,0:0|0:0|0:0,0:0:0:0:
270,267,92510,2,0,P|249:326|306:380,1,140,0|0,0:0|0:0,0:0:0:0:
406,346,92971,1,0,0:0:0:0:
406,346,93125,2,0,L|408:257,1,70,8|0,0:0|0:0,0:0:0:0:
494,249,93433,5,0,0:0:0:0:
252,65,93740,1,0,0:0:0:0:
182,118,93894,2,0,L|149:38,2,70,0|8|0,0:0|0:0|0:0,0:0:0:0:
57,44,94356,2,0,L|120:186,1,140,0|0,0:0|0:0,0:0:0:0:
48,273,94817,1,8,1:3:0:0:
137,252,94971,2,0,L|220:267,1,70,4|4,1:3|1:3,0:0:0:0:
361,293,95279,6,0,L|346:138,1,140,6|0,0:0|0:0,0:0:0:0:
428,122,95740,2,0,P|456:154|450:185,2,70,8|8|2,0:0|0:0|0:0,0:0:0:0:
347,153,96202,2,0,P|315:100|348:17,1,140,2|0,0:0|0:0,0:0:0:0:
228,53,96663,1,8,0:0:0:0:
217,54,96740,1,8,0:0:0:0:
206,55,96817,1,8,0:0:0:0:
111,69,96971,1,2,0:0:0:0:
24,79,97125,6,0,L|5:239,1,140,6|2,0:0|0:0,0:0:0:0:
107,314,97587,2,0,L|124:160,1,140,6|2,0:0|0:0,0:0:0:0:
240,167,98048,2,0,P|283:211|301:306,1,140,6|2,0:0|0:0,0:0:0:0:
405,288,98510,2,0,P|430:218|503:181,1,140,6|2,0:0|0:0,0:0:0:0:
256,192,98971,12,8,101125,0:0:0:0:
185,268,101433,5,2,0:0:0:0:
185,268,101740,2,0,L|204:186,1,70,2|0,0:0|0:0,0:0:0:0:
311,200,102048,1,2,0:0:0:0:
311,200,102202,2,0,L|332:293,1,70,0|2,0:0|0:0,0:0:0:0:
246,340,102509,2,0,L|102:333,1,140,0|0,0:0|0:0,0:0:0:0:
259,142,103125,2,0,L|427:148,1,140,0|0,0:0|0:0,0:0:0:0:
485,149,103586,2,0,P|502:96|494:84,2,70,2|0|2,0:0|0:0|0:0,0:0:0:0:
212,86,104202,6,0,P|186:127|223:206,1,140,2|2,0:0|0:0,0:0:0:0:
297,171,104663,2,0,L|290:86,1,70,0|2,0:0|0:0,0:0:0:0:
212,86,104971,2,0,L|63:84,1,140,0|0,0:0|0:0,0:0:0:0:
68,293,105586,2,0,L|214:285,1,140,0|0,0:0|0:0,0:0:0:0:
294,282,106048,2,0,P|316:315|301:356,2,70,2|0|2,0:0|0:0|0:0,0:0:0:0:
454,334,106663,6,0,P|450:263|512:220,1,140,2|2,0:0|0:0,0:0:0:0:
408,199,107125,2,0,L|366:120,1,70,0|2,0:0|0:0,0:0:0:0:
497,149,107433,2,0,L|425:-2,1,140,0|0,0:0|0:0,0:0:0:0:
234,187,108048,2,0,L|170:55,1,140,0|0,0:0|0:0,0:0:0:0:
70,83,108509,1,2,0:0:0:0:
96,179,108663,1,0,0:0:0:0:
95,189,108740,1,0,0:0:0:0:
94,199,108817,6,0,L|248:185,1,140,2|2,0:0|0:0,0:0:0:0:
319,252,109279,2,0,L|471:238,1,140,0|0,0:0|0:0,0:0:0:0:
319,252,109740,2,0,L|306:331,1,70,2|0,0:0|0:0,0:0:0:0:
233,186,110048,2,0,L|255:34,1,140,2|2,0:0|0:0,0:0:0:0:
153,31,110509,2,0,L|68:43,1,70,0|2,0:0|0:0,0:0:0:0:
30,134,110817,2,0,L|127:120,1,70,0|2,0:0|0:0,0:0:0:0:
127,224,111125,1,0,0:0:0:0:
127,224,111279,6,0,P|36:246|21:298,1,140,4|0,0:0|0:0,0:0:0:0:
203,311,111894,1,8,0:0:0:0:
203,311,112048,2,0,L|215:216,1,70,0|0,0:0|0:0,0:0:0:0:
316,211,112356,2,0,L|344:361,1,140,0|0,0:0|0:0,0:0:0:0:
512,174,112971,2,0,L|484:25,1,140,0|0,0:0|0:0,0:0:0:0:
395,20,113433,2,0,P|372:62|394:80,2,70,0|0|0,0:0|0:0|0:0,0:0:0:0:
220,137,114048,6,0,P|214:74|165:-1,1,140,0|8,0:0|0:0,0:0:0:0:
86,6,114509,2,0,L|78:95,1,70,0|0,0:0|0:0,0:0:0:0:
18,145,114817,2,0,L|5:291,1,140,0|0,0:0|0:0,0:0:0:0:
237,384,115433,2,0,L|251:220,1,140,0|0,0:0|0:0,0:0:0:0:
321,187,115894,1,0,0:0:0:0:
385,249,116048,1,0,0:0:0:0:
385,249,116125,1,0,0:0:0:0:
385,249,116202,2,0,B|437:293|437:293|503:228,1,140,0|0,0:0|0:0,0:0:0:0:
501,84,116817,5,8,0:0:0:0:
501,84,116971,2,0,L|409:90,1,70,0|0,0:0|0:0,0:0:0:0:
308,94,117279,2,0,P|243:38|181:15,1,140,0|0,0:0|0:0,0:0:0:0:
104,293,117894,2,0,P|169:349|231:372,1,140,0|0,0:0|0:0,0:0:0:0:
285,281,118356,1,0,0:0:0:0:
211,213,118509,1,0,0:0:0:0:
211,213,118586,1,0,0:0:0:0:
211,213,118663,6,0,L|57:208,1,140,0|0,0:0|0:0,0:0:0:0:
12,125,119125,2,0,L|167:131,1,140,0|0,0:0|0:0,0:0:0:0:
278,140,119586,2,0,P|290:106|296:62,1,70,0|0,0:0|0:0,0:0:0:0:
391,64,119894,2,0,P|416:140|448:155,1,105,0|0,0:0|0:0,0:0:0:0:
481,163,120202,1,0,0:0:0:0:
480,75,120356,2,0,P|387:113|342:222,1,210,0|2,0:0|0:0,0:0:0:0:
165,260,121125,6,0,L|144:168,1,70,6|2,0:0|0:0,0:0:0:0:
25,200,121433,1,0,0:0:0:0:
25,200,121586,2,0,L|19:280,2,70,2|8|2,0:0|0:0|0:0,0:0:0:0:
139,179,122048,2,0,L|174:335,1,140,0|2,0:0|0:0,0:0:0:0:
346,311,122663,1,0,0:0:0:0:
346,311,122817,2,0,P|356:265|446:197,1,140,2|2,0:0|0:0,0:0:0:0:
489,249,123279,2,0,P|478:289|446:286,1,70,0|2,0:0|0:0,0:0:0:0:
421,203,123586,6,0,B|433:132|433:132|457:107|479:64,1,140,2|0,0:0|0:0,0:0:0:0:
399,9,124048,2,0,L|316:11,1,70,2|8,0:0|0:0,0:0:0:0:
255,75,124356,1,2,0:0:0:0:
255,75,124509,2,0,L|169:78,1,70,2|0,0:0|0:0,0:0:0:0:
113,25,124817,1,2,0:0:0:0:
91,329,125125,1,2,0:0:0:0:
141,240,125279,2,0,P|176:252|170:351,1,140,2|2,0:0|0:0,0:0:0:0:
91,329,125740,2,0,L|65:252,1,70,0|2,0:0|0:0,0:0:0:0:
34,158,126048,5,4,0:0:0:0:
323,116,126356,1,8,0:0:0:0:
395,145,126509,2,0,P|411:164|393:175,2,35,8|8|8,0:0|0:0|0:0,0:0:0:0:
340,219,126817,1,8,0:0:0:0:
408,268,126971,1,8,0:0:0:0:
333,304,127125,2,0,L|299:366,1,70,8|8,0:0|0:0,0:0:0:0:
408,268,127433,2,0,L|495:289,1,70,8|0,0:0|0:0,0:0:0:0:
340,219,127740,2,0,L|287:136,1,70,8|8,0:0|0:0,0:0:0:0:
198,227,128048,2,0,L|120:109,1,140,8|4,0:0|0:0,0:0:0:0:
41,57,128509,6,0,P|4:105|10:211,1,140,2|2,0:0|0:1,0:0:0:0:
370,190,129125,2,0,P|367:121|327:64,1,140,8|2,0:0|0:1,0:0:0:0:
253,122,129586,1,8,0:0:0:0:
286,204,129740,2,0,L|257:271,1,70,2|8,0:0|0:0,0:0:0:0:
168,301,130048,2,0,L|131:380,1,70,2|8,0:1|0:0,0:0:0:0:
244,360,130356,1,8,0:0:0:0:
346,355,130509,2,0,L|339:312,2,35,2|2|2,0:0|0:0|1:0,0:0:0:0:
453,348,130817,2,0,P|419:284|419:128,1,210,8|0,0:0|0:0,0:0:0:0:
256,58,131586,6,0,L|242:214,1,140,6|8,3:2|0:0,0:0:0:0:
138,222,132047,2,0,L|153:76,1,140,2|2,0:0|0:0,0:0:0:0:
243,197,132509,2,0,P|305:224|376:194,1,140,8|0,0:0|0:0,0:0:0:0:
152,82,132970,2,0,P|88:64|21:106,1,140,2|2,0:0|0:0,0:0:0:0:
26,97,133355,1,8,0:0:0:0:
26,97,133432,1,8,0:0:0:0:
43,192,133586,2,0,P|79:192|88:160,1,70,2|8,0:0|0:0,0:0:0:0:
383,82,134047,6,0,P|430:132|427:204,1,140,2|8,0:0|0:0,0:0:0:0:
327,251,134509,2,0,P|299:217|366:169,1,140,2|2,0:0|0:0,0:0:0:0:
407,283,134970,2,0,B|396:348|396:348|319:333,1,140,8|0,0:0|0:0,0:0:0:0:
222,291,135432,2,0,B|155:277|155:277|132:358,1,140,2|2,0:0|0:0,0:0:0:0:
135,345,135816,1,8,0:0:0:0:
135,345,135893,1,8,0:0:0:0:
239,358,136047,2,0,L|216:267,1,70,2|8,0:0|0:0,0:0:0:0:
3,113,136509,6,0,L|39:252,1,140,2|8,0:0|0:0,0:0:0:0:
139,226,136970,2,0,P|168:162|115:93,1,140,2|2,0:0|0:0,0:0:0:0:
94,167,137432,1,8,0:0:0:0:
238,192,137586,2,0,L|390:189,1,140,2|2,0:0|0:0,0:0:0:0:
433,125,138047,1,8,0:0:0:0:
378,51,138201,2,0,L|375:11,2,35,2|8|8,0:0|0:0|0:0,0:0:0:0:
312,123,138509,2,0,L|316:284,1,140,2|2,0:0|0:0,0:0:0:0:
320,355,138970,5,2,0:0:0:0:
485,272,139278,1,8,0:0:0:0:
485,272,139432,2,0,L|477:109,1,140,2|2,0:0|0:0,0:0:0:0:
370,62,139893,1,8,0:0:0:0:
370,62,140047,2,0,L|291:71,1,70,2|2,0:0|0:1,0:0:0:0:
259,173,140355,1,0,0:0:0:0:
259,173,140509,2,0,L|180:182,1,70,8|2,0:0|0:1,0:0:0:0:
144,105,140816,2,0,L|65:114,1,70,8|2,0:0|0:1,0:0:0:0:
73,224,141124,2,0,L|-6:233,1,70,8|4,0:3|0:3,0:0:0:0:
9,223,141355,1,2,0:0:0:0:
16,215,141432,6,0,L|137:304,1,140,6|8,3:2|0:0,0:0:0:0:
303,304,141893,2,0,P|330:242|326:148,1,140,2|2,0:0|0:0,0:0:0:0:
180,170,142355,2,0,P|181:240|209:304,1,140,8|0,0:0|0:0,0:0:0:0:
383,297,142816,2,0,L|496:215,1,140,2|2,0:0|0:0,0:0:0:0:
496,214,143201,1,8,0:0:0:0:
496,214,143278,1,8,0:0:0:0:
474,139,143432,2,0,P|428:153|438:182,1,70,2|8,0:0|0:0,0:0:0:0:
306,44,143893,6,0,L|151:52,1,140,0|8,0:0|0:0,0:0:0:0:
157,149,144355,2,0,P|214:190|274:127,1,140,2|2,0:0|0:0,0:0:0:0:
349,116,144816,2,0,L|360:265,1,140,8|0,0:0|0:0,0:0:0:0:
292,308,145278,2,0,P|254:283|174:322,1,140,2|2,0:0|0:0,0:0:0:0:
175,319,145662,1,8,0:0:0:0:
175,319,145739,1,0,0:0:0:0:
86,353,145893,2,0,L|67:271,1,70,2|8,0:0|0:0,0:0:0:0:
412,222,146355,6,0,L|399:383,1,140,2|8,0:0|0:0,0:0:0:0:
309,358,146816,1,2,0:0:0:0:
133,57,147124,2,0,L|214:63,1,70,2|8,0:0|0:0,0:0:0:0:
196,142,147432,2,0,L|37:130,1,140,2|2,0:0|0:0,0:0:0:0:
24,36,147893,1,8,0:0:0:0:
126,12,148047,2,0,L|165:2,2,35,2|8|8,0:0|0:0|0:0,0:0:0:0:
220,62,148355,2,0,L|377:29,1,140,2|2,0:0|0:0,0:0:0:0:
465,5,148816,6,0,L|460:157,1,140,2|8,0:0|0:0,0:0:0:0:
256,218,149432,1,0,0:0:0:0:
256,218,149586,2,0,L|253:297,1,70,2|8,0:0|0:0,0:0:0:0:
341,309,149893,2,0,L|346:163,1,140,2|8,0:0|0:0,0:0:0:0:
192,179,150355,1,8,0:0:0:0:
143,266,150509,1,8,0:0:0:0:
143,266,150586,1,8,0:0:0:0:
143,266,150662,1,8,0:0:0:0:
55,244,150816,2,0,L|37:149,2,70,8|8|4,0:0|1:3|1:3,0:0:0:0:
0,313,151278,5,6,0:1:0:0:
144,290,160816,5,2,0:1:0:0:
133,291,160893,1,2,0:0:0:0:
122,292,160970,1,2,0:0:0:0:
111,293,161047,1,2,0:0:0:0:
100,293,161124,6,0,L|134:143,1,140,6|8,0:0|0:0,0:0:0:0:
34,157,161586,1,2,0:0:0:0:
237,268,161893,2,0,L|324:260,1,70,2|8,0:0|0:0,0:0:0:0:
364,194,162201,2,0,L|514:184,1,140,2|2,0:0|0:0,0:0:0:0:
442,273,162662,1,8,0:0:0:0:
481,344,162816,2,0,L|494:380,2,35,2|2|2,0:0|0:0|0:0,0:0:0:0:
396,341,163124,2,0,P|354:324|319:350,1,70,2|8,0:0|0:0,0:0:0:0:
231,371,163432,1,2,0:0:0:0:
231,371,163586,6,0,L|245:206,1,140,2|8,0:0|0:0,0:0:0:0:
241,140,164047,2,0,L|226:-9,1,140,2|2,0:0|0:0,0:0:0:0:
117,15,164509,1,8,0:0:0:0:
117,15,164662,1,2,0:0:0:0:
375,103,164970,2,0,P|408:121|419:154,1,70,2|8,0:0|0:0,0:0:0:0:
352,195,165278,2,0,P|340:175|355:168,2,35,8|8|8,0:0|0:0|0:0,0:0:0:0:
265,174,165586,1,2,0:0:0:0:
163,169,165739,2,0,L|83:180,1,70,8|4,1:3|1:3,0:0:0:0:
15,280,166047,6,0,L|156:259,1,140,4|8,0:0|0:0,0:0:0:0:
259,243,166509,1,2,0:0:0:0:
259,253,166586,1,0,0:0:0:0:
259,263,166662,1,0,0:0:0:0:
260,352,166816,2,0,L|410:379,1,140,2|2,0:0|0:0,0:0:0:0:
508,304,167278,2,0,L|415:286,1,70,0|2,0:0|0:0,0:0:0:0:
342,266,167586,1,8,0:0:0:0:
392,177,167739,2,0,P|422:175|428:188,2,35,2|8|2,0:0|0:0|0:0,0:0:0:0:
374,79,168047,2,0,L|528:49,1,140,2|4,0:0|1:3,0:0:0:0:
512,162,168509,5,2,0:0:0:0:
161,181,168816,1,8,0:0:0:0:
85,204,168970,2,0,L|65:60,1,140,2|2,0:0|0:0,0:0:0:0:
5,11,169432,1,8,0:0:0:0:
139,24,169586,2,0,L|150:108,1,70,2|0,0:0|0:0,0:0:0:0:
238,90,169893,2,0,L|249:6,1,70,2|8,0:0|0:0,0:0:0:0:
353,43,170201,2,0,P|379:42|406:23,2,35,8|8|8,0:0|0:0|0:0,0:0:0:0:
351,141,170509,1,2,0:0:0:0:
381,237,170662,2,0,L|298:235,1,70,8|4,1:3|1:3,0:0:0:0:
179,234,170970,6,0,P|130:262|125:359,1,140,4|8,0:0|0:1,0:0:0:0:
372,349,171585,2,0,P|370:309|343:286,1,70,8|8,0:1|0:1,0:0:0:0:
101,179,172046,1,8,0:1:0:0:
101,179,172354,1,8,0:1:0:0:
125,85,172508,2,0,P|134:47|120:18,1,70,8|8,0:1|0:1,0:0:0:0:
9,46,172816,2,0,P|30:101|45:109,1,70,8|8,0:1|0:1,0:0:0:0:
101,179,173123,6,0,L|254:166,1,140,8|8,0:1|0:1,0:0:0:0:
388,252,173739,2,0,L|299:262,1,70,8|8,0:1|0:1,0:0:0:0:
380,33,174200,1,8,0:1:0:0:
380,33,174508,1,8,0:1:0:0:
323,110,174662,2,0,L|302:188,1,70,8|8,0:1|0:1,0:0:0:0:
366,267,174970,2,0,L|387:191,1,70,8|8,0:1|0:1,0:0:0:0:
457,162,175277,6,0,P|481:213|486:311,1,140,8|8,0:1|0:1,0:0:0:0:
251,320,175893,2,0,P|237:276|237:242,1,70,8|8,0:1|0:1,0:0:0:0:
0,332,176354,1,8,0:1:0:0:
0,332,176662,1,8,0:1:0:0:
127,280,176816,2,0,P|145:230|110:209,1,70,8|8,0:1|0:1,0:0:0:0:
37,209,177123,2,0,L|52:285,1,70,8|8,0:1|0:1,0:0:0:0:
88,372,177431,6,0,L|243:375,1,140,8|8,0:1|0:1,0:0:0:0:
370,228,178046,2,0,L|454:232,1,70,8|8,0:1|0:1,0:0:0:0:
216,60,178508,1,8,0:1:0:0:
216,60,178816,1,8,0:1:0:0:
237,142,178970,2,0,L|168:135,1,70,8|8,0:1|0:1,0:0:0:0:
117,35,179277,2,0,L|194:40,1,70,8|8,0:1|0:1,0:0:0:0:
295,17,179585,6,0,P|336:53|306:149,1,140,8|8,0:1|0:1,0:0:0:0:
18,125,180200,2,0,P|14:92|52:51,1,70,8|8,0:1|0:1,0:0:0:0:
313,260,180662,1,8,0:1:0:0:
313,260,180970,1,8,0:1:0:0:
397,230,181123,2,0,P|376:183|355:178,1,70,8|8,0:1|0:1,0:0:0:0:
252,197,181431,2,0,P|228:228|241:272,1,70,8|8,0:1|0:1,0:0:0:0:
292,348,181739,6,0,P|347:334|447:293,1,140,8|8,0:1|0:1,0:0:0:0:
334,55,182354,2,0,P|283:68|259:82,1,70,8|8,0:1|0:1,0:0:0:0:
131,266,182816,1,8,0:1:0:0:
131,266,183123,1,8,0:1:0:0:
71,202,183277,2,0,L|-6:205,1,70,8|8,0:1|0:1,0:0:0:0:
64,313,183585,2,0,L|152:308,1,70,8|8,0:1|0:1,0:0:0:0:
205,216,183893,6,0,P|249:256|268:344,1,140,6|0,0:0|0:0,0:0:0:0:
190,328,184354,2,0,P|201:286|299:216,1,140,2|0,0:0|0:0,0:0:0:0:
378,217,184816,2,0,L|523:245,1,140,6|0,0:0|0:0,0:0:0:0:
508,152,185277,2,0,L|368:126,1,140,2|0,0:0|0:0,0:0:0:0:
278,101,185739,6,0,P|229:70|288:13,1,140,2|0,0:0|0:0,0:0:0:0:
334,42,186200,2,0,L|165:83,1,140,6|0,0:0|0:0,0:0:0:0:
139,139,186662,2,0,L|-16:177,1,140,6|0,0:0|0:0,0:0:0:0:
32,82,187123,2,0,P|101:120|223:170,1,210,6|4,0:0|0:0,0:0:0:0:
256,192,187661,12,0,190046,3:0:0:0:
256,192,190123,12,0,192508,3:0:0:0:
256,192,192585,12,0,194969,3:0:0:0:
256,192,195046,12,0,197431,0:0:0:0:
357,258,199892,6,0,L|345:106,1,140,2|0,0:0|0:0,0:0:0:0:
257,182,200354,2,0,L|246:22,1,140,2|0,0:0|0:0,0:0:0:0:
141,62,200815,2,0,P|103:115|145:197,1,140,2|0,0:0|0:0,0:0:0:0:
192,251,201277,1,2,0:0:0:0:
192,251,201431,2,0,P|229:281|194:366,1,140,0|2,0:0|0:0,0:0:0:0:
39,228,202046,1,2,0:0:0:0:
345,303,202354,6,0,L|486:351,1,140,2|0,0:0|0:0,0:0:0:0:
508,255,202815,2,0,L|366:206,1,140,2|0,0:0|0:0,0:0:0:0:
370,113,203277,2,0,P|405:49|477:38,1,140,2|0,0:0|0:0,0:0:0:0:
443,137,203738,1,2,0:0:0:0:
443,137,203892,2,0,L|276:89,1,140,0|2,0:0|0:0,0:0:0:0:
58,94,204508,1,2,0:0:0:0:
56,272,204815,6,0,L|196:226,1,140,2|0,0:0|0:0,0:0:0:0:
308,194,205277,2,0,P|342:220|327:317,1,140,2|0,0:0|0:0,0:0:0:0:
257,332,205738,2,0,P|238:293|273:288,1,70,2|0,0:0|0:0,0:0:0:0:
448,249,206200,1,2,0:0:0:0:
189,228,206508,1,0,0:0:0:0:
265,28,206815,2,0,P|308:65|307:155,1,140,0|0,0:0|0:0,0:0:0:0:
217,127,207277,5,2,0:0:0:0:
28,96,207585,1,0,0:0:0:0:
28,96,207738,2,0,L|50:248,1,140,2|0,0:0|0:0,0:0:0:0:
146,316,208200,1,2,0:0:0:0:
146,316,208354,2,0,L|159:229,1,70,0|0,0:0|0:0,0:0:0:0:
263,337,208661,2,0,B|276:237|276:237|325:226|378:175,1,210,2|2,0:0|0:0,0:0:0:0:
443,124,209277,2,0,P|479:158|462:186,2,70,0|2|2,0:0|0:0|0:0,0:0:0:0:
369,182,209738,6,0,L|331:89,1,70,4|0,0:0|0:0,0:0:0:0:
255,151,210046,2,0,L|219:58,1,70,8|0,0:0|0:0,0:0:0:0:
128,100,210354,2,0,L|119:174,1,70,0|0,0:0|0:0,0:0:0:0:
23,148,210661,2,0,L|13:229,1,70,8|0,0:0|0:0,0:0:0:0:
77,325,210969,2,0,L|88:244,1,70,0|0,0:0|0:0,0:0:0:0:
206,258,211277,2,0,P|221:306|197:350,1,70,8|0,0:0|0:0,0:0:0:0:
302,324,211585,2,0,P|297:286|312:246,1,70,8|0,0:0|0:0,0:0:0:0:
444,273,211892,2,0,L|368:297,1,70,8|0,0:0|0:0,0:0:0:0:
390,198,212200,6,0,L|472:176,1,70,0|0,0:0|0:0,0:0:0:0:
462,93,212508,2,0,L|370:120,1,70,8|0,0:0|0:0,0:0:0:0:
304,128,212815,2,0,L|286:51,1,70,0|0,0:0|0:0,0:0:0:0:
203,58,213123,2,0,L|184:139,1,70,8|0,0:0|0:0,0:0:0:0:
50,66,213431,2,0,P|100:58|108:79,1,70,0|0,0:0|0:0,0:0:0:0:
96,156,213738,2,0,P|67:165|36:127,1,70,8|0,0:0|0:0,0:0:0:0:
187,126,214046,2,0,B|217:190|217:190|204:283,1,140,8|8,0:0|0:0,0:0:0:0:
382,313,214661,6,0,B|352:249|352:249|365:156,1,140,0|8,0:0|0:0,0:0:0:0:
449,132,215123,2,0,L|522:167,1,70,0|0,0:0|0:0,0:0:0:0:
495,251,215431,2,0,L|421:216,1,70,0|8,0:0|0:0,0:0:0:0:
361,180,215738,2,0,B|302:150|302:150|254:55,1,140,0|0,0:0|0:0,0:0:0:0:
160,55,216200,1,8,0:0:0:0:
76,102,216354,2,0,P|83:129|99:130,2,35,0|8|8,0:0|0:0|0:0,0:0:0:0:
173,153,216661,2,0,L|159:233,1,70,0|8,0:0|0:0,0:0:0:0:
93,279,216969,1,0,0:0:0:0:
93,279,217123,6,0,B|81:352|81:352|162:349,1,140,0|8,0:0|0:0,0:0:0:0:
404,295,217738,1,0,0:0:0:0:
404,295,217892,2,0,L|397:388,1,70,0|8,0:0|0:0,0:0:0:0:
298,283,218200,2,0,P|267:214|296:147,1,140,0|0,0:0|0:0,0:0:0:0:
355,96,218661,2,0,L|441:113,1,70,8|0,0:0|0:0,0:0:0:0:
425,196,218969,2,0,L|350:181,1,70,2|2,0:0|0:0,0:0:0:0:
214,105,219277,1,8,0:0:0:0:
203,107,219354,1,8,0:0:0:0:
192,109,219431,1,8,0:0:0:0:
181,111,219508,1,8,0:0:0:0:
170,112,219585,6,0,L|1:74,1,140,6|8,3:2|0:0,0:0:0:0:
119,29,220046,2,0,L|86:172,1,140,2|2,0:0|0:0,0:0:0:0:
69,244,220508,2,0,P|123:282|157:354,1,140,8|0,0:0|0:0,0:0:0:0:
252,338,220969,2,0,P|274:265|337:199,1,140,2|2,0:0|0:0,0:0:0:0:
313,216,221354,1,8,0:0:0:0:
313,216,221431,1,8,0:0:0:0:
401,295,221585,2,0,P|418:324|392:353,1,70,2|8,0:0|0:0,0:0:0:0:
266,146,222046,6,0,L|241:4,1,140,2|8,0:0|0:0,0:0:0:0:
351,3,222508,2,0,L|376:155,1,140,2|2,0:0|0:0,0:0:0:0:
266,146,222969,2,0,P|215:124|121:118,1,140,8|0,0:0|0:0,0:0:0:0:
257,226,223431,2,0,P|314:249|417:246,1,140,2|2,0:0|0:0,0:0:0:0:
391,251,223815,1,8,0:0:0:0:
391,251,223892,1,8,0:0:0:0:
483,214,224046,2,0,L|468:141,1,70,2|8,0:0|0:0,0:0:0:0:
131,169,224508,6,0,L|108:318,1,140,2|8,0:0|0:0,0:0:0:0:
28,320,224969,1,2,0:0:0:0:
315,274,225277,2,0,L|332:358,1,70,2|8,0:0|0:0,0:0:0:0:
245,368,225585,2,0,P|214:341|258:240,1,140,2|2,0:0|0:0,0:0:0:0:
304,188,226046,1,8,0:0:0:0:
379,233,226200,2,0,L|391:184,2,35,2|8|8,0:0|0:0|0:0,0:0:0:0:
455,278,226508,2,0,L|492:128,1,140,2|2,0:0|0:0,0:0:0:0:
434,76,226969,5,2,0:0:0:0:
136,123,227277,1,8,0:0:0:0:
54,137,227431,2,0,L|82:-6,1,140,2|2,0:0|0:0,0:0:0:0:
156,39,227892,1,8,0:0:0:0:
156,39,228046,2,0,L|245:31,1,70,2|2,0:0|0:1,0:0:0:0:
322,117,228354,1,0,0:0:0:0:
322,117,228508,2,0,L|245:124,1,70,8|2,0:0|0:1,0:0:0:0:
175,229,228815,2,0,L|257:220,1,70,8|2,0:0|0:1,0:0:0:0:
365,287,229123,2,0,L|284:295,1,70,8|4,1:3|1:3,0:0:0:0:
90,314,229431,6,0,L|103:153,1,140,6|8,3:2|0:0,0:0:0:0:
244,221,229892,2,0,L|256:71,1,140,2|2,0:0|0:0,0:0:0:0:
359,100,230354,2,0,P|401:124|495:102,1,140,8|0,0:0|0:0,0:0:0:0:
496,219,230815,2,0,P|435:212|360:263,1,140,2|2,0:0|0:0,0:0:0:0:
369,250,231200,1,8,0:0:0:0:
369,250,231277,1,8,0:0:0:0:
389,354,231431,2,0,P|426:357|447:318,1,70,2|8,0:0|0:0,0:0:0:0:
255,314,231892,6,0,P|215:266|125:238,1,140,2|8,0:0|0:0,0:0:0:0:
13,352,232354,2,0,P|46:359|142:321,1,140,2|2,0:0|0:0,0:0:0:0:
91,146,232815,2,0,P|65:206|78:287,1,140,8|0,0:0|0:0,0:0:0:0:
218,214,233277,2,0,L|211:63,1,140,2|2,0:0|0:0,0:0:0:0:
211,74,233661,1,8,0:0:0:0:
211,74,233738,1,8,0:0:0:0:
148,29,233892,2,0,P|114:38|106:80,1,70,2|8,0:0|0:0,0:0:0:0:
368,148,234354,6,0,L|361:7,1,140,2|8,0:0|0:0,0:0:0:0:
455,1,234815,1,2,0:0:0:0:
336,237,235123,2,0,L|257:248,1,70,2|8,0:0|0:0,0:0:0:0:
175,263,235431,2,0,P|146:320|193:387,1,140,2|2,0:0|0:0,0:0:0:0:
252,348,235892,1,8,0:0:0:0:
332,333,236046,2,0,L|351:374,2,35,2|8|8,0:0|0:0|0:0,0:0:0:0:
427,355,236354,2,0,L|446:255,1,70,2|8,0:0|0:0,0:0:0:0:
90,148,236815,5,2,0:0:0:0:
101,379,237123,1,8,0:0:0:0:
257,217,237431,1,0,0:0:0:0:
257,217,237585,2,0,P|292:183|292:139,1,70,2|8,0:0|0:0,0:0:0:0:
287,82,237892,2,0,P|215:99|230:159,1,140,2|2,0:0|0:0,0:0:0:0:
362,204,238354,1,8,0:0:0:0:
428,144,238508,1,8,0:0:0:0:
428,144,238585,1,8,0:0:0:0:
428,144,238661,1,8,0:0:0:0:
479,72,238815,2,0,L|474:234,1,140,0|8,0:0|0:0,0:0:0:0:
392,260,239277,6,0,P|344:299|326:377,1,140,2|8,0:1|0:0,0:0:0:0:
232,377,239738,2,0,L|223:296,1,70,2|2,0:0|0:1,0:0:0:0:
136,333,240046,2,0,L|126:235,1,70,2|8,0:0|0:0,0:0:0:0:
37,287,240354,2,0,L|17:122,1,140,2|2,0:0|0:0,0:0:0:0:
73,68,240815,1,8,0:0:0:0:
137,123,240969,2,0,P|152:142|126:160,2,35,2|8|2,0:0|0:0|0:1,0:0:0:0:
200,65,241277,2,0,L|292:57,1,70,2|8,0:0|0:0,0:0:0:0:
445,231,241738,6,0,L|284:244,1,140,2|8,0:1|0:0,0:0:0:0:
307,144,242200,2,0,P|357:155|357:187,1,70,2|2,0:0|0:1,0:0:0:0:
305,242,242508,2,0,L|294:320,1,70,2|8,0:0|0:0,0:0:0:0:
426,369,242815,2,0,L|446:216,1,140,2|2,0:0|0:0,0:0:0:0:
506,144,243277,1,8,0:0:0:0:
425,100,243431,2,0,L|365:79,2,35,2|8|2,0:0|0:0|0:1,0:0:0:0:
506,39,243738,2,0,L|419:1,1,70,2|8,0:0|0:0,0:0:0:0:
192,26,244200,6,0,L|50:77,1,140,2|8,0:1|0:0,0:0:0:0:
90,183,244661,2,0,P|137:204|163:190,1,70,2|2,0:1|0:1,0:0:0:0:
208,101,244969,2,0,L|127:132,1,70,2|8,0:1|0:0,0:0:0:0:
139,273,245277,2,0,L|289:308,1,140,2|2,0:1|0:1,0:0:0:0:
388,328,245738,1,8,0:0:0:0:
385,242,245892,1,2,0:1:0:0:
384,231,245969,1,8,0:0:0:0:
383,220,246046,1,8,0:0:0:0:
375,127,246200,2,0,L|463:109,2,70,2|2|2,0:1|0:1|0:0,0:0:0:0:
455,192,246661,6,0,L|308:224,1,140,2|8,0:1|0:0,0:0:0:0:
232,244,247123,2,0,L|211:329,1,70,2|2,0:1|0:0,0:0:0:0:
109,337,247431,2,0,L|131:251,1,70,2|8,0:1|0:0,0:0:0:0:
108,149,247738,1,2,0:0:0:0:
108,149,247892,2,0,L|79:68,1,70,2|2,0:1|0:1,0:0:0:0:
248,44,248200,2,0,L|277:133,1,70,8|2,0:0|0:1,0:0:0:0:
195,143,248508,2,0,L|166:59,1,70,8|2,0:0|0:1,0:0:0:0:
330,35,248815,2,0,L|358:119,1,70,8|4,0:3|0:3,0:0:0:0:
385,203,249123,6,0,P|445:227|511:274,1,140,6|8,0:1|0:0,0:0:0:0:
438,329,249585,2,0,P|395:308|408:284,2,70,2|2|2,0:0|0:1|0:0,0:0:0:0:
321,263,250046,2,0,L|309:344,1,70,8|2,0:0|0:0,0:0:0:0:
219,353,250354,2,0,L|193:186,1,140,2|8,0:1|0:0,0:0:0:0:
119,217,250815,2,0,P|111:236|115:256,2,35,2|8|2,0:0|0:0|0:1,0:0:0:0:
16,274,251123,1,2,0:0:0:0:
14,189,251277,2,0,L|10:90,1,70,8|2,0:0|0:0,0:0:0:0:
112,77,251585,6,0,L|120:242,1,140,2|8,0:1|0:0,0:0:0:0:
221,188,252046,2,0,P|270:168|299:80,1,140,2|2,0:1|0:0,0:0:0:0:
290,13,252508,1,8,0:0:0:0:
371,49,252661,2,0,L|522:63,1,140,2|2,0:0|0:0,0:0:0:0:
430,164,253123,1,8,0:0:0:0:
490,224,253277,2,0,L|501:264,2,35,2|8|2,0:0|0:0|0:1,0:0:0:0:
501,338,253585,2,0,L|401:344,1,70,0|8,0:0|0:0,0:0:0:0:
308,303,253892,1,2,0:0:0:0:
308,303,254046,6,0,L|167:315,1,140,2|8,0:1|0:0,0:0:0:0:
54,325,254508,2,0,L|69:158,1,140,2|2,0:0|0:0,0:0:0:0:
188,118,254969,1,8,0:0:0:0:
188,118,255123,2,0,P|237:148|269:240,1,140,2|2,0:1|0:0,0:0:0:0:
365,240,255585,1,8,0:0:0:0:
454,254,255738,2,0,L|483:220,2,35,2|8|2,0:0|0:0|0:1,0:0:0:0:
439,160,256046,2,0,L|488:99,1,70,2|8,0:0|0:0,0:0:0:0:
235,6,256508,6,0,L|240:150,1,140,2|8,0:1|0:0,0:0:0:0:
146,200,256969,1,2,0:1:0:0:
135,199,257046,1,0,0:0:0:0:
124,198,257123,1,0,0:0:0:0:
26,188,257277,2,0,L|32:95,1,70,2|8,0:1|0:0,0:0:0:0:
146,128,257585,2,0,L|137:295,1,140,2|2,0:1|0:1,0:0:0:0:
55,289,258046,1,8,1:3:0:0:
121,352,258200,2,0,P|115:358|78:355,2,35,4|0|2,1:3|0:0|0:0,0:0:0:0:
212,326,258508,1,2,0:0:0:0:
289,270,258661,2,0,L|336:352,1,70,2|2,0:0|0:0,0:0:0:0:
439,346,258969,6,0,L|475:205,1,140,6|8,0:0|0:0,0:0:0:0:
499,133,259431,1,2,0:0:0:0:
192,145,259738,2,0,P|179:166|199:207,1,70,2|8,0:0|0:0,0:0:0:0:
265,170,260046,2,0,L|96:195,1,140,2|2,0:0|0:0,0:0:0:0:
23,209,260508,1,8,0:0:0:0:
47,125,260661,1,2,0:0:0:0:
51,115,260738,1,8,0:0:0:0:
55,105,260815,1,2,0:0:0:0:
29,19,260969,2,0,L|126:28,1,70,0|8,0:0|0:0,0:0:0:0:
217,294,261431,6,0,L|365:308,1,140,2|8,0:0|0:0,0:0:0:0:
467,323,261892,2,0,P|497:261|467:180,1,140,2|2,0:0|0:0,0:0:0:0:
424,138,262354,2,0,P|413:98|451:86,1,70,8|2,0:0|0:0,0:0:0:0:
106,280,262815,1,2,0:0:0:0:
29,241,262969,1,8,0:0:0:0:
83,174,263123,2,0,P|85:148|65:143,2,35,2|8|2,0:0|0:0|0:0,0:0:0:0:
159,209,263431,1,0,0:0:0:0:
106,280,263585,2,0,L|86:373,1,70,8|2,0:0|0:0,0:0:0:0:
198,375,263892,6,0,L|225:233,1,140,6|8,0:0|0:0,0:0:0:0:
314,222,264354,1,2,0:0:0:0:
314,222,264508,2,0,L|403:222,1,70,0|2,0:0|0:0,0:0:0:0:
452,293,264815,2,0,L|356:293,1,70,8|2,0:0|0:0,0:0:0:0:
138,93,265277,1,2,0:0:0:0:
228,80,265431,1,8,0:0:0:0:
301,128,265585,2,0,P|290:154|297:174,2,35,2|0|2,0:0|0:0|0:0,0:0:0:0:
378,166,265892,1,2,0:0:0:0:
446,120,266046,2,0,L|441:27,1,70,8|2,0:0|0:0,0:0:0:0:
378,166,266354,6,0,L|389:338,1,140,2|8,0:0|0:0,0:0:0:0:
449,355,266815,2,0,P|485:322|460:286,1,70,2|0,0:0|0:0,0:0:0:0:
190,311,267277,1,8,0:0:0:0:
107,317,267431,2,0,B|32:321|32:321|1:242,1,140,2|2,0:0|0:0,0:0:0:0:
48,148,267892,1,8,0:0:0:0:
135,168,268046,1,2,0:0:0:0:
144,171,268123,1,8,0:0:0:0:
153,174,268200,1,2,0:0:0:0:
250,195,268354,2,0,L|257:95,1,70,2|8,0:0|0:0,0:0:0:0:
259,31,268661,1,2,0:0:0:0:
259,31,268815,6,0,P|339:24|420:64,1,140,6|8,0:0|0:0,0:0:0:0:
453,115,269277,2,0,P|488:122|495:91,1,70,2|0,0:0|0:0,0:0:0:0:
371,128,269585,2,0,L|357:224,1,70,2|8,0:0|0:0,0:0:0:0:
456,229,269892,2,0,L|435:379,1,140,2|2,0:0|0:0,0:0:0:0:
339,325,270354,1,8,0:0:0:0:
235,340,270508,2,0,L|231:380,2,35,2|8|2,0:0|0:0|0:0,0:0:0:0:
137,283,270815,2,0,L|126:365,1,70,2|8,0:0|0:0,0:0:0:0:
11,93,271277,6,0,P|77:71|152:118,1,140,2|8,0:0|0:0,0:0:0:0:
222,157,271738,2,0,P|240:106|314:48,1,140,2|2,0:0|0:0,0:0:0:0:
396,70,272200,2,0,P|438:81|455:53,1,70,8|2,0:0|0:0,0:0:0:0:
99,163,272661,1,2,0:0:0:0:
203,160,272815,1,8,0:0:0:0:
300,158,272969,2,0,L|303:208,2,35,2|8|2,0:0|0:0|0:0,0:0:0:0:
412,152,273277,2,0,L|421:247,1,70,2|8,0:0|0:0,0:0:0:0:
310,304,273585,1,2,0:0:0:0:
310,304,273738,6,0,L|162:293,1,140,4|8,0:0|0:0,0:0:0:0:
81,286,274200,2,0,L|37:342,1,70,2|0,0:0|0:0,0:0:0:0:
392,300,274661,1,8,0:0:0:0:
392,300,274815,2,0,L|354:150,1,140,2|2,0:0|0:0,0:0:0:0:
215,177,275277,1,8,0:0:0:0:
238,99,275431,1,2,0:0:0:0:
235,88,275508,1,8,0:0:0:0:
232,77,275585,1,2,0:0:0:0:
296,17,275738,1,2,0:0:0:0:
163,37,275892,2,0,L|66:37,1,70,8|2,0:0|0:0,0:0:0:0:
19,131,276200,6,0,L|165:133,1,140,4|0,0:0|0:0,0:0:0:0:
147,221,276661,2,0,P|103:246|87:278,1,70,0|0,0:0|0:0,0:0:0:0:
390,260,277123,1,0,0:0:0:0:
390,260,277277,2,0,P|355:224|265:204,1,140,0|0,0:0|0:0,0:0:0:0:
190,300,277738,2,0,L|208:371,1,70,0|0,0:0|0:0,0:0:0:0:
302,370,278046,2,0,L|326:276,1,70,0|0,0:0|0:0,0:0:0:0:
190,300,278354,6,0,L|88:312,1,70,0|0,0:0|0:0,0:0:0:0:
