osu file format v14

[General]
AudioFilename: a.mp3
AudioLeadIn: 0
PreviewTime: 73342
Countdown: 0
SampleSet: Soft
StackLeniency: 0.7
Mode: 0
LetterboxInBreaks: 0
WidescreenStoryboard: 1

[Editor]
Bookmarks: 486,32134,56200,73342,94441
DistanceSpacing: 0.6
BeatDivisor: 6
GridSize: 4
TimelineZoom: 3.699999

[Metadata]
Title:Atropos
TitleUnicode:Atröpøs
Artist:sasakure.UK
ArtistUnicode:sasakure.UK
Creator:Cellina
Version:Collab Insane
Source:beatmania IIDX 21 SPADA
Tags:suzuki_1112 reana rose pacifica dailycare morinaga beomsan haruto milr_ schoolboy ayalis anze gimbab komore haruto_aizawa electronic instrumental video game
BeatmapID:1936309
BeatmapSetID:838536

[Difficulty]
HPDrainRate:6
CircleSize:4
OverallDifficulty:7
ApproachRate:9
SliderMultiplier:1.6
SliderTickRate:1

[Events]
//Background and Video events
0,0,"bg.jpg",0,0
//Break Periods
2,42875,47020
//Storyboard Layer 0 (Background)
//Storyboard Layer 1 (Fail)
//Storyboard Layer 2 (Pass)
//Storyboard Layer 3 (Foreground)
//Storyboard Sound Samples

[TimingPoints]
478,329.67032967033,4,2,3,100,1,0
1302,-166.666666666667,4,2,3,100,0,0
11027,-125,4,2,3,100,0,0
29488,-125,4,2,1,100,0,0
30807,-125,4,2,3,100,0,0
32125,-125,4,2,1,100,0,0
32126,-100,4,2,3,100,0,0
32372,-100,4,2,1,100,0,0
34763,-100,4,2,3,100,0,0
34927,-100,4,2,1,100,0,0
37400,-100,4,2,3,100,0,0
37565,-100,4,2,1,100,0,0
40037,-100,4,1,1,75,0,0
42675,-100,4,2,3,60,0,0
43169,-100,4,2,1,60,0,0
48279,-100,4,2,4,100,0,0
48280,329.67032967033,6,2,4,100,1,0
48280,-117.647058823529,6,2,4,100,0,0
48609,-117.647058823529,6,2,4,60,0,0
56192,329.67032967033,4,2,4,60,1,0
61302,-100,4,2,3,5,0,0
61466,-100,4,2,1,75,0,0
62620,-125,4,2,1,75,0,0
70532,-250,4,2,3,75,0,0
70861,-250,4,2,1,30,0,0
72015,-250,4,2,3,35,0,0
72345,-250,4,2,3,45,0,0
72675,-250,4,2,3,55,0,0
73004,-250,4,2,3,67,0,0
73334,-100,4,2,3,100,0,0
83059,-100,4,2,4,100,0,0
83224,-100,4,2,3,100,0,0
94433,-100,4,2,3,60,0,0
95257,-100,4,2,1,60,0,0
95422,-100,4,2,3,60,0,0
96411,-100,4,2,4,60,0,0
96576,-100,4,2,3,60,0,0
97565,-100,4,2,3,30,0,0
97730,-100,4,2,3,60,0,0
101026,-100,4,2,3,20,0,0
101356,-100,4,2,3,40,0,0
101686,-100,4,2,3,60,0,0
104982,-100,4,2,4,60,0,0
105477,-125,4,2,4,60,0,0
107290,-125,4,2,1,60,0,0
107455,-125,4,2,4,60,0,0
108114,-125,4,2,1,60,0,0
108609,-125,4,2,4,60,0,0
109433,-125,4,2,1,60,0,0
109928,-111.111111111111,4,2,3,60,0,0
110038,-111.111111111111,4,2,1,60,0,0
110257,-111.111111111111,4,2,3,60,0,0
110367,-111.111111111111,4,2,1,60,0,0
110587,-111.111111111111,4,2,3,60,0,0
110697,-111.111111111111,4,2,1,60,0,0
110917,-111.111111111111,4,2,3,60,0,0
111027,-111.111111111111,4,2,1,60,0,0
111246,-111.111111111111,4,2,3,60,0,0
111356,-111.111111111111,4,2,1,60,0,0
111576,-111.111111111111,4,2,3,60,0,0
111686,-111.111111111111,4,2,1,60,0,0

[Colours]
Combo1 : 102,1,254
Combo2 : 128,255,255
Combo3 : 128,128,192
Combo4 : 11,175,255

[HitObjects]
256,192,478,5,0,0:0:0:0:
440,196,1302,2,0,P|371:177|325:123,1,143.999995605469,0|0,0:0|0:0,0:0:0:0:
261,56,2620,2,0,P|279:124|255:191,1,143.999995605469,0|0,0:0|0:0,0:0:0:0:
230,281,3939,2,0,P|279:230|349:217,1,143.999995605469,0|0,0:0|0:0,0:0:0:0:
180,208,5258,2,0,L|60:196,1,119.999996337891,0|0,0:0|0:0,0:0:0:0:
44,192,5752,6,0,L|48:240,1,47.9999985351563,0|0,0:0|0:0,0:0:0:0:
128,336,6082,2,0,L|132:288,1,47.9999985351563,0|0,0:0|0:0,0:0:0:0:
131,288,6576,6,0,P|186:271|230:309,1,119.999996337891,0|0,0:0|0:0,0:0:0:0:
229,326,7071,6,0,L|277:318,1,47.9999985351563,0|0,0:0|0:0,0:0:0:0:
396,360,7401,2,0,L|384:358,8,11.9999996337891,0|0|0|0|0|0|0|0|0,0:0|0:0|0:0|0:0|0:0|0:0|0:0|0:0|0:0,0:0:0:0:
396,360,7895,6,0,L|380:240,1,119.999996337891,0|0,0:0|0:0,0:0:0:0:
376,224,8390,6,0,L|383:176,1,47.9999985351563,0|0,0:0|0:0,0:0:0:0:
444,68,8719,2,0,L|451:115,1,47.9999985351563,0|0,0:0|0:0,0:0:0:0:
450,115,9214,6,0,P|383:126|344:70,1,143.999995605469,0|0,0:0|0:0,0:0:0:0:
344,70,11027,6,0,L|351:133,1,64,0|0,0:0|0:0,0:0:0:0:
272,120,11357,1,0,1:0:0:0:
428,164,11521,2,0,L|435:101,1,64,0|0,0:0|0:0,0:0:0:0:
508,140,11851,1,0,0:0:0:0:
360,216,12016,2,0,L|296:208,1,64,2|0,0:3|0:0,0:0:0:0:
144,252,12346,5,2,0:0:0:0:
175,245,12428,1,0,0:0:0:0:
206,250,12510,1,0,0:0:0:0:
234,265,12593,1,0,0:0:0:0:
254,289,12675,1,0,1:0:0:0:
179,332,12840,1,0,0:0:0:0:
92,324,13005,2,0,L|84:260,1,64,0|8,0:0|0:3,0:0:0:0:
60,168,13335,1,0,0:3:0:0:
136,44,13499,2,0,L|128:108,2,64,0|0|0,0:0|0:0|0:0,0:0:0:0:
152,196,13994,5,8,0:3:0:0:
181,207,14076,1,8,0:3:0:0:
213,208,14159,1,8,0:3:0:0:
242,196,14241,1,8,0:3:0:0:
264,173,14324,1,0,0:0:0:0:
198,121,14488,1,0,0:0:0:0:
112,120,14653,2,0,L|119:183,1,64,2|0,3:0|0:0,0:0:0:0:
122,203,14901,1,2,3:0:0:0:
125,222,14983,5,0,0:0:0:0:
198,121,15148,1,0,0:0:0:0:
249,235,15313,1,2,0:3:0:0:
249,235,15395,2,0,L|312:244,1,64,2|0,0:3|0:0,0:0:0:0:
332,246,15642,2,0,L|363:250,7,32,0|0|4|0|0|0|0|0,3:0|3:0|3:0|3:0|3:0|3:0|3:0|3:0,0:0:0:0:
384,252,16302,6,0,L|448:244,1,64,0|0,0:0|0:0,0:0:0:0:
424,324,16631,1,0,1:0:0:0:
487,172,16796,2,0,L|423:164,1,64,0|0,0:0|0:0,0:0:0:0:
447,244,17125,1,0,0:0:0:0:
384,92,17291,2,0,L|448:84,1,64,0|0,0:0|0:0,0:0:0:0:
322,32,17620,5,0,0:0:0:0:
303,59,17703,1,0,0:0:0:0:
296,89,17785,1,0,0:0:0:0:
303,121,17868,1,0,0:0:0:0:
319,148,17950,1,0,1:0:0:0:
384,92,18115,1,0,0:0:0:0:
406,8,18280,2,0,L|342:16,1,64,0|0,0:0|0:0,0:0:0:0:
246,32,18609,1,0,0:0:0:0:
100,88,18774,2,0,L|164:96,2,64,0|0|0,0:0|0:0|0:0,0:0:0:0:
256,132,19269,6,0,L|248:196,1,64,0|0,1:0|0:0,0:0:0:0:
60,224,19598,1,0,0:0:0:0:
46,211,19681,2,0,L|126:219,1,64,0|0,0:0|0:0,0:0:0:0:
129,214,19928,2,0,L|124:245,3,32,2|2|0|2,3:0|3:0|3:0|3:0,0:0:0:0:
68,328,20258,6,0,L|61:297,7,32,8|0|0|0|8|8|0|0,0:0|0:0|0:0|0:0|0:0|0:0|0:0|0:0,0:0:0:0:
82,322,20917,5,0,0:0:0:0:
112,332,20999,1,0,0:0:0:0:
144,330,21082,1,0,0:0:0:0:
173,317,21164,1,0,0:0:0:0:
192,291,21247,1,2,0:0:0:0:
211,265,21330,1,2,0:0:0:0:
240,252,21412,1,2,0:0:0:0:
272,250,21494,1,2,0:0:0:0:
302,260,21576,5,4,0:0:0:0:
456,288,21741,1,0,0:0:0:0:
375,312,21906,2,0,L|383:249,1,64,8|0,0:0|0:0,0:0:0:0:
352,172,22236,1,0,0:0:0:0:
506,144,22401,1,10,0:0:0:0:
425,120,22566,2,0,L|433:183,1,64,0|0,0:0|0:0,0:0:0:0:
464,260,22895,5,0,0:0:0:0:
352,172,23060,2,0,L|288:176,2,64,0|8|0,0:0|0:0|0:0,0:0:0:0:
400,256,23554,2,0,L|464:260,2,64,2|0|0,0:0|0:0|0:0,0:0:0:0:
304,260,24049,1,2,0:0:0:0:
448,172,24214,1,0,0:0:0:0:
453,341,24379,1,0,0:0:0:0:
401,258,24543,5,2,0:3:0:0:
397,239,24626,1,2,0:3:0:0:
393,220,24708,1,2,0:3:0:0:
389,201,24791,1,2,0:3:0:0:
385,182,24874,1,0,0:0:0:0:
428,28,25038,2,0,L|459:30,4,32,0|0|2|0|0,0:0|0:0|3:0|0:0|0:0,0:0:0:0:
364,92,25532,6,0,L|300:84,1,64,0|0,0:0|0:0,0:0:0:0:
188,20,25862,1,2,0:3:0:0:
188,20,25945,2,0,L|199:82,1,64,2|0,0:3|0:0,0:0:0:0:
204,102,26192,2,0,L|200:133,7,32,0|0|0|0|0|0|0|0,3:0|3:0|3:0|3:0|3:0|3:0|3:0|3:0,0:0:0:0:
204,152,26851,6,0,L|140:144,1,64,0|0,0:0|0:0,0:0:0:0:
172,72,27181,1,0,1:0:0:0:
172,228,27345,1,0,0:0:0:0:
24,224,27510,2,0,L|88:216,1,64,0|2,0:0|0:3,0:0:0:0:
56,144,27840,1,0,0:0:0:0:
56,300,28004,1,0,0:0:0:0:
220,312,28170,5,0,0:0:0:0:
140,288,28335,2,0,L|148:352,2,64,0|0|0,0:0|1:0|0:0,0:0:0:0:
200,216,28829,2,0,L|208:152,2,64,2|0|0,0:0|0:0|0:0,0:0:0:0:
128,172,29324,1,2,0:0:0:0:
152,88,29488,6,0,L|183:94,7,32,0|0|0|0|2|0|0|0,0:0|0:0|0:0|0:0|0:0|0:0|0:0|0:0,0:0:0:0:
201,87,30148,6,0,P|220:129|210:176,1,96,2|0,0:0|0:0,0:0:0:0:
216,195,30478,1,2,0:3:0:0:
215,194,30560,2,0,P|186:183|154:183,1,64,0|0,0:0|0:0,0:0:0:0:
134,186,30807,5,8,0:0:0:0:
105,199,30890,1,0,0:0:0:0:
87,226,30972,1,0,0:0:0:0:
87,258,31055,1,0,0:0:0:0:
105,285,31137,1,0,0:0:0:0:
134,298,31220,1,0,0:0:0:0:
165,293,31302,1,8,0:0:0:0:
190,273,31384,1,0,0:0:0:0:
199,242,31467,6,0,L|194:210,7,32,2|2|2|2|8|2|2|2,0:0|0:0|0:0|0:0|0:0|0:0|0:0|0:0,0:0:0:0:
180,183,32126,6,0,B|285:165|235:228|348:213,1,160,4|2,0:0|0:0,0:0:0:0:
426,326,32620,2,0,P|462:265|415:192,1,160,0|2,0:0|0:0,0:0:0:0:
354,54,33115,2,0,P|361:102|359:140,1,80,0|0,0:0|0:0,0:0:0:0:
229,87,33445,5,2,0:0:0:0:
229,87,33528,1,0,0:0:0:0:
229,87,33610,2,0,L|222:38,2,40,0|0|0,0:0|0:0|0:0,0:0:0:0:
148,154,33939,1,2,0:0:0:0:
148,154,34022,1,0,0:0:0:0:
148,154,34104,2,0,L|141:203,2,40,0|0|0,0:0|0:0|0:0,0:0:0:0:
89,75,34434,2,0,L|49:80,3,40,2|0|0|0,0:0|0:0|0:0|0:0,0:0:0:0:
26,72,34763,6,0,P|39:153|44:240,1,160,6|2,0:0|0:0,0:0:0:0:
6,330,35258,2,0,P|56:269|151:290,1,160,0|2,0:0|0:0,0:0:0:0:
234,335,35752,1,2,0:3:0:0:
234,335,35835,2,0,P|236:284|245:231,1,80,2|2,0:3|0:3,0:0:0:0:
233,226,36082,6,0,B|337:200|291:270|384:247,1,160,2|0,0:0|1:0,0:0:0:0:
442,321,36576,2,0,P|433:235|436:133,1,160,2|0,0:0|3:2,0:0:0:0:
450,138,36988,1,0,3:0:0:0:
457,110,37071,1,2,3:2:0:0:
449,83,37153,1,2,3:2:0:0:
427,65,37236,1,0,3:2:0:0:
399,61,37318,1,0,0:0:0:0:
372,70,37401,6,0,P|289:80|203:86,1,160,6|2,0:0|0:0,0:0:0:0:
131,37,37895,2,0,P|186:103|155:188,1,160,0|2,0:0|0:0,0:0:0:0:
112,311,38390,2,0,P|106:268|91:220,1,80,0|0,0:0|0:0,0:0:0:0:
207,273,38719,5,2,0:0:0:0:
207,273,38802,1,0,0:0:0:0:
207,273,38884,2,0,L|251:267,2,40,0|0|0,0:0|0:0|0:0,0:0:0:0:
322,219,39214,1,2,0:0:0:0:
322,219,39297,1,0,0:0:0:0:
322,219,39379,2,0,L|366:225,2,40,0|0|0,0:0|0:0|0:0,0:0:0:0:
444,266,39708,2,0,L|449:226,3,40,2|0|0|0,0:0|0:0|0:0|0:0,0:0:0:0:
479,147,40038,6,0,L|423:140,1,40,2|0,0:0|0:0,0:0:0:0:
360,102,40203,2,0,L|354:57,2,40,0|0|0,0:0|0:0|0:0,0:0:0:0:
278,148,40532,6,0,L|222:141,1,40,2|0,0:0|0:0,0:0:0:0:
159,103,40697,2,0,L|153:58,2,40,0|0|0,0:0|0:0|0:0,0:0:0:0:
87,157,41027,2,0,L|81:196,3,40,2|0|0|0,0:0|0:0|0:0|0:0,0:0:0:0:
53,202,41357,6,0,L|58:241,7,40,0|0|2|0|0|0|0|0,0:0|0:0|0:0|0:0|0:0|0:0|0:0|0:0,0:0:0:0:
33,324,42016,1,2,0:0:0:0:
44,325,42098,1,0,0:0:0:0:
56,326,42181,1,0,0:0:0:0:
67,327,42263,1,0,0:0:0:0:
79,328,42346,1,2,0:0:0:0:
90,329,42428,1,0,0:0:0:0:
101,330,42510,1,0,0:0:0:0:
113,331,42593,1,0,0:0:0:0:
124,332,42675,5,0,0:0:0:0:
88,157,47620,6,0,L|83:99,2,53.3333333333333,2|0|0,0:0|0:0|0:0,0:0:0:0:
137,216,47950,2,0,L|132:269,2,53.3333333333333,2|0|0,0:0|0:0|0:0,0:0:0:0:
197,161,48280,6,0,P|294:168|354:172,1,136.000002593994,2|0,0:0|0:0,0:0:0:0:
424,143,48774,1,2,0:0:0:0:
424,143,48939,2,0,P|418:187|416:225,1,68.0000012969971,8|0,0:0|0:0,0:0:0:0:
358,256,49269,1,0,0:0:0:0:
472,294,49433,2,0,P|419:247|348:264,1,136.000002593994,0|2,0:0|0:0,0:0:0:0:
274,318,49928,2,0,P|270:281|264:246,1,68.0000012969971,8|0,0:0|0:0,0:0:0:0:
333,171,50258,6,0,P|342:95|354:33,1,136.000002593994,2|0,0:0|0:0,0:0:0:0:
191,54,50752,1,0,0:0:0:0:
255,12,50917,2,0,P|269:51|249:96,1,68.0000012969971,8|0,0:0|0:0,0:0:0:0:
126,95,51247,2,0,P|112:56|132:11,1,68.0000012969971,0|2,0:0|0:0,0:0:0:0:
166,189,51741,6,0,L|163:226,5,34.0000006484985,2|0|8|0|2|0,0:0|0:0|0:0|0:0|0:0|0:0,0:0:0:0:
146,247,52236,6,0,P|230:237|303:232,1,136.000002593994,2|0,0:0|0:0,0:0:0:0:
381,186,52730,1,2,0:0:0:0:
381,186,52895,2,0,P|385:142|392:98,1,68.0000012969971,8|0,0:0|0:0,0:0:0:0:
326,61,53225,1,0,0:0:0:0:
448,52,53389,2,0,P|382:83|318:53,1,136.000002593994,0|2,0:0|0:0,0:0:0:0:
243,104,53884,2,0,P|238:66|229:17,1,68.0000012969971,8|0,0:0|0:0,0:0:0:0:
151,79,54214,6,0,B|74:67|114:116|22:96,1,136.000002593994,2|0,0:0|0:0,0:0:0:0:
138,156,54708,1,2,0:0:0:0:
72,209,54873,2,0,P|82:256|87:296,1,68.0000012969971,8|0,0:0|0:0,0:0:0:0:
171,289,55203,2,0,P|163:322|158:355,1,68.0000012969971,0|2,0:0|0:0,0:0:0:0:
300,270,55697,6,0,L|346:264,5,34.0000006484985,2|0|8|0|0|0,0:0|0:0|0:0|0:0|0:0|0:0,0:0:0:0:
353,277,56192,1,2,0:0:0:0:
256,192,56274,12,0,61384,0:0:0:0:
204,140,61466,5,2,0:0:0:0:
107,155,61631,1,0,0:0:0:0:
92,58,61796,1,0,0:0:0:0:
188,42,61961,5,2,0:0:0:0:
188,42,62043,1,0,0:0:0:0:
188,42,62126,1,0,0:0:0:0:
92,58,62291,1,0,0:0:0:0:
107,155,62456,1,0,0:0:0:0:
204,140,62620,6,0,P|264:125|319:155,1,128,2|0,0:0|0:0,0:0:0:0:
412,120,63115,1,0,0:0:0:0:
367,239,63279,2,0,P|306:253|251:223,1,128,2|0,0:0|0:0,0:0:0:0:
268,128,63774,2,0,P|272:96|264:65,1,64,2|0,0:0|0:0,0:0:0:0:
180,156,64104,5,2,0:0:0:0:
164,248,64269,1,0,0:0:0:0:
156,260,64351,1,0,0:0:0:0:
148,272,64434,1,0,0:0:0:0:
52,258,64598,1,2,0:0:0:0:
36,164,64763,1,0,0:0:0:0:
120,119,64928,1,0,0:0:0:0:
188,185,65093,1,2,0:0:0:0:
240,260,65258,6,0,P|295:289|357:277,1,128,2|0,0:0|0:0,0:0:0:0:
448,248,65752,1,0,0:0:0:0:
332,200,65917,2,0,P|272:123|366:149,1,256,2|0,0:0|0:0,0:0:0:0:
428,344,66741,5,2,0:0:0:0:
392,255,66906,1,0,0:0:0:0:
487,269,67071,1,0,0:0:0:0:
408,164,67235,1,2,0:0:0:0:
408,164,67318,1,0,0:0:0:0:
408,164,67400,1,0,0:0:0:0:
444,75,67565,1,0,0:0:0:0:
349,89,67730,1,0,0:0:0:0:
316,176,67896,6,0,L|332:304,1,128,2|0,0:0|0:0,0:0:0:0:
268,372,68390,1,0,0:0:0:0:
160,256,68554,2,0,L|176:128,1,128,2|2,0:0|0:0,0:0:0:0:
236,56,69048,1,2,0:0:0:0:
144,44,69214,6,0,P|113:36|86:17,1,64,2|2,0:0|0:0,0:0:0:0:
53,197,69543,1,0,0:0:0:0:
25,109,69708,1,0,0:0:0:0:
113,133,69873,6,0,P|144:136|176:127,1,64,2|0,0:0|0:0,0:0:0:0:
260,288,70202,1,0,0:0:0:0:
288,200,70367,1,2,0:0:0:0:
200,224,70532,6,0,P|168:227|136:218,1,64,0|0,0:0|0:0,0:0:0:0:
113,133,71027,2,0,L|110:117,27,16,0|0|0|0|0|0|0|0|0|0|0|0|0|0|0|0|0|0|0|0|0|0|0|0|0|0|0|0,0:0|0:0|0:0|0:0|0:0|0:0|0:0|0:0|0:0|0:0|0:0|0:0|0:0|0:0|0:0|0:0|0:0|0:0|0:0|0:0|0:0|0:0|0:0|0:0|0:0|0:0|0:0|0:0,0:0:0:0:
101,94,73334,6,0,P|140:97|192:100,1,80,4|0,0:0|0:0,0:0:0:0:
326,59,73664,1,8,0:0:0:0:
249,65,73829,2,0,L|258:123,2,40,0|0|0,0:0|0:0|0:0,0:0:0:0:
334,152,74159,1,8,0:0:0:0:
228,276,74323,1,0,0:0:0:0:
198,199,74488,6,0,B|308:181|250:249|373:227,1,160,0|0,0:0|0:0,0:0:0:0:
452,178,74983,1,8,0:0:0:0:
416,347,75148,2,0,P|421:303|434:258,1,80,0|0,0:0|0:0,0:0:0:0:
334,152,75477,2,0,P|343:190|348:230,1,80,8|8,0:0|0:0,0:0:0:0:
409,78,75807,1,8,0:0:0:0:
255,104,75972,6,0,L|153:95,1,80,4|0,0:0|0:0,0:0:0:0:
163,96,76219,1,0,0:0:0:0:
151,95,76301,1,8,0:0:0:0:
204,188,76466,1,0,0:0:0:0:
129,266,76631,1,0,0:0:0:0:
114,182,76796,1,8,0:0:0:0:
219,282,76961,1,0,0:0:0:0:
61,308,77126,6,0,P|155:288|246:281,1,160,0|0,0:0|0:0,0:0:0:0:
369,349,77620,2,0,P|378:307|391:262,1,80,8|0,0:0|0:0,0:0:0:0:
292,181,77950,5,0,3:0:0:0:
294,192,78032,1,0,3:0:0:0:
296,203,78115,1,0,3:0:0:0:
298,214,78197,1,0,3:0:0:0:
300,225,78279,2,0,L|309:277,3,40,0|0|0|0,3:0|3:0|3:0|3:0,0:0:0:0:
308,282,78609,6,0,P|350:274|405:271,1,80,4|0,0:0|0:0,0:0:0:0:
453,189,78939,1,8,0:0:0:0:
358,110,79104,2,0,L|368:156,2,40,0|0|0,0:0|0:0|0:0,0:0:0:0:
432,47,79433,1,8,0:0:0:0:
269,119,79598,1,0,0:0:0:0:
297,37,79763,6,0,B|204:19|241:78|129:55,1,160,0|0,0:0|0:0,0:0:0:0:
37,120,80257,1,8,0:0:0:0:
37,120,80422,2,0,P|28:77|7:28,1,80,0|0,0:0|0:0,0:0:0:0:
148,154,80752,1,8,0:0:0:0:
58,302,80917,1,8,0:0:0:0:
27,218,81082,6,0,B|120:200|83:259|195:236,1,160,8|0,0:0|0:0,0:0:0:0:
303,225,81576,1,8,0:0:0:0:
291,304,81741,2,0,P|296:260|306:209,1,80,0|0,0:0|0:0,0:0:0:0:
221,77,82071,2,0,P|228:116|232:156,1,80,8|8,0:0|0:0,0:0:0:0:
343,102,82400,1,0,0:0:0:0:
411,185,82565,6,0,L|418:141,7,40,2|0|0|0|0|0|2|2,0:3|0:0|0:0|0:3|0:0|0:0|0:3|0:0,0:0:0:0:
433,287,83224,1,0,3:0:0:0:
413,289,83306,1,0,3:0:0:0:
393,291,83389,1,0,3:0:0:0:
373,293,83471,1,0,3:0:0:0:
353,295,83554,1,2,3:2:0:0:
333,297,83636,1,2,3:2:0:0:
313,299,83718,1,2,3:2:0:0:
293,302,83801,1,2,3:2:0:0:
270,322,83884,6,0,P|257:247|236:189,1,120,6|0,0:0|0:0,0:0:0:0:
211,185,84213,2,0,P|230:182|257:178,1,40,8|0,0:0|0:0,0:0:0:0:
332,117,84378,2,0,P|277:78|217:86,1,120,2|0,0:0|0:0,0:0:0:0:
205,99,84708,2,0,L|195:44,1,40,8|0,0:0|0:0,0:0:0:0:
112,101,84873,2,0,P|70:99|22:92,1,80,2|8,0:0|0:0,0:0:0:0:
39,209,85202,5,0,0:0:0:0:
39,209,85285,1,0,0:0:0:0:
39,209,85367,2,0,L|43:259,2,40,0|0|0,0:0|0:0|0:0,0:0:0:0:
138,337,85697,1,8,0:0:0:0:
138,337,85780,1,0,0:0:0:0:
138,337,85862,2,0,L|141:297,2,40,0|0|8,0:0|0:0|0:0,0:0:0:0:
235,241,86192,1,2,0:0:0:0:
261,223,86274,1,2,0:0:0:0:
292,219,86356,1,10,0:0:0:0:
323,224,86439,1,0,0:0:0:0:
352,235,86521,6,0,P|435:224|489:221,1,120,6|0,0:0|0:0,0:0:0:0:
496,229,86851,2,0,L|505:165,1,40,8|0,0:0|0:0,0:0:0:0:
384,122,87015,2,0,P|301:111|247:108,1,120,2|0,0:0|0:0,0:0:0:0:
240,116,87345,2,0,L|231:52,1,40,8|0,0:0|0:0,0:0:0:0:
117,60,87510,1,2,0:0:0:0:
117,60,87593,2,0,P|115:123|111:161,1,80,0|0,0:0|0:0,0:0:0:0:
54,195,87840,6,0,P|134:183|168:224,1,120,2|0,0:0|0:0,0:0:0:0:
177,199,88170,2,0,L|170:250,1,40,8|0,0:0|0:0,0:0:0:0:
388,274,88334,2,0,P|308:262|274:303,1,120,2|0,0:0|0:0,0:0:0:0:
265,278,88664,2,0,L|272:329,1,40,8|0,0:0|0:0,0:0:0:0:
192,361,88829,1,10,0:0:0:0:
184,360,88911,1,0,0:0:0:0:
175,359,88994,1,8,0:0:0:0:
167,359,89076,1,0,0:0:0:0:
157,358,89159,6,0,P|99:353|54:351,1,80,6|0,0:0|0:0,0:0:0:0:
23,284,89488,1,8,0:0:0:0:
23,284,89571,1,0,0:0:0:0:
94,227,89735,1,0,0:0:0:0:
94,227,89818,2,0,L|100:181,7,40,0|0|0|0|2|0|0|0,0:0|0:0|0:0|0:0|0:0|0:0|0:0|0:0,0:0:0:0:
26,127,90477,6,0,L|20:81,7,40,0|0|0|0|0|0|0|0,0:0|0:0|0:0|0:0|0:0|0:0|0:0|0:0,0:0:0:0:
93,35,91137,6,0,P|125:39|141:40,9,26.6666666666667,0|0|0|0|0|0|0|0|0|0,0:0|0:0|0:0|0:0|0:0|0:0|0:0|0:0|0:0|0:0,0:0:0:0:
200,56,91796,6,0,P|195:26|189:2,1,40,6|0,0:0|0:0,0:0:0:0:
319,16,91961,2,0,P|314:36|312:56,1,40,0|0,0:0|0:0,0:0:0:0:
256,120,92126,1,8,0:0:0:0:
196,176,92290,6,0,P|168:172|132:172,1,40,2|0,0:0|0:0,0:0:0:0:
316,176,92455,2,0,P|344:172|380:172,1,40,0|0,0:0|0:0,0:0:0:0:
256,240,92620,1,8,0:0:0:0:
332,291,92785,2,0,L|339:340,3,40,2|0|0|0,0:0|0:0|0:0|0:0,0:0:0:0:
246,336,93115,5,0,3:0:0:0:
238,335,93197,1,0,3:0:0:0:
230,334,93279,1,0,3:0:0:0:
221,333,93362,1,0,3:0:0:0:
213,332,93444,1,0,3:0:0:0:
204,331,93527,1,0,3:0:0:0:
196,330,93609,1,0,3:0:0:0:
187,329,93692,1,0,3:0:0:0:
179,328,93774,6,0,L|125:321,1,40,0|0,0:0|0:0,0:0:0:0:
114,198,93939,2,0,B|122:223|122:223|118:252,1,40,8|0,0:0|0:0,0:0:0:0:
50,344,94104,2,0,B|58:319|58:319|54:290,1,40,8|0,0:0|0:0,0:0:0:0:
30,220,94268,1,8,0:0:0:0:
30,220,94351,1,0,0:0:0:0:
30,220,94433,6,0,B|123:196|90:262|183:239,1,160,4|8,0:0|0:0,0:0:0:0:
268,192,94928,1,0,0:0:0:0:
344,296,95093,2,0,P|306:283|266:287,1,80,0|2,0:0|0:0,0:0:0:0:
208,356,95423,1,8,0:0:0:0:
296,372,95587,2,0,L|312:212,1,160,0|0,0:0|0:0,0:0:0:0:
404,184,96082,1,8,0:0:0:0:
444,96,96247,2,0,P|402:34|328:48,1,160,0|8,0:0|0:0,0:0:0:0:
272,124,96741,2,0,L|192:116,1,80,8|0,0:0|0:0,0:0:0:0:
104,84,97071,5,4,0:0:0:0:
40,184,97236,1,0,0:0:0:0:
40,184,97318,1,0,0:0:0:0:
40,184,97401,2,0,L|120:176,1,80,8|4,0:0|0:0,0:0:0:0:
172,260,97730,2,0,L|92:268,1,80,0|2,0:0|0:0,0:0:0:0:
12,84,98060,1,0,3:0:0:0:
12,84,98225,2,0,B|68:77|68:77|111:96|111:96|170:88,1,160,0|0,3:0|0:0,0:0:0:0:
232,32,98719,1,8,0:0:0:0:
249,117,98884,2,0,P|255:156|248:195,1,80,0|2,0:0|0:0,0:0:0:0:
204,348,99214,5,2,0:0:0:0:
192,327,99296,1,0,0:0:0:0:
189,303,99378,1,2,0:0:0:0:
196,279,99461,1,0,0:0:0:0:
214,263,99544,1,2,0:0:0:0:
237,257,99626,1,0,0:0:0:0:
260,262,99708,6,0,L|340:276,1,80,4|0,0:0|0:0,0:0:0:0:
500,304,100038,1,8,0:0:0:0:
412,212,100202,2,0,L|431:370,1,160,0|2,0:0|0:0,0:0:0:0:
340,364,100697,1,0,0:0:0:0:
332,272,100862,2,0,P|316:196|368:140,1,160,0|0,0:0|0:0,0:0:0:0:
404,220,101357,1,0,0:0:0:0:
416,308,101521,2,0,P|340:300|256:296,1,160,0|0,0:0|0:0,0:0:0:0:
168,328,102016,1,8,0:0:0:0:
196,152,102181,6,0,L|188:231,1,80,0|0,0:0|0:0,0:0:0:0:
76,352,102510,2,0,L|68:272,1,80,0|8,0:0|0:0,0:0:0:0:
8,128,102840,2,0,P|63:181|139:167,1,160,0|0,0:0|0:0,0:0:0:0:
252,104,103334,1,2,3:0:0:0:
89,97,103499,1,2,3:0:0:0:
167,48,103664,6,0,P|168:67|173:87,7,40,2|0|0|0|0|0|2|0,0:3|0:0|0:0|0:0|0:0|0:0|0:3|0:0,0:0:0:0:
188,108,104323,5,0,0:0:0:0:
211,103,104406,1,0,0:0:0:0:
234,103,104488,1,0,0:0:0:0:
257,109,104571,1,0,0:0:0:0:
277,121,104653,1,2,0:3:0:0:
293,137,104735,1,0,0:0:0:0:
307,156,104818,1,0,0:0:0:0:
318,176,104900,1,0,0:0:0:0:
322,199,104983,1,2,0:0:0:0:
458,331,105532,6,0,L|460:305,2,21.3333333333333,0|0|8,0:0|0:0|0:0,0:0:0:0:
380,276,105807,1,0,0:0:0:0:
496,160,105972,1,0,0:0:0:0:
337,117,106137,1,0,0:0:0:0:
405,184,106466,5,0,0:0:0:0:
430,92,106631,1,2,0:0:0:0:
337,117,106796,1,0,0:0:0:0:
300,296,106961,1,2,0:0:0:0:
372,352,107126,1,0,0:0:0:0:
460,324,107291,1,2,0:0:0:0:
492,231,107456,2,0,P|503:169|481:111,1,128,0|0,0:0|0:0,0:0:0:0:
340,40,108115,1,2,0:0:0:0:
345,24,108197,1,0,0:0:0:0:
353,9,108279,2,0,L|354:40,3,32,0|0|0|0,0:0|0:0|0:0|0:0,0:0:0:0:
360,60,108610,6,0,B|396:100|472:80|484:16|484:16|456:32,1,192,2|2,0:0|0:0,0:0:0:0:
368,156,109434,1,2,0:0:0:0:
460,128,109598,1,2,0:0:0:0:
439,222,109763,1,2,0:0:0:0:
347,248,109928,6,0,P|324:248|300:244,2,47.9999985351563,2|0|0,0:0|0:0|0:0,0:0:0:0:
460,128,110257,2,0,P|483:127|507:131,2,47.9999985351563,2|0|0,0:0|0:0|0:0,0:0:0:0:
324,172,110587,6,0,P|311:151|303:128,2,47.9999985351563,2|0|0,0:0|0:0|0:0,0:0:0:0:
483,208,110917,2,0,P|495:228|503:251,2,47.9999985351563,2|0|0,0:3|0:0|0:0,0:0:0:0:
377,113,111246,6,0,P|388:92|404:73,2,47.9999985351563,4|0|0,0:3|0:0|0:0,0:0:0:0:
426,268,111576,2,0,P|414:288|398:307,2,47.9999985351563,2|0|0,0:0|0:0|0:0,0:0:0:0:
404,190,111907,1,0,0:0:0:0:
