osu file format v14

[General]
AudioFilename: a.mp3
AudioLeadIn: 0
PreviewTime: 73342
Countdown: 0
SampleSet: Soft
StackLeniency: 0.2
Mode: 0
LetterboxInBreaks: 0
WidescreenStoryboard: 0

[Editor]
DistanceSpacing: 1
BeatDivisor: 6
GridSize: 16
TimelineZoom: 2.5

[Metadata]
Title:Atropos
TitleUnicode:Atröpøs
Artist:sasakure.UK
ArtistUnicode:sasakure.UK
Creator:Cellina
Version:Another
Source:beatmania IIDX 21 SPADA
Tags:suzuki_1112 reana rose pacifica dailycare morinaga beomsan haruto milr_ schoolboy ayalis anze gimbab komore haruto_aizawa electronic instrumental video game
BeatmapID:1755526
BeatmapSetID:838536

[Difficulty]
HPDrainRate:5
CircleSize:4
OverallDifficulty:8
ApproachRate:9.1
SliderMultiplier:1.9
SliderTickRate:1

[Events]
//Background and Video events
0,0,"bg.jpg",0,0
//Break Periods
//Storyboard Layer 0 (Background)
//Storyboard Layer 1 (Fail)
//Storyboard Layer 2 (Pass)
//Storyboard Layer 3 (Foreground)
//Storyboard Sound Samples

[TimingPoints]
478,329.67032967033,4,2,3,100,1,0
1302,-222.222222222221,4,2,3,100,0,0
6412,-153.846153846153,4,2,3,100,0,0
7401,-117.647058823529,4,2,3,100,0,0
11027,-100,4,2,3,100,0,0
15395,-90.9090909090909,4,2,3,100,0,0
15725,-100,4,2,3,100,0,0
20917,-83.3333333333333,4,2,3,100,0,0
21741,-100,4,2,3,100,0,0
22400,-100,4,2,3,100,0,0
22401,-100,4,2,3,100,0,0
22565,-100,4,2,3,100,0,0
25863,-83.3333333333333,4,2,3,100,0,0
26851,-100,4,2,3,100,0,0
29488,-100,4,2,1,100,0,0
30807,-100,4,2,3,100,0,0
31467,-83.3333333333333,4,2,3,100,0,0
32125,-83.3333333333333,4,2,1,100,0,0
32126,-100,4,2,3,100,0,0
32372,-100,4,2,1,100,0,0
32456,-100,4,2,1,100,0,0
32620,-79.9999999999999,4,2,1,100,0,0
33115,-66.6666666666667,4,2,1,100,0,0
33445,-100,4,2,1,100,0,0
34763,-100,4,2,3,100,0,0
34927,-100,4,2,1,100,0,0
35093,-100,4,2,1,100,0,0
35258,-83.3333333333333,4,2,1,100,0,0
36082,-100,4,2,1,100,0,0
37400,-100,4,2,3,100,0,0
37401,-100,4,2,3,100,0,0
37565,-100,4,2,1,100,0,0
37813,-100,4,2,1,100,0,0
37895,-80,4,2,1,100,0,0
38390,-68.9655172413793,4,2,1,100,0,0
38719,-100,4,2,1,100,0,0
40037,-100,4,1,1,75,0,0
40038,-100,4,1,1,75,0,0
41851,-90.9090909090909,4,1,1,75,0,0
42675,-90.9090909090909,4,2,3,60,0,0
43005,-111.111111111111,4,2,3,60,0,0
43169,-111.111111111111,4,2,1,60,0,0
43829,-142.857142857143,4,2,1,60,0,0
45148,-111.111111111111,4,2,1,60,0,0
46302,-142.857142857143,4,2,1,60,0,0
48279,-142.857142857143,4,2,4,100,0,0
48280,329.67032967033,6,2,4,100,1,0
48280,-100,6,2,4,100,0,0
48609,-100,6,2,4,60,0,0
48939,-125,6,2,4,60,0,0
56192,329.67032967033,4,2,4,60,1,0
56192,-100,4,2,4,60,0,0
61302,-100,4,2,3,5,0,0
61466,-111.111111111111,4,2,1,75,0,0
65917,-200,4,2,1,75,0,0
66741,-111.111111111111,4,2,1,75,0,0
70532,-111.111111111111,4,2,3,75,0,0
70861,-111.111111111111,4,2,1,30,0,0
70862,-111.111111111111,4,2,1,30,0,0
72015,-111.111111111111,4,2,3,35,0,0
72016,-111.111111111111,4,2,3,35,0,0
72345,-111.111111111111,4,2,3,45,0,0
72675,-111.111111111111,4,2,3,55,0,0
73004,-111.111111111111,4,2,3,67,0,0
73005,-111.111111111111,4,2,3,67,0,0
73334,-100,4,2,3,100,0,0
83059,-100,4,2,4,100,0,0
83060,-100,4,2,4,100,0,0
83224,-100,4,2,3,100,0,0
83554,-90.9090909090909,4,2,3,100,0,0
83719,-76.9230769230769,4,2,3,100,0,0
83884,-100,4,2,3,100,0,0
84378,-76.9230769230769,4,2,3,100,0,0
84873,-62.5,4,2,3,100,0,0
85202,-90.9090909090909,4,2,3,100,0,0
85862,-76.9230769230769,4,2,3,100,0,0
86521,-90.9090909090909,4,2,3,100,0,0
87016,-66.6666666666667,4,2,3,100,0,0
87345,-83.3333333333333,4,2,3,100,0,0
87675,-100,4,2,3,100,0,0
89159,-125,4,2,3,100,0,0
91796,-90.9090909090909,4,2,3,100,0,0
94433,-100,4,2,3,60,0,0
95194,-100,4,2,3,60,0,0
95257,-100,4,2,1,60,0,0
95359,-100,4,2,1,60,0,0
95422,-100,4,2,3,60,0,0
96411,-100,4,2,4,60,0,0
96576,-100,4,2,3,60,0,0
97565,-100,4,2,3,30,0,0
97730,-100,4,2,3,60,0,0
99048,-100,4,2,3,60,0,0
99049,-100,4,2,3,60,0,0
99708,-100,4,2,3,60,0,0
99873,-111.111111111111,4,2,3,60,0,0
100532,-111.111111111111,4,2,3,60,0,0
100697,-111.111111111111,4,2,3,60,0,0
101026,-111.111111111111,4,2,3,20,0,0
101027,-111.111111111111,4,2,3,20,0,0
101356,-111.111111111111,4,2,3,40,0,0
101686,-111.111111111111,4,2,3,60,0,0
104982,-111.111111111111,4,2,4,60,0,0
104983,-111.111111111111,4,2,4,60,0,0

[Colours]
Combo1 : 102,1,254
Combo2 : 128,255,255
Combo3 : 128,128,192
Combo4 : 11,175,255

[HitObjects]
109,331,478,5,0,0:0:0:0:
109,331,1302,2,0,L|89:186,1,128.249996086121,0|0,0:0|0:0,0:0:0:0:
394,262,2620,6,0,L|414:117,1,128.249996086121,0|0,0:0|0:0,0:0:0:0:
91,203,3939,6,0,L|71:58,1,128.249996086121,0|0,0:0|0:0,0:0:0:0:
411,134,5258,6,0,L|431:-11,1,128.249996086121,0|0,0:0|0:0,0:0:0:0:
343,68,5917,1,0,0:0:0:0:
288,10,6082,1,0,0:0:0:0:
243,105,6247,1,0,0:0:0:0:
170,67,6412,6,0,L|22:90,1,123.499994346619,0|0,0:0|0:0,0:0:0:0:
5,22,6906,1,0,0:0:0:0:
47,85,7071,5,0,0:0:0:0:
19,156,7236,1,0,0:0:0:0:
66,212,7401,2,0,P|151:198|243:188,1,161.500003080368,0|0,0:0|0:0,0:0:0:0:
300,143,7895,1,0,0:0:0:0:
348,216,8060,2,0,L|359:263,3,40.375000770092,0|0|0|0,0:0|0:0|0:0|0:0,0:0:0:0:
372,192,8390,5,0,0:0:0:0:
277,253,8554,1,0,0:0:0:0:
429,327,8719,2,0,L|442:235,1,80.750001540184,0|0,0:0|0:0,0:0:0:0:
355,275,9049,1,0,0:0:0:0:
241,183,9214,2,0,P|161:158|68:151,1,161.500003080368,0|0,0:0|0:0,0:0:0:0:
42,79,9708,5,0,0:0:0:0:
42,79,11027,5,0,0:0:0:0:
85,146,11192,1,0,0:0:0:0:
222,58,11357,2,0,L|118:71,1,95,0|0,1:0|0:0,0:0:0:0:
85,146,11686,1,0,0:0:0:0:
151,206,11851,1,0,0:0:0:0:
87,329,12016,2,0,P|79:282|68:237,1,95,2|0,0:3|0:0,0:0:0:0:
238,175,12346,5,2,0:0:0:0:
239,184,12428,1,0,0:0:0:0:
240,193,12510,1,0,0:0:0:0:
241,202,12593,1,0,0:0:0:0:
242,211,12675,1,0,1:0:0:0:
151,206,12840,1,0,0:0:0:0:
339,173,13005,1,0,0:0:0:0:
338,177,13087,1,0,0:0:0:0:
337,181,13170,2,0,L|453:171,1,95,8|0,0:3|0:3,0:0:0:0:
373,94,13499,1,0,0:0:0:0:
464,245,13664,6,0,B|449:273|449:273|469:333,1,95,0|0,0:0|0:0,0:0:0:0:
456,99,13994,1,8,0:3:0:0:
465,99,14076,1,8,0:3:0:0:
474,99,14159,1,8,0:3:0:0:
483,99,14241,1,8,0:3:0:0:
492,99,14324,2,0,B|507:71|507:71|487:11,1,95,0|0,0:0|0:0,0:0:0:0:
373,94,14653,1,2,3:0:0:0:
350,13,14818,2,0,L|413:18,1,47.5,0|2,0:0|3:0,0:0:0:0:
299,172,14983,6,0,L|283:62,1,95,0|0,0:0|0:0,0:0:0:0:
394,294,15312,1,2,0:3:0:0:
375,293,15395,2,0,B|277:287|327:328|222:320,1,156.750004783631,2|0,0:3|3:0,0:0:0:0:
137,359,15725,5,0,3:0:0:0:
135,349,15807,1,4,3:0:0:0:
133,339,15890,1,0,3:0:0:0:
131,329,15972,1,0,3:0:0:0:
129,319,16054,1,0,3:0:0:0:
127,309,16137,1,0,3:0:0:0:
125,299,16219,1,0,3:0:0:0:
124,291,16302,6,0,L|103:178,1,95,0|0,0:0|0:0,0:0:0:0:
299,172,16631,2,0,L|320:59,1,95,0|0,1:0|0:0,0:0:0:0:
207,170,16961,1,0,0:0:0:0:
375,293,17126,2,0,B|347:321|347:321|364:380,1,95,0|0,0:0|0:0,0:0:0:0:
388,207,17456,1,0,0:0:0:0:
264,328,17620,5,0,0:0:0:0:
254,326,17703,1,0,0:0:0:0:
244,324,17785,1,0,0:0:0:0:
234,322,17868,1,0,0:0:0:0:
224,320,17950,1,0,1:0:0:0:
249,232,18115,1,0,0:0:0:0:
84,368,18280,1,0,0:0:0:0:
88,369,18362,1,0,0:0:0:0:
92,371,18445,2,0,B|120:343|120:343|103:284,1,95,0|0,0:0|0:0,0:0:0:0:
160,218,18774,1,0,0:0:0:0:
78,107,18939,5,0,0:0:0:0:
78,107,19104,2,0,P|80:152|71:212,1,95,0|0,0:0|1:0,0:0:0:0:
179,127,19434,1,0,0:0:0:0:
110,18,19598,2,0,P|58:30|-6:35,1,95,0|0,0:0|0:0,0:0:0:0:
210,46,19928,2,0,L|200:-19,3,47.5,2|2|0|2,3:0|3:0|3:0|3:0,0:0:0:0:
269,117,20258,5,8,0:0:0:0:
283,118,20340,1,0,0:0:0:0:
297,120,20423,1,0,0:0:0:0:
311,122,20505,1,0,0:0:0:0:
325,124,20587,1,8,0:0:0:0:
339,126,20670,1,8,0:0:0:0:
353,128,20752,1,0,0:0:0:0:
367,130,20835,1,0,0:0:0:0:
387,140,20917,5,0,0:0:0:0:
387,140,20999,1,0,0:0:0:0:
387,140,21082,2,0,L|395:77,1,56.9999982604981,0|0,0:0|0:0,0:0:0:0:
349,250,21247,2,0,B|379:246|379:246|412:258,1,56.9999982604981,2|2,0:0|0:0,0:0:0:0:
258,345,21412,2,0,L|250:282,1,56.9999982604981,2|2,0:0|0:0,0:0:0:0:
239,199,21576,5,4,0:0:0:0:
134,284,21741,2,0,P|129:335|121:388,1,95,0|8,0:0|0:0,0:0:0:0:
250,288,22071,1,0,0:0:0:0:
60,211,22236,2,0,P|113:205|172:197,1,95,0|10,0:0|0:0,0:0:0:0:
219,6,22565,2,0,B|176:37|176:37|201:132,1,142.5,0|0,0:0|0:0,0:0:0:0:
239,199,22895,5,0,0:0:0:0:
357,243,23060,1,0,0:0:0:0:
370,240,23142,1,0,0:0:0:0:
384,237,23225,1,8,0:0:0:0:
250,288,23390,1,0,0:0:0:0:
391,144,23554,2,0,L|275:135,1,95,2|0,0:0|0:0,0:0:0:0:
100,188,23884,2,0,B|198:168|157:219|257:195,1,142.5,0|0,0:0|0:0,0:0:0:0:
317,244,24214,6,0,P|310:293|308:340,1,95,0|0,0:0|0:0,0:0:0:0:
99,324,24544,1,2,0:3:0:0:
97,333,24626,1,2,0:3:0:0:
95,342,24709,1,2,0:3:0:0:
93,351,24791,2,0,B|148:347|148:347|181:357|181:357|246:351,1,142.5,2|0,0:3|0:0,0:0:0:0:
308,338,25120,2,0,L|247:330,1,47.5,0|2,0:0|3:0,0:0:0:0:
401,380,25285,2,0,B|426:352|426:352|404:286,1,95,0|2,0:0|3:0,0:0:0:0:
423,277,25532,5,0,0:0:0:0:
309,142,25697,1,0,0:0:0:0:
463,181,25863,1,2,0:3:0:0:
446,195,25945,2,0,B|334:183|391:240|278:223,1,170.999994781494,2|0,0:3|3:0,0:0:0:0:
201,264,26274,5,0,3:0:0:0:
198,246,26357,1,0,3:0:0:0:
195,229,26439,1,0,3:0:0:0:
192,212,26521,1,0,3:0:0:0:
190,194,26604,1,0,3:0:0:0:
188,177,26686,1,0,3:0:0:0:
185,159,26769,1,0,3:0:0:0:
183,142,26851,5,0,0:0:0:0:
316,47,27016,2,0,P|312:96|308:151,1,95,0|0,0:0|1:0,0:0:0:0:
75,170,27346,2,0,P|86:220|95:272,1,95,0|0,0:0|0:0,0:0:0:0:
148,329,27675,1,2,0:3:0:0:
286,234,27840,2,0,B|377:213|340:268|447:247,1,142.5,0|0,0:0|0:0,0:0:0:0:
449,263,28170,6,0,L|454:207,4,47.5,0|0|0|0|0,0:0|0:0|0:0|0:0|1:0,0:0:0:0:
322,313,28664,1,0,0:0:0:0:
407,145,28829,2,0,B|432:126|432:126|527:139,1,95,2|0,0:0|0:0,0:0:0:0:
286,234,29159,2,0,B|261:253|261:253|166:240,1,95,0|2,0:0|0:0,0:0:0:0:
82,304,29488,6,0,L|74:250,5,31.6666666666667,0|0|0|0|0|0,0:0|0:0|0:0|0:0|0:0|0:0,0:0:0:0:
123,203,29818,2,0,L|130:140,2,63.3333333333333,2|0|0,0:0|0:0|0:0,0:0:0:0:
48,25,30148,1,2,0:0:0:0:
51,33,30230,1,0,0:0:0:0:
54,41,30313,2,0,B|78:67|78:67|161:51,1,95,4|2,0:3|0:3,0:0:0:0:
220,109,30560,1,0,0:0:0:0:
221,99,30642,1,0,0:0:0:0:
222,89,30725,1,0,0:0:0:0:
224,79,30807,6,0,L|232:7,7,47.5,8|0|0|0|0|0|8|0,0:0|0:0|0:0|0:0|0:0|0:0|0:0|0:0,0:0:0:0:
321,183,31467,5,2,0:0:0:0:
322,192,31549,1,2,0:0:0:0:
323,201,31631,2,0,L|329:273,1,56.9999982604981,2|2,0:0|0:0,0:0:0:0:
262,372,31796,2,0,B|253:345|253:345|257:315,1,56.9999982604981,8|2,0:0|0:0,0:0:0:0:
442,328,31961,2,0,L|385:323,1,56.9999982604981,2|2,0:0|0:0,0:0:0:0:
235,186,32126,6,0,L|240:254,3,47.5,4|0|0|0,0:0|0:0|0:0|0:0,0:0:0:0:
306,88,32456,2,0,L|309:40,1,47.5,2|0,0:0|0:0,0:0:0:0:
145,51,32620,6,0,B|107:21|57:26|19:75|19:75|79:122,1,178.125,0|0,0:0|0:0,0:0:0:0:
34,183,32950,2,0,P|66:172|112:167,1,59.375,2|0,0:0|0:0,0:0:0:0:
235,186,33115,6,0,B|272:230|267:287|229:326|229:326|246:290|233:263,1,213.750008153916,0|0,0:0|0:0,0:0:0:0:
158,281,33445,6,0,L|89:288,4,47.5,2|0|0|0|0,0:0|0:0|0:0|0:0|0:0,0:0:0:0:
332,327,33939,1,2,0:0:0:0:
332,327,34021,1,0,0:0:0:0:
332,327,34104,2,0,L|340:201,1,95,0|0,0:0|0:0,0:0:0:0:
191,107,34434,1,2,0:0:0:0:
178,127,34516,1,0,0:0:0:0:
174,150,34598,1,0,0:0:0:0:
179,173,34681,1,0,0:0:0:0:
188,194,34763,6,0,L|264:181,3,47.5,6|0|0|0,0:0|0:0|0:0|0:0,0:0:0:0:
328,111,35093,2,0,L|252:98,1,47.5,2|0,0:0|0:0,0:0:0:0:
338,232,35258,6,0,B|394:210|394:210|443:237|443:237|511:230,1,170.999994781494,0|0,0:0|0:0,0:0:0:0:
472,99,35587,2,0,L|462:163,1,56.9999982604981,2|0,0:0|0:0,0:0:0:0:
391,297,35752,1,2,0:3:0:0:
406,318,35835,2,0,L|255:315,1,113.999996520996,2|2,0:3|0:3,0:0:0:0:
245,368,36082,6,0,P|242:319|232:260,1,95,2|0,0:0|0:0,0:0:0:0:
194,96,36412,1,0,1:0:0:0:
106,149,36576,1,2,0:0:0:0:
106,149,36659,1,0,1:0:0:0:
106,149,36741,1,0,3:0:0:0:
143,253,36906,1,0,3:2:0:0:
280,157,37071,1,2,3:2:0:0:
303,161,37153,1,2,3:2:0:0:
326,165,37236,1,0,3:2:0:0:
349,169,37318,1,0,3:2:0:0:
372,173,37401,6,0,L|437:187,4,47.5,6|0|0|0|2,0:0|0:0|0:0|0:0|0:0,0:0:0:0:
503,158,37895,6,0,B|451:191|454:254|490:281|490:281|529:241,1,178.125,0|0,0:0|0:0,0:0:0:0:
512,257,38225,2,0,P|481:266|434:270,1,59.375,2|0,0:0|0:0,0:0:0:0:
378,353,38390,6,0,B|251:363|314:283|152:317,1,206.625006305695,0|0,0:0|0:0,0:0:0:0:
103,345,38719,6,0,L|97:277,4,47.5,2|0|0|0|0,0:0|0:0|0:0|0:0|0:0,0:0:0:0:
155,134,39214,1,2,0:0:0:0:
155,134,39296,1,0,0:0:0:0:
155,134,39379,2,0,L|150:256,1,95,0|0,0:0|0:0,0:0:0:0:
331,172,39708,1,2,0:0:0:0:
317,174,39791,1,0,0:0:0:0:
304,176,39873,1,0,0:0:0:0:
290,178,39956,1,0,0:0:0:0:
276,182,40038,6,0,B|265:160|265:160|273:119,3,47.5,2|0|0|0,0:0|0:0|0:0|0:0,0:0:0:0:
343,266,40368,1,0,0:0:0:0:
351,269,40450,1,0,0:0:0:0:
359,272,40532,2,0,B|370:294|370:294|362:335,3,47.5,2|0|0|0,0:0|0:0|0:0|0:0,0:0:0:0:
196,286,40862,2,0,L|261:276,1,47.5,0|0,0:0|0:0,0:0:0:0:
383,177,41027,1,2,0:0:0:0:
392,178,41109,1,0,0:0:0:0:
401,179,41192,1,0,0:0:0:0:
410,180,41274,1,0,0:0:0:0:
419,180,41357,6,0,L|413:110,1,47.5,0|0,0:0|0:0,0:0:0:0:
341,11,41521,2,0,L|336:58,1,47.5,2|0,0:0|0:0,0:0:0:0:
224,148,41686,2,0,B|248:136|248:136|294:139,1,47.5,0|0,0:0|0:0,0:0:0:0:
196,286,41851,6,0,L|185:214,1,52.2500015945435,0|0,0:0|0:0,0:0:0:0:
114,72,42016,2,0,B|105:99|105:99|110:134,1,52.2500015945435,2|0,0:0|0:0,0:0:0:0:
3,224,42181,2,0,L|54:231,1,52.2500015945435,0|0,0:0|0:0,0:0:0:0:
320,341,42346,5,2,0:0:0:0:
310,342,42428,1,0,0:0:0:0:
300,343,42510,1,0,0:0:0:0:
290,344,42593,1,0,0:0:0:0:
280,345,42675,1,0,0:0:0:0:
224,148,43225,6,0,L|226:119,1,28.4999991302491,2|2,0:0|0:0,0:0:0:0:
241,112,43335,1,0,0:0:0:0:
285,198,43499,1,0,0:0:0:0:
346,150,43664,1,2,0:0:0:0:
422,170,43829,2,0,L|408:330,1,132.999995941162,2|0,0:0|0:0,0:0:0:0:
493,347,44324,6,0,L|502:257,1,66.4999979705811,0|0,0:0|0:0,0:0:0:0:
322,290,44653,2,0,L|315:223,1,66.4999979705811,0|2,0:0|0:0,0:0:0:0:
422,170,44983,1,2,0:0:0:0:
370,72,45148,6,0,B|268:57|306:109|204:99,1,170.999994781494,2|2,0:0|0:0,0:0:0:0:
205,99,45807,2,0,L|199:46,5,42.7499986953736,2|2|2|0|0|0,0:0|0:0|0:0|0:0|0:0|0:0,0:0:0:0:
190,188,46302,6,0,B|127:159|127:159|62:179,1,132.999995941162,2|0,0:0|0:0,0:0:0:0:
58,285,46796,2,0,B|121:314|121:314|186:294,1,132.999995941162,2|2,0:0|0:0,0:0:0:0:
279,267,47291,2,0,L|272:345,1,66.4999979705811,0|2,0:0|0:0,0:0:0:0:
416,311,47620,5,2,0:0:0:0:
437,272,47730,1,0,0:0:0:0:
423,229,47840,1,0,0:0:0:0:
363,181,47950,5,2,0:0:0:0:
349,138,48060,1,0,0:0:0:0:
370,99,48170,1,0,0:0:0:0:
431,149,48280,6,0,B|316:125|366:194|246:167,1,190,2|0,0:0|0:0,0:0:0:0:
166,123,48774,1,2,0:0:0:0:
102,192,48939,2,0,L|114:300,1,76,8|0,0:0|0:0,0:0:0:0:
160,327,49269,1,0,0:0:0:0:
220,275,49433,2,0,L|322:259,1,76,0|0,0:0|0:0,0:0:0:0:
421,384,49763,5,2,0:0:0:0:
372,307,49928,1,8,0:0:0:0:
440,246,50093,1,0,0:0:0:0:
416,158,50258,6,0,P|400:83|395:-3,1,152,2|0,0:0|0:0,0:0:0:0:
481,47,50752,1,0,0:0:0:0:
315,40,50917,2,0,P|280:44|230:49,1,76,8|0,0:0|0:0,0:0:0:0:
225,138,51247,2,0,P|260:134|310:129,1,76,0|2,0:0|0:0,0:0:0:0:
131,91,51741,6,0,L|75:97,5,38,2|0|8|0|2|0,0:0|0:0|0:0|0:0|0:0|0:0,0:0:0:0:
131,91,52236,6,0,L|121:253,1,152,2|0,0:0|0:0,0:0:0:0:
220,216,52730,1,2,0:0:0:0:
231,305,52895,2,0,L|221:220,1,76,8|0,0:0|0:0,0:0:0:0:
23,245,53225,2,0,L|33:160,1,76,0|0,0:0|0:0,0:0:0:0:
105,331,53719,5,2,0:0:0:0:
121,242,53884,1,8,0:0:0:0:
137,153,54049,1,0,0:0:0:0:
219,215,54214,6,0,L|385:201,1,152,2|0,0:0|0:0,0:0:0:0:
410,129,54709,1,2,0:0:0:0:
502,137,54873,2,0,L|421:131,1,76,8|0,0:0|0:0,0:0:0:0:
410,285,55203,2,0,L|329:291,1,76,0|2,0:0|0:0,0:0:0:0:
219,215,55697,6,0,L|230:149,6,38,2|0|8|0|0|0|2,0:0|0:0|0:0|0:0|0:0|0:0|0:0,0:0:0:0:
256,192,56274,12,0,61301,0:0:0:0:
107,370,61466,6,0,L|96:192,1,170.999994781494,2|0,0:0|0:0,0:0:0:0:
211,284,61961,2,0,L|271:293,2,42.7499986953736,2|0|0,0:0|0:0|0:0,0:0:0:0:
204,110,62290,2,0,L|190:220,1,85.4999973907472,0|0,0:0|0:0,0:0:0:0:
303,186,62620,6,0,P|389:166|493:169,1,170.999994781494,2|0,0:0|0:0,0:0:0:0:
471,165,63115,1,0,0:0:0:0:
307,82,63279,1,2,0:0:0:0:
307,82,63609,1,0,0:0:0:0:
382,133,63774,2,0,L|392:46,1,85.4999973907472,2|0,0:0|0:0,0:0:0:0:
307,82,64104,5,2,0:0:0:0:
191,19,64268,1,0,0:0:0:0:
191,19,64350,1,0,0:0:0:0:
191,19,64433,1,0,0:0:0:0:
222,104,64598,2,0,L|111:93,1,85.4999973907472,2|0,0:0|0:0,0:0:0:0:
285,163,64928,1,0,0:0:0:0:
307,82,65093,1,2,0:0:0:0:
208,190,65257,6,0,P|230:277|239:365,1,170.999994781494,2|0,0:0|0:0,0:0:0:0:
325,314,65752,1,0,0:0:0:0:
156,372,65917,2,0,B|69:382|107:331|1:355,1,142.5,2|0,0:0|0:0,0:0:0:0:
18,351,66741,6,0,L|24:256,1,85.4999973907472,2|0,0:0|0:0,0:0:0:0:
120,244,67071,1,0,0:0:0:0:
10,165,67236,2,0,L|83:176,2,42.7499986953736,2|0|0,0:0|0:0|0:0,0:0:0:0:
157,65,67565,2,0,P|148:113|145:178,1,85.4999973907472
120,244,67895,6,0,B|228:223|184:279|305:266,1,170.999994781494,2|0,0:0|0:0,0:0:0:0:
382,214,68389,1,0,0:0:0:0:
299,372,68554,1,2,0:0:0:0:
299,372,68884,2,0,L|289:280,1,85.4999973907472,2|2,0:0|0:0,0:0:0:0:
403,132,69213,5,2,0:0:0:0:
382,214,69378,1,2,0:0:0:0:
316,155,69543,5,0,0:0:0:0:
470,195,69708,1,0,0:0:0:0:
316,155,69873,2,0,P|221:136|133:129,1,170.999994781494,2|0,0:0|0:0,0:0:0:0:
80,193,70367,1,2,0:0:0:0:
13,132,70532,2,0,L|4:76,1,42.7499986953736
125,58,70697,6,0,L|118:100,31,42.7499986953736
119,101,73334,6,0,P|131:149|140:199,1,95,4|0,0:0|0:0,0:0:0:0:
221,164,73664,1,8,0:0:0:0:
56,286,73829,1,0,0:0:0:0:
66,254,73911,1,0,0:0:0:0:
58,221,73994,1,0,0:0:0:0:
212,246,74159,2,0,L|273:257,2,47.5,8|0|0,0:0|0:0|0:0,0:0:0:0:
126,6,74488,6,0,L|118:112,1,95
221,164,74818,1,0,0:0:0:0:
58,221,74983,1,8,0:0:0:0:
193,338,75148,2,0,P|201:284|219:226,1,95,0|0,0:0|0:0,0:0:0:0:
40,225,75477,1,8,0:0:0:0:
49,223,75560,1,0,0:0:0:0:
58,221,75642,2,0,L|126:211,1,47.5,8|0,0:0|0:0,0:0:0:0:
36,147,75807,1,8,0:0:0:0:
211,245,75972,5,4,0:0:0:0:
105,346,76137,1,0,0:0:0:0:
78,365,76219,1,0,0:0:0:0:
44,367,76301,1,8,0:0:0:0:
194,146,76466,5,0,0:0:0:0:
373,283,76631,1,0,0:0:0:0:
211,245,76796,5,8,0:0:0:0:
289,182,76961,1,0,0:0:0:0:
194,146,77126,2,0,L|129:151,2,47.5
273,84,77455,5,0,0:0:0:0:
211,245,77620,2,0,P|222:298|226:372,1,95,8|0,0:0|0:0,0:0:0:0:
389,191,77950,5,0,3:0:0:0:
398,192,78032,1,0,3:0:0:0:
407,193,78115,1,0,3:0:0:0:
416,194,78197,1,0,3:0:0:0:
425,195,78279,1,0,3:0:0:0:
434,196,78362,1,0,3:0:0:0:
443,197,78444,1,0,3:0:0:0:
452,198,78527,1,0,3:0:0:0:
461,199,78609,5,4,0:0:0:0:
287,182,78774,1,0,0:0:0:0:
483,95,78939,1,8,0:0:0:0:
398,262,79104,1,0,0:0:0:0:
408,225,79186,1,0,0:0:0:0:
389,191,79268,1,0,0:0:0:0:
478,334,79433,2,0,L|487:279,2,47.5,8|0|0,0:0|0:0|0:0,0:0:0:0:
288,374,79763,6,0,L|277:256,1,95,0|0,0:0|0:0,0:0:0:0:
194,340,80093,2,0,L|113:350,2,47.5,0|0|8,0:0|0:0|0:0,0:0:0:0:
388,356,80422,2,0,L|399:244,1,95,0|0,0:0|0:0,0:0:0:0:
182,198,80752,2,0,L|171:86,1,95,8|8,0:0|0:0,0:0:0:0:
217,26,81082,5,8,0:0:0:0:
84,91,81246,1,4,0:0:0:0:
261,141,81411,2,0,P|309:132|355:125,1,95,0|8,0:0|0:0,0:0:0:0:
182,198,81741,2,0,L|174:136,2,47.5,0|0|0,0:0|0:0|0:0,0:0:0:0:
272,239,82071,1,8,0:0:0:0:
259,279,82153,1,0,0:0:0:0:
279,316,82235,2,0,L|271:382,1,47.5,8|0,0:0|0:0,0:0:0:0:
349,277,82400,1,0,0:0:0:0:
194,351,82565,5,2,0:3:0:0:
184,350,82648,1,0,0:0:0:0:
174,349,82730,1,0,0:0:0:0:
164,348,82812,1,0,0:3:0:0:
154,347,82895,1,0,0:0:0:0:
144,346,82977,1,0,0:0:0:0:
134,345,83060,2,0,L|209:352,1,47.5,2|2,0:3|0:0,0:0:0:0:
349,277,83224,5,0,3:0:0:0:
358,279,83307,1,0,3:0:0:0:
367,281,83389,2,0,L|372:232,1,47.5,0|0,3:0|3:0,0:0:0:0:
267,89,83554,2,0,L|260:140,1,52.2500015945435,2|2,3:2|3:2,0:0:0:0:
436,130,83719,2,0,B|404:127|404:127|363:146,1,61.7499971733095,2|2,3:2|3:2,0:0:0:0:
182,198,83884,5,6,0:0:0:0:
157,228,83966,1,0,0:0:0:0:
121,246,84048,1,0,0:0:0:0:
82,247,84131,1,0,0:0:0:0:
45,231,84213,2,0,L|-18:241,1,47.5,8|0,0:0|0:0,0:0:0:0:
95,158,84378,6,0,B|49:127|46:98|67:65|67:65|97:70|126:60|160:-2,1,185.249991519928,2|0,0:0|0:0,0:0:0:0:
212,0,84708,2,0,P|228:27|209:77,1,61.7499971733095,8|0,0:0|0:0,0:0:0:0:
225,279,84873,6,0,B|200:261|183:220|204:157|259:147|259:147|241:170|245:202|273:235,1,228,2|0,0:0|0:0,0:0:0:0:
312,261,85202,5,0,0:0:0:0:
327,258,85285,1,0,0:0:0:0:
342,255,85367,1,0,0:0:0:0:
357,252,85450,1,0,0:0:0:0:
372,250,85532,2,0,L|449:238,1,52.2500015945435,0|0,0:0|0:0,0:0:0:0:
395,100,85697,5,8,0:0:0:0:
395,100,85779,1,0,0:0:0:0:
395,100,85862,2,0,P|385:133|407:190,1,61.7499971733095,0|0,0:0|0:0,0:0:0:0:
475,164,86027,2,0,P|485:131|463:74,1,61.7499971733095,8|0,0:0|0:0,0:0:0:0:
423,241,86192,5,2,0:0:0:0:
391,270,86274,1,2,0:0:0:0:
389,312,86356,1,10,0:0:0:0:
415,346,86439,1,2,0:0:0:0:
456,356,86521,6,0,L|516:349,1,52.2500015945435,6|0,0:0|0:0,0:0:0:0:
309,350,86686,2,0,L|257:356,1,52.2500015945435,0|0,0:0|0:0,0:0:0:0:
139,383,86851,1,8,0:0:0:0:
139,383,86933,1,0,0:0:0:0:
139,383,87016,2,0,B|93:362|80:332|78:280|110:248|110:248|111:291|161:320|181:310,1,213.750008153916,2|0,0:0|0:0,0:0:0:0:
292,196,87345,2,0,P|301:226|295:253,1,56.9999982604981,8|0,0:0|0:0,0:0:0:0:
201,232,87510,1,2,0:0:0:0:
263,118,87675,5,8,0:0:0:0:
263,118,87757,1,0,0:0:0:0:
263,118,87840,2,0,P|258:71|254:3,1,95,2|0,0:0|0:0,0:0:0:0:
36,91,88169,1,8,0:0:0:0:
69,64,88252,1,0,0:0:0:0:
111,59,88334,1,2,0:0:0:0:
148,79,88416,1,0,0:0:0:0:
168,116,88499,2,0,L|163:169,1,47.5,0|0,0:0|0:0,0:0:0:0:
145,365,88664,5,8,0:0:0:0:
100,378,88746,1,0,0:0:0:0:
60,356,88828,1,10,0:0:0:0:
48,312,88911,1,0,0:0:0:0:
72,272,88993,1,8,0:0:0:0:
117,262,89076,1,0,0:0:0:0:
155,288,89158,5,6,0:0:0:0:
217,335,89323,1,0,0:0:0:0:
285,298,89488,1,8,0:0:0:0:
282,286,89571,1,0,0:0:0:0:
361,352,89735,5,0,0:0:0:0:
362,340,89818,1,0,0:0:0:0:
363,328,89900,1,0,0:0:0:0:
364,316,89983,1,0,0:0:0:0:
365,304,90065,1,0,0:0:0:0:
366,292,90148,1,2,0:0:0:0:
367,280,90230,1,0,0:0:0:0:
368,268,90312,1,0,0:0:0:0:
369,256,90395,1,0,0:0:0:0:
371,244,90477,6,0,L|375:195,7,38,0|0|0|0|0|0|0|0,0:0|0:0|0:0|0:0|0:0|0:0|0:0|0:0,0:0:0:0:
388,91,91137,6,0,L|385:119,11,25.3333333333333,0|0|0|0|0|0|0|0|0|0|0|0,0:0|0:0|0:0|0:0|0:0|0:0|0:0|0:0|0:0|0:0|0:0|0:0,0:0:0:0:
451,175,91796,6,0,L|507:181,1,52.2500015945435,6|0,0:0|0:0,0:0:0:0:
307,156,91961,2,0,L|255:150,1,52.2500015945435,0|0,0:0|0:0,0:0:0:0:
123,134,92126,5,8,0:0:0:0:
123,134,92208,1,0,0:0:0:0:
123,134,92290,2,0,L|135:209,1,52.2500015945435,2|0,0:0|0:0,0:0:0:0:
248,334,92455,2,0,L|256:282,1,52.2500015945435,0|0,0:0|0:0,0:0:0:0:
16,380,92620,1,8,0:0:0:0:
28,340,92702,1,0,0:0:0:0:
65,320,92785,1,2,0:0:0:0:
106,315,92867,1,0,0:0:0:0:
144,331,92950,2,0,L|155:391,1,52.2500015945435,0|0,0:0|0:0,0:0:0:0:
352,377,93115,5,0,3:0:0:0:
380,340,93197,1,0,3:0:0:0:
355,300,93279,2,0,L|369:231,1,52.2500015945435,0|0,3:0|3:0,0:0:0:0:
265,201,93444,2,0,L|251:132,1,52.2500015945435,0|0,3:0|3:0,0:0:0:0:
505,170,93609,1,0,3:0:0:0:
484,126,93692,1,0,3:0:0:0:
441,106,93774,1,0,0:0:0:0:
395,110,93856,1,0,0:0:0:0:
360,142,93939,1,8,0:0:0:0:
143,208,94104,6,0,L|126:177,1,26.1250007972718,8|0,0:0|0:0,0:0:0:0:
113,205,94186,2,0,L|105:171,1,26.1250007972718,0|0,0:0|0:0,0:0:0:0:
85,195,94268,2,0,L|86:160,1,26.1250007972718,8|0,0:0|0:0,0:0:0:0:
57,185,94351,2,0,L|58:150,1,26.1250007972718,0|0,0:0|0:0,0:0:0:0:
32,168,94433,5,4,0:0:0:0:
311,263,94763,1,8,0:0:0:0:
213,300,94928,1,0,0:0:0:0:
221,272,95010,1,0,0:0:0:0:
213,244,95093,1,0,0:0:0:0:
396,360,95257,2,0,P|351:363|288:367,1,95,2|8,0:0|0:0,0:0:0:0:
410,256,95587,1,0,0:0:0:0:
353,172,95752,5,0,0:0:0:0:
362,171,95834,1,0,0:0:0:0:
371,170,95917,1,0,0:0:0:0:
380,169,95999,1,0,0:0:0:0:
389,168,96082,1,8,0:0:0:0:
191,63,96246,1,0,0:0:0:0:
270,120,96411,1,2,0:0:0:0:
270,120,96494,1,0,0:0:0:0:
270,120,96576,2,0,B|295:98|295:98|278:27,1,95,8|8,0:0|0:0,0:0:0:0:
186,156,96906,1,0,0:0:0:0:
105,102,97071,5,4,0:0:0:0:
191,63,97235,2,0,L|184:9,2,47.5,0|0|8,0:0|0:0|0:0,0:0:0:0:
110,188,97565,1,4,0:0:0:0:
261,240,97730,2,0,L|271:140,1,95,0|2,0:0|0:0,0:0:0:0:
381,341,98060,1,0,3:0:0:0:
376,341,98142,1,0,3:0:0:0:
371,341,98224,1,0,3:0:0:0:
366,342,98307,1,0,3:0:0:0:
360,341,98389,6,0,B|278:356|310:300|188:329,1,142.5,0|0,0:0|0:0,0:0:0:0:
189,341,98719,2,0,L|178:268,2,47.5,8|8|0,0:0|0:0|0:0,0:0:0:0:
365,253,99049,2,0,L|367:179,1,47.5,2|0,0:0|0:0,0:0:0:0:
367,119,99213,1,2,0:0:0:0:
367,114,99296,1,0,0:0:0:0:
367,109,99378,1,2,0:0:0:0:
367,104,99461,1,0,0:0:0:0:
367,99,99543,1,2,0:0:0:0:
367,94,99626,1,0,0:0:0:0:
367,89,99708,5,4,0:0:0:0:
270,145,99873,2,0,L|258:49,1,85.4999973907472,0|8,0:0|0:0,0:0:0:0:
366,205,100202,2,0,L|416:211,2,42.7499986953736,0|0|0,0:0|0:0|0:0,0:0:0:0:
247,314,100532,1,2,0:0:0:0:
193,236,100697,2,0,P|240:232|288:225,1,85.4999973907472,0|0,0:0|0:0,0:0:0:0:
158,326,101027,6,0,L|151:375,8,42.7499986953736,0|0|0|0|0|0|0|0|8,0:0|0:0|0:0|0:0|0:0|0:0|0:0|0:0|0:0,0:0:0:0:
247,314,101851,1,0,0:0:0:0:
66,325,102016,2,0,L|54:210,1,85.4999973907472,8|0,0:0|0:0,0:0:0:0:
124,163,102345,6,0,L|127:135,4,28.4999991302491
189,212,102675,2,0,L|195:268,2,56.9999982604981,8|0|0,0:0|0:0|0:0,0:0:0:0:
249,104,103005,1,0,0:0:0:0:
253,111,103087,1,0,0:0:0:0:
257,118,103170,2,0,P|301:117|371:111,1,85.4999973907472,0|2,0:0|3:0,0:0:0:0:
378,137,103417,1,2,3:0:0:0:
402,101,103499,1,2,3:0:0:0:
444,98,103582,1,2,3:0:0:0:
483,113,103664,6,0,L|489:58,7,42.7499986953736,2|0|0|0|0|0|2|0,0:3|0:0|0:0|0:0|0:0|0:0|0:3|0:0,0:0:0:0:
448,186,104323,2,0,L|452:228,1,42.7499986953736,0|0,0:0|0:0,0:0:0:0:
358,359,104488,2,0,B|355:338|355:338|362:304,1,42.7499986953736,0|0,0:0|0:0,0:0:0:0:
307,215,104653,2,0,L|349:219,1,42.7499986953736,2|0,0:3|0:0,0:0:0:0:
474,341,104818,5,0,0:0:0:0:
474,341,104900,1,0,0:0:0:0:
474,341,104983,1,2,0:0:0:0:
