osu file format v14

[General]
AudioFilename: audio.mp3
AudioLeadIn: 0
PreviewTime: 139352
Countdown: 0
SampleSet: Soft
StackLeniency: 0.7
Mode: 2
LetterboxInBreaks: 0
WidescreenStoryboard: 1

[Editor]
DistanceSpacing: 1.2
BeatDivisor: 4
GridSize: 16
TimelineZoom: 3.399999

[Metadata]
Title:AMARA (The Great Intelligence)
TitleUnicode:ÅMARA (大未来電脳)
Artist:sasakure.UK
ArtistUnicode:sasakure.UK
Creator:Rocma
Version:Insane
Source:プロジェクトセカイ カラフルステージ! feat. 初音ミク
Tags:GiGas x_angelkawaii_x Project SEKAI Colorful Stage! feat. HatsuneMiku+KAITO Dai Mirai Dennou project sekai colorful stage hatsune miku kaito vocaloid artcore japanese electronic
BeatmapID:3967790
BeatmapSetID:1897184

[Difficulty]
HPDrainRate:4
CircleSize:4
OverallDifficulty:9.1
ApproachRate:9.1
SliderMultiplier:1.6
SliderTickRate:1

[Events]
//Background and Video events
0,0,"bg.jpg",0,0
Video,0,"defreeyay.mp4"
//Break Periods
2,116541,120632
//Storyboard Layer 0 (Background)
//Storyboard Layer 1 (Fail)
//Storyboard Layer 2 (Pass)
//Storyboard Layer 3 (Foreground)
//Storyboard Layer 4 (Overlay)
//Storyboard Sound Samples

[TimingPoints]
73,260.869565217391,4,2,2,40,1,0
7377,-100,4,2,2,20,0,0
8420,-100,4,3,3,60,0,0
16768,-100,4,2,5,45,0,0
33464,230.769230769231,4,2,5,30,1,0
39002,-100,4,2,5,45,0,0
43617,-100,4,2,5,50,0,0
44079,-100,4,2,5,55,0,0
45238,230.769230769231,5,2,4,60,1,0
46161,-100,5,2,5,40,0,0
46391,-100,5,2,4,65,0,0
47314,-100,5,2,5,40,0,0
47544,-100,5,2,4,50,0,0
48468,-100,5,2,5,40,0,0
48698,-100,5,2,4,70,0,0
49622,-100,5,2,5,40,0,0
49852,-100,5,2,4,60,0,0
50776,-100,5,2,5,40,0,0
51006,-100,5,2,4,65,0,0
51930,-100,5,2,5,40,0,0
52160,-100,5,2,4,50,0,0
53084,-100,5,2,5,40,0,0
53314,-100,5,2,4,75,0,0
54872,260.869565217391,3,2,2,50,1,0
60350,-100,3,2,5,50,0,0
61654,260.869565217391,4,3,3,60,1,0
64001,-100,4,3,3,70,0,0
64088,-100,4,2,5,70,0,0
64262,-100,4,2,5,65,0,0
64523,-100,4,3,3,60,0,0
64610,-100,4,2,5,60,0,0
64784,-100,4,2,5,55,0,0
65045,-100,4,2,5,50,0,0
65306,-100,4,3,3,45,0,0
65393,-100,4,2,5,45,0,0
65567,-100,4,3,3,40,0,0
65827,-100,4,3,3,60,0,0
68175,-100,4,2,5,50,0,0
68436,-100,4,2,5,55,0,0
68697,-100,4,3,3,60,0,0
68784,-100,4,2,5,60,0,0
68958,-100,4,2,5,65,0,0
69219,-100,4,2,5,70,0,0
69480,-100,4,2,5,75,0,0
69740,-100,4,3,3,60,0,0
78349,234.375,4,2,2,40,1,0
83974,-100,4,2,5,45,0,0
84911,-100,4,2,2,40,0,0
90536,-100,4,2,2,20,0,0
91474,234.375,5,2,4,60,1,0
92411,-100,5,2,5,40,0,0
92645,-100,5,2,4,65,0,0
93583,-100,5,2,5,40,0,0
93817,-100,5,2,4,50,0,0
94755,-100,5,2,5,40,0,0
94989,-100,5,2,4,70,0,0
95927,-100,5,2,5,40,0,0
96161,-100,5,2,4,60,0,0
97099,-100,5,2,5,40,0,0
97333,-100,5,2,4,65,0,0
98271,-100,5,2,5,40,0,0
98505,-100,5,2,4,50,0,0
99443,-100,5,2,5,40,0,0
99677,-100,5,2,4,70,0,0
100615,-100,5,2,5,40,0,0
100849,225.563909774436,6,2,4,50,1,0
100999,-100,6,2,4,52,0,0
101149,-100,6,2,4,54,0,0
101300,-100,6,2,4,56,0,0
101450,-100,6,2,4,58,0,0
101600,-100,6,2,4,60,0,0
101751,-100,6,2,4,62,0,0
101826,-100,6,2,4,62,0,0
101901,-100,6,2,4,64,0,0
101976,-100,6,2,4,64,0,0
102052,-100,6,2,4,66,0,0
102127,-100,6,2,4,66,0,0
102202,-100,6,2,4,58,0,0
102352,-100,6,2,4,60,0,0
102503,-100,6,2,4,62,0,0
102653,-100,6,2,4,64,0,0
102803,-100,6,2,4,66,0,0
102954,-100,6,2,4,68,0,0
103104,-100,6,2,4,70,0,0
103179,-100,6,2,4,70,0,0
103255,-100,6,2,4,72,0,0
103330,-100,6,2,4,72,0,0
103405,-100,6,2,4,74,0,0
103480,-100,6,2,4,74,0,0
103555,-100,6,2,4,50,0,0
103706,-100,6,2,4,52,0,0
103856,-100,6,2,4,54,0,0
104007,-100,6,2,4,56,0,0
104157,-100,6,2,4,58,0,0
104307,-100,6,2,4,60,0,0
104458,-100,6,2,4,62,0,0
104533,-100,6,2,4,62,0,0
104608,-100,6,2,4,64,0,0
104683,-100,6,2,4,64,0,0
104759,-100,6,2,4,66,0,0
104833,-100,6,2,4,66,0,0
104909,-100,6,2,4,58,0,0
105059,-100,6,2,4,60,0,0
105210,-100,6,2,4,62,0,0
105360,-100,6,2,4,64,0,0
105510,-100,6,2,4,66,0,0
105661,-100,6,2,4,68,0,0
105811,-100,6,2,4,70,0,0
105886,-100,6,2,4,70,0,0
105962,-100,6,2,4,72,0,0
106036,-100,6,2,4,72,0,0
106112,-100,6,2,4,74,0,0
106187,-100,6,2,4,74,0,0
106262,217.391304347826,6,2,4,75,1,0
107131,-100,6,2,4,75,0,0
107204,-100,6,2,4,75,0,0
107276,-100,6,2,4,75,0,0
107348,-100,6,2,4,75,0,0
107421,-100,6,2,4,75,0,0
107493,-100,6,2,4,75,0,0
107566,-100,6,2,4,76,0,0
108435,-100,6,2,4,76,0,0
108508,-100,6,2,4,76,0,0
108580,-100,6,2,4,76,0,0
108653,-100,6,2,4,76,0,0
108725,-100,6,2,4,76,0,0
108798,-100,6,2,4,76,0,0
108870,-100,6,2,4,77,0,0
109740,-100,6,2,4,77,0,0
109812,-100,6,2,4,77,0,0
109885,-100,6,2,4,77,0,0
109957,-100,6,2,4,77,0,0
110030,-100,6,2,4,77,0,0
110102,-100,6,2,4,77,0,0
110175,-100,6,2,4,78,0,0
110899,-100,6,2,4,79,0,0
111044,-100,6,2,4,79,0,0
111117,-100,6,2,4,79,0,0
111189,-100,6,2,4,79,0,0
111262,-100,6,2,4,79,0,0
111334,-100,6,2,4,79,0,0
111406,-100,6,2,4,79,0,0
111479,202.702702702703,4,2,4,80,1,0
111580,-100,4,2,4,20,0,0
111681,192.926045016077,4,2,4,80,1,0
111777,-100,4,2,4,20,0,0
111873,189.873417721519,4,2,4,80,1,0
111967,-100,4,2,4,20,0,0
112062,186.915887850467,4,2,4,76,1,0
112155,-100,4,2,4,20,0,0
112248,181.268882175227,4,2,4,76,1,0
112338,-100,4,2,4,20,0,0
112429,175.953079178886,4,2,4,76,1,0
112516,-100,4,2,4,20,0,0
112605,170.940170940171,4,2,4,72,1,0
112692,-100,4,2,4,20,0,0
112776,163.934426229508,4,2,4,72,1,0
112861,-100,4,2,4,20,0,0
112940,159.574468085106,4,2,4,72,1,0
113021,-100,4,2,4,20,0,0
113100,153.452685421995,4,2,4,68,1,0
113179,-100,4,2,4,20,0,0
113253,-100,4,2,4,68,0,0
113330,-100,4,2,4,20,0,0
113406,149.625935162095,4,2,4,68,1,0
113480,-100,4,2,4,20,0,0
113555,-100,4,2,4,68,0,0
113630,-100,4,2,4,20,0,0
113705,145.985401459854,4,2,4,68,1,0
113777,-100,4,2,4,20,0,0
113850,-100,4,2,4,68,0,0
113923,-100,4,2,4,20,0,0
113996,142.517814726841,4,2,4,64,1,0
114067,-100,4,2,4,20,0,0
114138,139.211136890951,4,2,4,64,1,0
114207,-100,4,2,4,20,0,0
114277,136.054421768707,4,2,4,64,1,0
114345,-100,4,2,4,20,0,0
114413,131.578947368421,4,2,4,60,1,0
114478,-100,4,2,4,20,0,0
114543,130.151843817787,4,2,4,60,1,0
114608,-100,4,2,4,20,0,0
114671,127.388535031847,4,2,4,60,1,0
114734,-100,4,2,4,20,0,0
114799,126.050420168067,4,2,4,55,1,0
114862,-100,4,2,4,20,0,0
114926,124.740124740125,4,2,4,55,1,0
114988,-100,4,2,4,20,0,0
115051,123.456790123457,4,2,4,55,1,0
115113,-100,4,2,4,20,0,0
115175,122.199592668024,4,2,4,50,1,0
115236,-100,4,2,4,20,0,0
115297,120.967741935484,4,2,4,50,1,0
115357,-100,4,2,4,20,0,0
115418,118.577075098814,4,2,4,50,1,0
115478,-100,4,2,4,20,0,0
115538,117.416829745597,4,2,4,45,1,0
115595,-100,4,2,4,20,0,0
115656,116.279069767442,4,2,4,45,1,0
115714,-100,4,2,4,20,0,0
115774,115.163147792706,4,2,4,45,1,0
115830,-100,4,2,4,20,0,0
115890,114.068441064639,4,2,4,40,1,0
115946,-100,4,2,4,20,0,0
116006,112.994350282486,4,2,4,40,1,0
116061,-100,4,2,4,20,0,0
116120,111.940298507463,4,2,4,40,1,0
116175,-100,4,2,4,20,0,0
116231,110.90573012939,4,2,4,30,1,0
116286,-100,4,2,4,20,0,0
116341,109.89010989011,4,2,4,20,1,0
116459,521.739130434783,4,2,2,10,1,0
120632,-100,4,2,2,5,0,0
121940,521.739130434783,4,2,99,30,1,0
122461,-100,4,2,98,30,0,0
122722,260.869565217391,4,2,89,44,1,0
122722,-200,4,2,89,44,0,0
122982,-200,4,2,2,44,0,0
123113,-200,4,2,98,44,0,0
123635,-200,4,2,99,44,0,0
123765,-200,4,2,88,44,0,0
123895,-200,4,2,97,44,0,0
124026,-200,4,2,98,44,0,0
124548,-200,4,2,99,44,0,0
124808,-200,4,2,87,44,0,0
125069,-200,4,2,96,44,0,0
125330,-200,4,2,95,44,0,0
125722,-200,4,2,94,44,0,0
126243,-200,4,2,93,44,0,0
126374,-200,4,2,98,44,0,0
126635,-200,4,2,2,44,0,0
126765,-200,4,2,98,44,0,0
126895,-200,4,2,86,44,0,0
127026,-200,4,2,86,44,0,0
127156,-200,4,2,99,44,0,0
127417,-200,4,2,92,44,0,0
127939,-200,4,2,91,44,0,0
128722,-200,4,2,94,44,0,0
128982,-200,4,2,85,44,0,0
129243,-200,4,2,2,44,0,0
129374,-200,4,2,99,44,0,0
129504,-200,4,2,98,44,0,0
129765,-200,4,2,2,44,0,0
129895,-200,4,2,93,44,0,0
130026,-200,4,2,84,44,0,0
130287,-200,4,2,99,44,0,0
130808,-200,4,2,98,44,0,0
131069,-200,4,2,83,44,0,0
131461,-200,4,2,82,44,0,0
131982,-200,4,2,81,44,0,0
132113,-200,4,2,82,44,0,0
132243,-200,4,2,80,44,0,0
132374,-200,4,2,82,44,0,0
132895,-200,4,2,79,44,0,0
133156,-200,4,2,96,44,0,0
133548,-200,4,2,5,44,0,0
133678,-200,4,2,78,44,0,0
133808,-200,4,2,5,44,0,0
134069,-200,4,2,77,44,0,0
134200,-200,4,2,76,44,0,0
134330,-200,4,2,5,44,0,0
134461,-200,4,2,93,44,0,0
134591,-200,4,2,5,44,0,0
134722,-200,4,2,82,44,0,0
134982,-200,4,2,75,44,0,0
135243,-200,4,2,74,44,0,0
135504,-200,4,2,73,44,0,0
135635,-200,4,2,5,44,0,0
135765,-200,4,2,72,44,0,0
136026,-200,4,2,71,44,0,0
136156,-200,4,2,5,44,0,0
136287,-200,4,2,70,44,0,0
136417,-200,4,2,5,44,0,0
137069,-200,4,2,69,44,0,0
137200,-200,4,2,5,44,0,0
137330,-200,4,2,70,44,0,0
137591,-200,4,2,2,44,0,0
137721,-200,4,2,68,44,0,0
137852,-200,4,2,70,44,0,0
137982,-200,4,2,5,44,0,0
138243,-200,4,2,97,44,0,0
138373,-200,4,2,84,44,0,0
138374,-200,4,2,98,44,0,0
138635,-200,4,2,67,44,0,0
138895,-200,4,2,68,44,0,0
139156,-200,4,2,98,44,0,0
139417,-100,4,3,3,70,0,1
156113,-100,4,2,5,70,0,1
172808,267.857142857143,3,2,2,70,1,0
185397,-100,3,2,2,60,0,0
185531,-100,3,2,2,50,0,0
185608,274.266907412063,3,2,5,40,1,0
187253,-100,3,2,5,30,0,0
188899,-100,3,2,5,20,0,0
190544,-100,3,2,5,10,0,0

[Colours]
Combo1 : 91,109,123
Combo2 : 135,246,234

[HitObjects]
256,304,73,6,0,L|160:304,1,80,4|0,0:3|0:0,0:0:0:0:
144,230,333,2,0,L|182:319,1,80,0|0,0:0|0:0,0:0:0:0:
256,304,594,2,0,L|352:304,1,80,0|0,0:0|0:0,0:0:0:0:
368,230,854,2,0,L|330:319,1,80,0|0,0:0|0:0,0:0:0:0:
122,215,1116,1,2,0:0:0:0:
256,192,1507,1,0,0:0:0:0:
384,208,1768,2,0,L|272:208,2,80,0|0|0,0:0|0:0|0:0,0:0:0:0:
256,304,2159,6,0,L|160:304,1,80,2|0,0:0|0:0,0:0:0:0:
144,230,2419,2,0,L|182:319,1,80,0|0,0:0|0:0,0:0:0:0:
256,304,2680,2,0,L|352:304,1,80,0|0,0:0|0:0,0:0:0:0:
368,230,2942,2,0,L|330:319,1,80,0|0,0:0|0:0,0:0:0:0:
256,304,3203,2,0,L|144:304,2,80,2|0|0,0:0|0:0|0:0,0:0:0:0:
64,320,3594,2,0,L|64:128,1,160,0|0,0:0|0:0,0:0:0:0:
144,128,3986,2,0,L|48:128,1,80,0|0,0:0|0:0,0:0:0:0:
256,304,4246,6,0,L|352:304,1,80,4|0,0:0|0:0,0:0:0:0:
368,230,4506,2,0,L|330:319,1,80,0|0,0:0|0:0,0:0:0:0:
256,304,4767,2,0,L|160:304,1,80,0|0,0:0|0:0,0:0:0:0:
144,230,5029,2,0,L|182:319,1,80,0|0,0:0|0:0,0:0:0:0:
390,215,5289,1,2,0:0:0:0:
256,192,5680,1,0,0:0:0:0:
128,208,5941,2,0,L|240:208,2,80,0|0|0,0:0|0:0|0:0,0:0:0:0:
256,304,6332,6,0,L|352:304,1,80,2|0,0:0|0:0,0:0:0:0:
368,230,6594,2,0,L|330:319,1,80,0|0,0:0|0:0,0:0:0:0:
256,304,6855,2,0,L|160:304,1,80,0|0,0:0|0:0,0:0:0:0:
144,230,7116,2,0,L|182:319,1,80,0|0,0:0|0:0,0:0:0:0:
256,304,7377,5,0,0:0:0:0:
256,192,7507,12,0,8094,0:0:0:0:
256,192,8420,6,0,L|64:192,1,160,0|0,1:0|1:0,0:0:0:0:
176,192,8812,2,0,L|368:192,1,160,8|8,0:0|0:0,0:0:0:0:
256,288,9203,2,0,L|144:288,1,80,0|0,1:0|0:0,0:0:0:0:
432,272,9464,6,0,P|480:224|417:165,1,160,0|0,1:0|1:0,0:0:0:0:
336,176,9855,1,8,0:0:0:0:
144,288,9986,2,0,L|128:240,1,40,0|0,0:0|0:0,0:0:0:0:
144,288,10116,2,0,L|208:288,1,40,8|0,0:0|0:0,0:0:0:0:
320,240,10246,2,0,L|336:192,1,40,0|0,1:0|0:0,0:0:0:0:
320,240,10376,2,0,L|256:240,1,40,0|0,0:0|0:0,0:0:0:0:
112,96,10507,6,0,P|61:139|128:192,1,160,0|0,1:0|1:0,0:0:0:0:
160,192,10833,1,0,0:0:0:0:
208,192,10899,1,8,0:0:0:0:
112,224,11029,2,0,L|112:336,1,80,0|8,0:0|0:0,0:0:0:0:
224,336,11290,2,0,L|352:336,1,120,0|0,1:0|0:0,0:0:0:0:
192,352,11551,6,0,L|80:352,3,80,0|0|0|8,1:0|0:0|1:0|0:0,0:0:0:0:
256,320,12203,1,8,0:0:0:0:
336,320,12333,2,0,L|384:320,2,40,4|0|0,1:2|0:0|0:0,0:0:0:0:
112,304,12594,6,0,P|70:224|128:192,1,160,0|0,1:0|1:0,0:0:0:0:
224,224,12986,2,0,P|266:144|208:112,1,160,8|8,0:0|0:0,0:0:0:0:
112,288,13377,2,0,L|224:288,1,80,0|0,1:0|0:0,0:0:0:0:
432,288,13638,6,0,P|479:226|416:176,1,160,0|0,1:0|1:0,0:0:0:0:
352,176,14029,1,8,0:0:0:0:
96,192,14159,2,0,L|48:192,1,40,0|0,0:0|0:0,0:0:0:0:
96,192,14290,2,0,L|144:192,1,40,8|0,0:0|0:0,0:0:0:0:
272,128,14420,2,0,L|320:128,1,40,0|0,1:0|0:0,0:0:0:0:
272,128,14551,2,0,L|224:128,1,40,0|0,0:0|0:0,0:0:0:0:
416,208,14681,6,0,P|464:176|396:117,1,160,0|0,1:0|1:0,0:0:0:0:
368,112,15007,1,0,0:0:0:0:
320,112,15073,1,8,0:0:0:0:
224,176,15203,2,0,L|320:176,1,80,0|8,0:0|0:0,0:0:0:0:
208,224,15464,2,0,P|176:288|224:304,1,120,0|0,1:0|0:0,0:0:0:0:
368,304,15725,6,0,L|480:304,3,80,0|0|0|8,1:0|0:0|1:0|0:0,0:0:0:0:
256,320,16377,1,8,0:0:0:0:
176,320,16507,2,0,L|128:320,2,40,0|0|0,1:0|0:0|0:0,0:0:0:0:
416,304,16768,6,0,L|432:192,3,80,2|2|0|2,0:3|0:0|0:0|0:0,0:0:0:0:
320,192,17290,2,0,L|304:80,1,80,2|2,0:0|0:0,0:0:0:0:
416,304,17551,1,0,0:0:0:0:
192,352,17681,5,2,0:0:0:0:
48,304,17942,1,2,0:0:0:0:
192,256,18203,6,0,L|192:64,1,160,2|2,0:0|0:0,0:0:0:0:
112,96,18594,1,2,0:0:0:0:
352,96,18725,5,0,0:0:0:0:
496,128,18986,1,2,0:0:0:0:
400,192,19116,1,0,0:0:0:0:
368,208,19181,1,0,0:0:0:0:
400,208,19246,1,0,0:0:0:0:
496,208,19377,2,0,L|496:320,1,80,0|0,0:0|0:0,0:0:0:0:
256,368,19638,2,0,P|112:320|272:128,1,480,4|0,0:3|0:0,0:0:0:0:
416,128,20681,2,0,L|320:128,1,80,0|0,0:0|0:0,0:0:0:0:
96,320,20942,6,0,L|96:144,1,160,2|0,0:0|0:0,0:0:0:0:
192,144,21333,1,2,0:0:0:0:
96,112,21464,2,0,L|0:112,2,80,2|2|0,0:0|0:0|0:0,0:0:0:0:
304,272,21855,6,0,P|352:208|288:160,1,160,2|2,0:0|0:0,0:0:0:0:
224,160,22246,1,0,0:0:0:0:
320,128,22377,2,0,L|400:128,2,80,2|0|2,0:0|0:0|0:0,0:0:0:0:
192,128,22768,2,0,L|112:128,2,80,2|0|0,0:0|0:0|0:0,0:0:0:0:
496,352,23159,6,0,B|496:112|496:112|320:112,1,400,2|0,0:0|0:0,0:0:0:0:
16,352,24072,2,0,B|176:352|176:352|16:352|16:352|112:352,1,400,0|0,0:0|0:0,0:0:0:0:
336,224,24986,1,2,0:0:0:0:
80,352,25116,6,0,L|32:272,1,80,2|0,0:0|0:0,0:0:0:0:
80,352,25377,2,0,L|176:352,1,80,2|0,0:0|0:0,0:0:0:0:
272,352,25638,2,0,L|320:272,1,80,2|0,0:0|0:0,0:0:0:0:
272,352,25899,2,0,L|176:352,1,80,2|0,0:0|0:0,0:0:0:0:
304,304,26159,2,0,L|400:304,2,80,2|2|2,0:0|0:0|0:0,0:0:0:0:
112,368,26551,6,0,P|63:306|119:265,1,160,2|0,0:0|0:0,0:0:0:0:
224,240,26942,2,0,L|144:240,1,80,2|0,0:0|0:0,0:0:0:0:
432,352,27203,6,0,L|480:272,1,80,2|0,0:0|0:0,0:0:0:0:
432,352,27464,2,0,L|336:352,1,80,2|0,0:0|0:0,0:0:0:0:
240,352,27725,2,0,L|192:272,1,80,2|0,0:0|0:0,0:0:0:0:
240,352,27986,2,0,L|336:352,1,80,2|0,0:0|0:0,0:0:0:0:
208,304,28246,2,0,L|112:304,2,80,2|2|2,0:0|0:0|0:0,0:0:0:0:
400,368,28638,6,0,L|224:368,1,160,2|0,0:0|0:0,0:0:0:0:
112,368,29094,1,0,0:0:0:0:
416,128,29290,6,0,L|512:128,2,80,2|0|0,0:0|0:0|0:0,0:0:0:0:
304,128,29681,2,0,L|496:128,1,160,2|2,0:0|0:0,0:0:0:0:
80,352,30203,6,0,P|32:320|96:256,1,160,2|0,0:0|0:0,0:0:0:0:
240,192,30725,2,0,L|48:192,1,160,2|2,0:0|0:0,0:0:0:0:
160,176,31116,2,0,L|256:176,1,80,2|0,0:0|0:0,0:0:0:0:
496,320,31377,6,0,L|496:160,1,160,6|2,0:0|0:0,0:0:0:0:
288,256,31768,2,0,L|288:96,1,160,2|2,0:0|0:0,0:0:0:0:
64,304,32290,5,2,0:0:0:0:
224,272,32551,1,2,0:0:0:0:
96,224,32746,1,2,0:0:0:0:
304,176,32877,2,0,L|448:176,1,120,10|10,0:0|0:0,0:0:0:0:
160,112,33268,1,10,0:0:0:0:
432,80,33464,5,2,0:0:0:0:
256,336,33925,2,0,L|256:0,2,320,0|0|0,0:0|0:0|0:0,0:0:0:0:
80,80,35310,5,2,0:0:0:0:
256,336,35771,2,0,L|256:0,2,320,0|0|0,0:0|0:0|0:0,0:0:0:0:
432,80,37156,5,2,0:0:0:0:
256,336,37617,2,0,L|256:0,2,320,0|0|0,0:0|0:0|0:0,0:0:0:0:
80,160,39002,5,8,0:1:0:0:
256,128,39233,2,0,L|336:128,1,80,0|0,0:0|0:0,0:0:0:0:
256,208,39464,2,0,L|176:208,1,53.3333333333333,4|0,0:1|0:0,0:0:0:0:
178,160,39617,2,0,L|210:224,1,53.3333333333333,0|0,0:0|0:0,0:0:0:0:
272,240,39810,2,0,L|171:240,2,80,0|8|8,0:0|0:1|0:1,0:0:0:0:
496,304,40156,5,4,0:1:0:0:
336,304,40387,2,0,L|256:304,2,80,8|0|0,0:1|0:0|0:0,0:0:0:0:
432,304,40733,1,0,0:0:0:0:
176,144,40848,5,4,0:1:0:0:
336,144,41079,1,0,0:0:0:0:
256,208,41194,2,0,L|256:304,1,80,8|8,0:1|0:1,0:0:0:0:
352,288,41425,2,0,L|352:208,1,80,8|4,0:1|0:1,0:0:0:0:
32,304,41771,5,8,0:1:0:0:
112,208,42002,2,0,L|32:208,1,80,0|0,0:0|0:0,0:0:0:0:
144,192,42233,2,0,P|192:160|128:96,1,160,4|0,0:1|0:0,0:0:0:0:
48,96,42579,2,0,L|144:96,2,80,0|8|8,0:0|0:1|0:1,0:0:0:0:
256,96,42925,5,4,0:1:0:0:
400,144,43156,2,0,L|480:144,3,80,8|8|8|8,0:1|0:1|0:1|0:1,0:0:0:0:
288,240,43617,2,0,L|192:240,3,80,4|8|8|8,0:1|0:1|0:1|0:1,0:0:0:0:
416,320,44079,2,0,L|512:320,1,80,4|4,0:1|0:1,0:0:0:0:
272,320,44310,2,0,L|176:320,1,80,4|4,0:1|0:1,0:0:0:0:
352,160,45238,5,4,0:1:0:0:
272,160,45353,2,0,L|448:160,3,160,8|8|8|8,0:0|0:0|0:0|0:0,0:0:0:0:
352,96,46161,2,0,L|464:96,1,80,2|2,0:0|0:0,0:0:0:0:
256,160,46391,5,4,0:1:0:0:
176,160,46506,2,0,L|16:160,3,160,8|8|8|8,0:0|0:0|0:0|0:0,0:0:0:0:
96,96,47314,2,0,L|208:96,1,80,2|2,0:0|0:0,0:0:0:0:
368,112,47545,5,4,0:1:0:0:
448,144,47661,2,0,L|288:144,3,160,8|8|0|0,0:0|0:0|0:0|0:0,0:0:0:0:
368,144,48468,2,0,L|288:144,1,80,2|2,0:0|0:0,0:0:0:0:
96,112,48699,5,4,0:1:0:0:
176,144,48815,2,0,L|16:144,1,160,8|8,0:0|0:0,0:0:0:0:
336,144,49276,2,0,L|496:144,1,160,8|8,0:0|0:0,0:0:0:0:
416,96,49622,2,0,L|320:96,1,80,2|2,0:0|0:0,0:0:0:0:
160,160,49853,5,4,0:1:0:0:
240,160,49968,2,0,L|64:160,3,160,8|8|8|8,0:0|0:0|0:0|0:0,0:0:0:0:
160,96,50776,2,0,L|48:96,1,80,2|2,0:0|0:0,0:0:0:0:
256,160,51006,5,4,0:1:0:0:
336,160,51121,2,0,L|496:160,3,160,8|8|8|8,0:0|0:0|0:0|0:0,0:0:0:0:
416,96,51929,2,0,L|304:96,1,80,2|2,0:0|0:0,0:0:0:0:
144,112,52160,5,4,0:1:0:0:
64,144,52276,2,0,L|224:144,3,160,8|8|8|8,0:0|0:0|0:0|0:0,0:0:0:0:
144,144,53083,2,0,L|224:144,1,80,2|2,0:0|0:0,0:0:0:0:
448,240,53314,6,0,L|304:240,1,120,4|8,0:1|0:0,0:0:0:0:
64,240,53661,2,0,L|208:240,1,120,8|8,0:0|0:0,0:0:0:0:
448,240,54007,6,0,L|304:240,1,120,8|8,0:0|0:0,0:0:0:0:
64,240,54354,2,0,L|208:240,1,120,0|0,0:0|0:0,0:0:0:0:
448,240,54699,1,8,0:0:0:0:
176,320,54872,6,0,L|80:320,1,80,4|0,0:3|0:0,0:0:0:0:
64,246,55132,2,0,L|102:335,1,80,0|0,0:0|0:0,0:0:0:0:
176,320,55393,2,0,L|272:320,1,80,0|0,0:0|0:0,0:0:0:0:
288,246,55653,2,0,L|250:335,1,80,0|0,0:0|0:0,0:0:0:0:
42,231,55915,1,2,0:0:0:0:
96,208,56306,1,0,0:0:0:0:
176,320,56437,6,0,L|80:320,1,80,0|0,0:0|0:0,0:0:0:0:
64,246,56697,2,0,L|102:335,1,80,0|0,0:0|0:0,0:0:0:0:
176,320,56958,2,0,L|272:320,1,80,0|0,0:0|0:0,0:0:0:0:
288,246,57218,2,0,L|250:335,1,80,0|0,0:0|0:0,0:0:0:0:
176,320,57480,2,0,L|96:320,3,80,2|0|0|0,0:0|0:0|0:0|0:0,0:0:0:0:
336,320,58002,6,0,L|432:320,1,80,4|0,0:3|0:0,0:0:0:0:
448,246,58262,2,0,L|410:335,1,80,0|0,0:0|0:0,0:0:0:0:
336,320,58523,2,0,L|240:320,1,80,0|0,0:0|0:0,0:0:0:0:
224,246,58785,2,0,L|262:335,1,80,0|0,0:0|0:0,0:0:0:0:
470,231,59045,1,2,0:0:0:0:
416,208,59436,1,0,0:0:0:0:
336,320,59567,6,0,L|432:320,1,80,0|0,0:0|0:0,0:0:0:0:
448,246,59827,2,0,L|410:335,1,80,0|0,0:0|0:0,0:0:0:0:
336,320,60088,2,0,L|240:320,1,80,2|0,0:0|0:0,0:0:0:0:
224,246,60350,2,0,L|262:335,1,80,2|0,0:0|0:0,0:0:0:0:
336,320,60611,2,0,L|448:320,1,80,8|0,0:1|0:0,0:0:0:0:
176,320,60871,6,0,L|48:320,3,120,2|2|2|2,0:0|0:0|0:0|0:0,0:0:0:0:
336,320,61654,6,0,L|432:320,1,80,0|0,1:0|0:0,0:0:0:0:
457,251,61914,2,0,L|409:331,1,80,0|0,0:0|1:0,0:0:0:0:
320,320,62175,2,0,L|224:320,2,80,8|0|8,0:0|0:0|0:0,0:0:0:0:
128,320,62567,2,0,L|128:160,1,160,0|8,1:0|0:0,0:0:0:0:
208,160,62958,1,0,0:0:0:0:
432,320,63088,2,0,L|432:160,1,160,8|0,0:0|0:0,0:0:0:0:
352,160,63479,1,8,0:0:0:0:
128,320,63610,5,0,1:0:0:0:
304,240,63871,1,8,0:0:0:0:
400,224,64001,2,0,L|464:224,2,53.3333333333333,8|0|0,0:0|0:0|0:0,0:0:0:0:
320,224,64262,2,0,L|256:224,2,53.3333333333333,0|0|0,0:0|0:0|0:0,0:0:0:0:
400,224,64523,2,0,L|400:160,2,53.3333333333333,8|0|0,0:0|0:0|0:0,0:0:0:0:
224,208,64784,6,0,L|192:128,2,53.3333333333333,2|0|0,0:0|0:0|0:0,0:0:0:0:
288,208,65045,2,0,L|320:128,2,53.3333333333333,0|0|0,0:0|0:0|0:0,0:0:0:0:
224,208,65306,2,0,L|192:128,2,53.3333333333333,0|0|0,1:0|0:0|0:0,0:0:0:0:
288,208,65567,2,0,L|288:112,1,80
176,320,65827,6,0,L|80:320,1,80,0|0,1:0|0:0,0:0:0:0:
55,251,66087,2,0,L|103:331,1,80,0|0,0:0|1:0,0:0:0:0:
192,320,66348,2,0,L|288:320,2,80,8|0|8,0:0|0:0|0:0,0:0:0:0:
384,320,66740,2,0,L|384:160,1,160,0|8,1:0|0:0,0:0:0:0:
304,160,67131,1,0,0:0:0:0:
80,320,67261,2,0,L|80:160,1,160,8|0,0:0|0:0,0:0:0:0:
160,160,67654,1,8,0:0:0:0:
352,288,67783,5,0,1:0:0:0:
192,272,68044,1,8,0:0:0:0:
288,240,68175,2,0,L|368:240,2,53.3333333333333,0|0|0,0:0|0:0|0:0,0:0:0:0:
208,240,68436,2,0,L|128:240,2,53.3333333333333,0|0|0,0:0|0:0|0:0,0:0:0:0:
288,240,68697,2,0,L|368:240,2,53.3333333333333,8|0|0,0:0|0:0|0:0,0:0:0:0:
96,256,68958,6,0,L|32:256,2,53.3333333333333,2|0|0,0:0|0:0|0:0,0:0:0:0:
176,208,69219,1,0,0:0:0:0:
122,208,69305,1,0,0:0:0:0:
69,208,69392,1,0,0:0:0:0:
288,160,69480,6,0,L|352:160,2,53.3333333333333,0|0|0,0:0|0:0|0:0,0:0:0:0:
208,112,69740,2,0,L|320:112,1,80
480,240,70001,6,0,L|384:240,3,80,0|0|0|8,1:0|0:0|0:0|0:0,0:0:0:0:
208,272,70523,2,0,L|304:272,3,80,8|0|8|0,0:0|0:0|0:0|0:0,0:0:0:0:
192,208,71045,6,0,L|112:208,2,80,0|0|8,1:0|0:0|0:0,0:0:0:0:
384,224,71436,2,0,L|384:48,1,160,8|0,0:0|0:0,0:0:0:0:
304,64,71827,2,0,L|384:64,1,80,8|0,0:0|0:0,0:0:0:0:
176,128,72088,6,0,L|96:128,3,80,0|0|0|8,1:0|0:0|0:0|0:0,0:0:0:0:
288,224,72610,2,0,L|368:224,3,80,8|0|8|0,0:0|0:0|0:0|0:0,0:0:0:0:
272,288,73132,2,0,L|176:288,2,80,0|0|8,1:0|0:0|0:0,0:0:0:0:
48,288,73523,2,0,L|208:288,1,160,8|0,0:0|0:0,0:0:0:0:
48,288,74045,1,8,0:0:0:0:
256,288,74175,6,0,L|336:288,2,80,0|0|0,1:0|0:0|0:0,0:0:0:0:
160,224,74567,2,0,L|320:224,1,160,8|8,0:0|0:0,0:0:0:0:
240,224,74958,1,0,0:0:0:0:
432,128,75088,6,0,L|432:320,1,160,8|0,0:0|0:0,0:0:0:0:
240,112,75610,2,2,L|240:288,1,160,8|0,0:0|0:0,0:0:0:0:
320,272,76001,2,0,L|208:272,1,80,8|0,0:0|0:0,0:0:0:0:
448,256,76262,6,0,P|496:208|428:154,1,160,0|8,1:0|0:0,0:0:0:0:
256,160,76653,2,0,P|208:112|276:58,1,160,8|8,0:0|0:0,0:0:0:0:
416,64,77175,1,8,0:0:0:0:
240,48,77436,2,0,L|160:48,1,80,8|0,0:0|0:0,0:0:0:0:
120,48,77632,2,0,L|168:48,1,40,8|0,0:0|0:0,0:0:0:0:
368,176,77762,2,0,L|224:176,2,120,8|8|8,0:0|0:0|0:0,0:0:0:0:
16,192,78349,5,4,0:3:0:0:
16,192,78583,1,0,0:0:0:0:
176,192,78817,1,2,0:0:0:0:
336,192,79052,1,0,0:0:0:0:
496,192,79286,5,2,0:0:0:0:
496,192,79520,1,0,0:0:0:0:
336,192,79754,1,2,0:0:0:0:
176,192,79989,1,0,0:0:0:0:
16,192,80224,5,2,0:0:0:0:
256,192,80458,1,0,0:0:0:0:
336,192,80575,1,0,0:0:0:0:
256,192,80692,1,2,0:0:0:0:
96,192,80927,1,0,0:0:0:0:
256,192,81161,1,2,0:0:0:0:
416,192,81395,1,0,0:0:0:0:
256,192,81630,1,2,0:0:0:0:
96,192,81864,1,0,0:0:0:0:
496,192,82099,5,4,0:0:0:0:
496,192,82333,1,0,0:0:0:0:
336,192,82567,1,2,0:0:0:0:
176,192,82802,1,0,0:0:0:0:
16,192,83036,5,2,0:0:0:0:
16,192,83270,1,0,0:0:0:0:
176,192,83504,1,2,0:0:0:0:
336,192,83739,1,0,0:0:0:0:
496,192,83974,5,8,0:1:0:0:
336,192,84208,1,4,0:1:0:0:
256,192,84325,1,4,0:1:0:0:
176,192,84442,1,8,0:1:0:0:
336,128,84677,1,4,0:1:0:0:
16,192,84911,5,4,0:3:0:0:
16,192,85145,1,0,0:0:0:0:
176,192,85379,1,2,0:0:0:0:
336,192,85614,1,0,0:0:0:0:
496,192,85848,5,2,0:0:0:0:
496,192,86082,1,0,0:0:0:0:
336,192,86316,1,2,0:0:0:0:
176,192,86551,1,0,0:0:0:0:
16,192,86786,5,2,0:0:0:0:
256,192,87020,1,0,0:0:0:0:
336,192,87137,1,0,0:0:0:0:
256,192,87254,1,2,0:0:0:0:
96,192,87489,1,0,0:0:0:0:
256,192,87723,1,2,0:0:0:0:
416,192,87957,1,0,0:0:0:0:
256,192,88192,1,2,0:0:0:0:
96,192,88426,1,0,0:0:0:0:
496,192,88661,5,4,0:0:0:0:
496,192,88895,1,0,0:0:0:0:
336,192,89129,1,2,0:0:0:0:
176,192,89364,1,0,0:0:0:0:
16,192,89598,5,2,0:0:0:0:
16,192,89832,1,0,0:0:0:0:
176,192,90066,1,2,0:0:0:0:
336,192,90301,1,0,0:0:0:0:
256,192,90536,12,0,91239,0:0:0:0:
160,160,91474,5,4,0:1:0:0:
240,160,91591,2,0,L|64:160,3,160,8|8|8|8,0:0|0:0|0:0|0:0,0:0:0:0:
160,96,92411,2,0,L|48:96,1,80,2|2,0:0|0:0,0:0:0:0:
256,160,92645,5,4,0:1:0:0:
336,160,92763,2,0,L|496:160,3,160,8|0|0|0,0:0|0:0|0:0|0:0,0:0:0:0:
416,96,93583,2,0,L|304:96,1,80,2|0,0:0|0:0,0:0:0:0:
144,112,93817,5,4,0:1:0:0:
64,144,93934,2,0,L|224:144,3,160,8|8|8|8,0:0|0:0|0:0|0:0,0:0:0:0:
144,144,94755,2,0,L|224:144,1,80,2|0,0:0|0:0,0:0:0:0:
416,112,94989,5,4,0:1:0:0:
336,144,95106,2,0,L|496:144,1,160,8|8,0:0|0:0,0:0:0:0:
176,144,95575,2,0,L|16:144,1,160,8|8,0:0|0:0,0:0:0:0:
96,96,95927,2,0,L|192:96,1,80,2|0,0:0|0:0,0:0:0:0:
352,160,96161,5,4,0:1:0:0:
272,160,96278,2,0,L|448:160,3,160,8|8|8|8,0:0|0:0|0:0|0:0,0:0:0:0:
352,96,97099,2,0,L|464:96,1,80,2|0,0:0|0:0,0:0:0:0:
256,160,97333,5,4,0:1:0:0:
176,160,97450,2,0,L|16:160,3,160,8|8|8|8,0:0|0:0|0:0|0:0,0:0:0:0:
96,96,98270,2,0,L|208:96,1,80,2|2,0:0|0:0,0:0:0:0:
368,112,98505,5,4,0:1:0:0:
448,144,98622,2,0,L|288:144,3,160,8|8|8|8,0:0|0:0|0:0|0:0,0:0:0:0:
368,144,99442,2,0,L|288:144,1,80,2|2,0:0|0:0,0:0:0:0:
96,112,99677,5,4,0:1:0:0:
176,144,99794,2,0,L|16:144,1,160,8|8,0:0|0:0,0:0:0:0:
336,144,100263,2,0,L|496:144,1,160,8|8,0:0|0:0,0:0:0:0:
416,96,100615,2,0,L|320:96,1,80,2|0,0:0|0:0,0:0:0:0:
122,176,100849,6,0,L|16:176,2,106.666666666667,2|0|0,0:3|1:0|1:0,0:0:0:0:
256,176,101300,2,0,L|368:176,2,106.666666666667,0|0|0,1:0|1:0|1:0,0:0:0:0:
384,128,101751,2,0,L|448:128,1,53.3333333333333,0|0,1:0|0:0,0:0:0:0:
368,128,101901,2,0,L|304:128,1,53.3333333333333,0|0,1:0|0:0,0:0:0:0:
384,128,102052,2,0,L|448:128,1,53.3333333333333,0|0,1:0|0:0,0:0:0:0:
256,192,102202,6,0,L|128:192,2,106.666666666667,2|0|0,0:3|1:0|1:0,0:0:0:0:
384,256,102653,2,0,L|256:256,2,106.666666666667,0|0|0,1:0|1:0|1:0,0:0:0:0:
256,320,103104,2,0,L|192:320,1,53.3333333333333,0|0,1:0|0:0,0:0:0:0:
272,288,103255,2,0,L|336:288,1,53.3333333333333,0|0,1:0|0:0,0:0:0:0:
256,256,103405,2,0,L|160:256,1,53.3333333333333,0|0,1:0|0:0,0:0:0:0:
384,192,103555,6,0,L|384:80,1,106.666666666667,2|0,0:3|1:0,0:0:0:0:
256,64,103856,1,0,1:0:0:0:
128,192,104006,2,0,L|128:80,1,106.666666666667,0|0,1:0|1:0,0:0:0:0:
256,64,104307,1,0,1:0:0:0:
384,192,104458,2,0,L|304:192,1,53.3333333333333,0|0,1:0|0:0,0:0:0:0:
256,192,104608,2,0,L|320:192,1,53.3333333333333,0|0,1:0|0:0,0:0:0:0:
384,192,104758,2,0,L|304:192,1,53.3333333333333,0|0,1:0|0:0,0:0:0:0:
160,256,104909,6,0,L|288:256,2,106.666666666667,2|0|0,0:3|1:0|1:0,0:0:0:0:
16,336,105360,2,0,L|144:336,2,106.666666666667,0|0|0,1:0|1:0|1:0,0:0:0:0:
160,336,105811,2,0,L|224:336,1,53.3333333333333,0|0,1:0|0:0,0:0:0:0:
144,304,105961,2,0,L|64:304,1,53.3333333333333,0|0,1:0|0:0,0:0:0:0:
160,336,106112,2,0,L|224:336,1,53.3333333333333,0|0,1:0|0:0,0:0:0:0:
384,288,106262,6,0,L|512:288,2,106.666666666667,2|0|0,0:3|1:0|1:0,0:0:0:0:
272,288,106696,2,0,L|144:288,2,106.666666666667,0|0|0,1:0|1:0|1:0,0:0:0:0:
400,224,107131,2,0,L|464:224,1,53.3333333333333,0|0,1:0|0:0,0:0:0:0:
384,192,107276,2,0,L|320:192,1,53.3333333333333,0|0,1:0|0:0,0:0:0:0:
400,160,107421,2,0,L|464:160,1,53.3333333333333,0|0,1:0|0:0,0:0:0:0:
256,160,107566,6,0,L|128:160,2,106.666666666667,2|0|0,0:3|1:0|1:0,0:0:0:0:
128,208,108000,2,0,L|0:208,2,106.666666666667,0|0|0,1:0|1:0|1:0,0:0:0:0:
256,96,108435,2,0,L|320:96,1,53.3333333333333,0|0,1:0|0:0,0:0:0:0:
240,64,108580,2,0,L|176:64,1,53.3333333333333,0|0,1:0|0:0,0:0:0:0:
256,32,108725,2,0,L|320:32,1,53.3333333333333,0|0,1:0|0:0,0:0:0:0:
128,288,108870,6,0,L|128:160,1,106.666666666667,2|0,0:3|1:0,0:0:0:0:
256,128,109160,1,0,1:0:0:0:
384,288,109305,2,0,L|384:160,1,106.666666666667,0|0,1:0|1:0,0:0:0:0:
256,128,109595,1,0,1:0:0:0:
400,96,109740,2,0,L|464:96,1,53.3333333333333,0|0,1:0|0:0,0:0:0:0:
384,80,109885,2,0,L|304:80,1,53.3333333333333,0|0,1:0|0:0,0:0:0:0:
400,96,110030,2,0,L|480:96,1,53.3333333333333,0|0,1:0|0:0,0:0:0:0:
256,176,110175,6,0,L|128:176,2,106.666666666667,2|0|0,0:3|1:0|1:0,0:0:0:0:
464,256,110609,2,0,L|336:256,2,106.666666666667,0|0|0,1:0|1:0|1:0,0:0:0:0:
256,320,111044,2,0,L|192:320,1,53.3333333333333,0|0,1:0|0:0,0:0:0:0:
272,304,111189,2,0,L|336:304,1,53.3333333333333,0|0,1:0|0:0,0:0:0:0:
160,240,111334,2,0,L|96:240,1,53.3333333333333,0|0,1:0|0:0,0:0:0:0:
288,192,111479,5,4,0:0:0:0:
400,192,111681,1,0,1:0:0:0:
224,192,111873,1,0,1:0:0:0:
112,192,112062,1,0,1:0:0:0:
272,128,112248,5,0,1:0:0:0:
384,128,112429,1,0,1:0:0:0:
240,128,112604,1,0,1:0:0:0:
128,128,112775,1,0,1:0:0:0:
256,256,112939,5,0,1:0:0:0:
336,224,113099,1,0,1:0:0:0:
368,144,113253,1,0,1:0:0:0:
256,256,113406,5,0,1:0:0:0:
176,224,113555,1,0,1:0:0:0:
144,144,113705,1,0,1:0:0:0:
256,256,113850,5,0,1:0:0:0:
336,224,113996,1,0,1:0:0:0:
368,144,114138,1,0,1:0:0:0:
256,256,114277,5,0,1:0:0:0:
176,224,114413,1,0,1:0:0:0:
144,144,114543,1,0,1:0:0:0:
256,256,114671,5,0,1:0:0:0:
336,224,114799,1,0,1:0:0:0:
368,144,114926,1,0,1:0:0:0:
256,256,115051,5,0,1:0:0:0:
176,224,115175,1,0,1:0:0:0:
144,144,115297,1,0,1:0:0:0:
256,256,115417,5,0,1:0:0:0:
336,224,115536,1,0,0:0:0:0:
368,144,115655,1,0,1:0:0:0:
256,256,115774,5,0,1:0:0:0:
176,224,115890,1,0,1:0:0:0:
144,144,116006,1,0,1:0:0:0:
256,256,116120,5,0,1:0:0:0:
336,224,116231,1,0,1:0:0:0:
368,144,116341,1,0,1:0:0:0:
144,192,121940,6,0,L|48:192,2,80,8|2|8,0:0|0:0|0:0,0:0:0:0:
224,192,122592,1,0,0:0:0:0:
432,192,122722,6,0,P|464:144|419:96,1,120,6|8,0:0|0:0,0:0:0:0:
352,144,123243,2,0,P|320:96|365:48,1,120,8|2,0:0|0:0,0:0:0:0:
432,192,123765,2,0,L|480:192,2,40,10|8|8,0:0|0:0|0:0,0:0:0:0:
320,192,124287,1,8,0:0:0:0:
400,272,124548,1,8,0:0:0:0:
320,336,124808,5,10,0:0:0:0:
112,336,125069,1,2,0:0:0:0:
320,288,125330,2,0,L|320:160,1,120,14|8,0:0|0:0,0:0:0:0:
416,224,125852,6,0,L|416:96,1,120,6|8,0:0|0:0,0:0:0:0:
320,192,126374,2,0,L|320:64,1,120,8|2,0:0|0:0,0:0:0:0:
100,302,126895,5,14,0:0:0:0:
100,302,127156,1,8,0:0:0:0:
100,302,127417,1,2,0:0:0:0:
100,302,127678,1,8,0:0:0:0:
100,302,127939,1,14,0:0:0:0:
100,302,128722,1,8,0:0:0:0:
240,272,128982,6,0,L|368:272,1,120,14|2,0:0|0:0,0:0:0:0:
360,272,129504,2,0,L|240:272,1,120,8|8,0:0|0:0,0:0:0:0:
144,272,130026,5,10,0:0:0:0:
64,144,130287,1,8,0:0:0:0:
144,48,130548,1,2,0:0:0:0:
288,48,130808,1,8,0:0:0:0:
80,304,131069,6,0,L|80:208,1,80,14|0,0:0|0:0,0:0:0:0:
128,192,131461,1,10,0:1:0:0:
224,192,131591,1,6,0:1:0:0:
256,192,131656,1,0,0:0:0:0:
266,160,131722,1,4,0:1:0:0:
256,192,131787,1,0,0:0:0:0:
224,192,131852,1,0,0:0:0:0:
128,192,131982,1,10,0:1:0:0:
256,256,132113,6,0,L|304:256,2,40,6|0|10,0:1|0:0|0:1,0:0:0:0:
96,288,132635,1,6,0:1:0:0:
77,282,132700,1,0,0:0:0:0:
62,268,132765,1,0,0:0:0:0:
57,249,132830,1,0,0:0:0:0:
61,230,132895,1,10,0:1:0:0:
73,215,132961,1,0,0:0:0:0:
92,208,133026,1,0,0:0:0:0:
288,192,133156,5,12,0:0:0:0:
464,224,133417,2,0,L|384:224,2,80,2|14|0,0:0|0:1|0:0,0:0:0:0:
224,256,134200,6,0,L|144:256,1,80,6|8,0:1|0:0,0:0:0:0:
304,256,134591,2,0,L|336:256,1,20,8|0,0:1|0:0,0:0:0:0:
364,194,134722,1,6,0:1:0:0:
384,192,134787,1,0,0:0:0:0:
324,256,134917,2,0,L|304:256,1,20,0|10,0:0|0:1,0:0:0:0:
240,256,135113,1,10,0:1:0:0:
448,256,135243,6,0,L|464:176,3,80,14|10|6|10,0:1|0:1|0:1|0:1,0:0:0:0:
320,176,136287,1,14,0:1:0:0:
144,288,136874,1,0,0:0:0:0:
125,282,136939,1,0,0:0:0:0:
110,268,137004,1,0,0:0:0:0:
105,249,137069,1,10,0:1:0:0:
109,230,137134,1,0,0:0:0:0:
122,215,137200,1,8,0:1:0:0:
140,208,137265,1,0,0:0:0:0:
272,192,137330,6,0,L|384:128,1,120,14|10,0:1|0:1,0:0:0:0:
272,256,137852,1,6,0:1:0:0:
144,256,138243,1,8,0:0:0:0:
256,224,138374,6,0,L|352:224,1,80,8|10,0:0|0:0,0:0:0:0:
416,224,138895,2,0,L|512:224,1,80,6|8,0:1|0:0,0:0:0:0:
96,304,139417,6,0,L|96:208,1,80,4|0,0:1|1:0,0:0:0:0:
208,208,139678,2,0,L|208:112,1,80,8|0,0:0|0:0,0:0:0:0:
416,304,139939,2,0,L|416:208,1,80,2|0,0:2|1:0,0:0:0:0:
208,208,140200,2,0,L|208:112,1,80,8|0,0:0|0:0,0:0:0:0:
96,304,140461,5,0,1:0:0:0:
416,304,140852,1,2,0:2:0:0:
256,304,141113,2,0,L|160:304,2,80,0|8|0,1:0|0:0|0:0,0:0:0:0:
448,256,141504,6,0,L|355:256,3,80,4|0|8|0,0:1|1:0|0:0|0:0,0:0:0:0:
176,304,142026,2,0,L|269:304,1,80,2|0,0:2|1:0,0:0:0:0:
448,256,142287,2,0,L|368:256,1,80,8|0,0:0|0:0,0:0:0:0:
256,285,142548,6,0,L|162:285,2,80,0|0|8,1:0|0:0|0:0,0:0:0:0:
64,304,142939,2,0,L|64:144,1,160,2|0,0:2|1:0,0:0:0:0:
160,176,143330,2,0,L|160:83,1,80,8|0,0:0|0:0,0:0:0:0:
416,304,143591,6,0,L|416:208,1,80,4|0,0:1|1:0,0:0:0:0:
304,208,143852,2,0,L|304:112,1,80,8|0,0:0|0:0,0:0:0:0:
96,304,144113,2,0,L|96:208,1,80,2|0,0:2|0:0,0:0:0:0:
304,208,144374,2,0,L|304:112,1,80,8|0,0:0|0:0,0:0:0:0:
416,304,144635,5,0,1:0:0:0:
96,304,145026,1,2,0:2:0:0:
256,304,145287,2,0,L|352:304,2,80,0|0|0,1:0|0:0|0:0,0:0:0:0:
64,256,145678,6,0,L|157:256,3,80,4|0|8|0,0:1|1:0|0:0|0:0,0:0:0:0:
336,304,146200,2,0,L|243:304,1,80,2|0,0:2|0:0,0:0:0:0:
64,256,146461,2,0,L|144:256,1,80,8|0,0:0|0:0,0:0:0:0:
256,285,146722,6,0,L|350:285,2,80,0|0|0,1:0|0:0|0:0,0:0:0:0:
448,304,147113,2,0,L|448:144,1,160,2|0,0:2|1:0,0:0:0:0:
352,176,147504,2,0,L|352:83,1,80,8|0,0:0|0:0,0:0:0:0:
112,256,147765,6,0,L|208:256,1,80,4|0,0:1|1:0,0:0:0:0:
192,256,148026,2,0,L|112:256,1,80,8|0,0:0|0:0,0:0:0:0:
320,256,148287,2,0,L|400:256,1,80,2|0,0:2|0:0,0:0:0:0:
192,256,148548,2,0,L|112:256,2,80,8|0|0,0:0|0:0|1:0,0:0:0:0:
496,256,149200,1,2,0:2:0:0:
336,224,149461,2,0,L|432:224,2,80,0|0|0,1:0|0:0|0:0,0:0:0:0:
128,288,149852,6,0,L|208:288,3,80,4|0|8|0,0:1|1:0|0:0|0:0,0:0:0:0:
16,224,150374,2,0,L|16:144,1,80,2|0,0:2|0:0,0:0:0:0:
208,192,150635,2,0,L|208:112,1,80,8|0,0:0|0:0,0:0:0:0:
112,128,150895,2,0,L|112:48,1,80,0|0,1:0|0:0,0:0:0:0:
16,32,151156,1,8,0:0:0:0:
256,32,151287,2,0,L|256:192,1,160,2|0,0:2|1:0,0:0:0:0:
160,112,151678,2,0,L|160:192,1,80,8|0,0:0|0:0,0:0:0:0:
400,256,151939,6,0,L|304:256,1,80,4|0,0:1|1:0,0:0:0:0:
320,256,152200,2,0,L|400:256,1,80,8|0,0:0|0:0,0:0:0:0:
192,256,152461,2,0,L|112:256,1,80,2|0,0:2|0:0,0:0:0:0:
320,256,152722,2,0,L|400:256,2,80,0|0|0,0:0|0:0|1:0,0:0:0:0:
16,256,153374,1,2,0:2:0:0:
176,224,153635,2,0,L|80:224,2,80,0|0|0,1:0|0:0|0:0,0:0:0:0:
384,288,154026,6,0,L|304:288,3,80,4|0|8|0,0:1|1:0|0:0|0:0,0:0:0:0:
496,224,154548,2,0,L|496:144,1,80,2|0,0:2|0:0,0:0:0:0:
304,192,154809,2,0,L|304:112,1,80,0|0,0:0|0:0,0:0:0:0:
192,128,155069,2,0,L|192:48,1,80,0|0,1:0|0:0,0:0:0:0:
304,32,155330,1,8,0:0:0:0:
112,144,155591,1,2,0:2:0:0:
448,320,155852,1,2,0:2:0:0:
64,320,156113,6,0,L|64:128,1,160,4|8,0:0|0:1,0:0:0:0:
160,128,156504,1,8,0:1:0:0:
416,112,156635,2,0,L|240:112,1,160,4|8,0:1|0:1,0:0:0:0:
160,112,157026,1,0,0:0:0:0:
352,208,157156,2,0,L|448:208,2,80,2|2|4,0:0|0:0|0:1,0:0:0:0:
160,208,157678,1,2,0:0:0:0:
352,208,157939,1,8,0:1:0:0:
16,288,158200,5,2,0:0:0:0:
352,352,158461,1,4,0:0:0:0:
192,352,158721,2,0,L|192:176,1,160,2|4,0:0|0:1,0:0:0:0:
288,176,159113,1,0,0:0:0:0:
96,245,159243,6,0,P|42:218|96:165,1,160,2|8,0:0|0:1,0:0:0:0:
208,160,159635,1,8,0:1:0:0:
415,245,159765,6,0,P|469:218|415:165,1,160,4|8,0:1|0:1,0:0:0:0:
304,160,160157,1,2,0:0:0:0:
80,192,160287,5,2,0:0:0:0:
256,192,160548,1,2,0:3:0:0:
432,192,160808,1,2,0:3:0:0:
80,192,161069,1,2,0:0:0:0:
464,320,161330,6,0,B|464:40|464:40|464:107,1,320,4|4,0:1|0:1,0:0:0:0:
48,128,162113,1,2,0:0:0:0:
464,352,162374,6,0,L|291:352,1,160,4|2,0:0|0:0,0:0:0:0:
400,320,162765,1,2,0:0:0:0:
208,352,162895,2,0,L|48:352,1,160,4|8,0:1|0:1,0:0:0:0:
144,320,163287,1,4,0:1:0:0:
384,272,163417,5,2,0:0:0:0:
208,256,163678,2,0,L|22:256,1,160,2|2,0:0|0:0,0:0:0:0:
304,224,164200,1,2,0:0:0:0:
208,224,164330,1,0,0:0:0:0:
448,320,164461,6,0,L|448:128,1,160,4|8,0:0|0:1,0:0:0:0:
352,128,164852,1,8,0:1:0:0:
96,112,164983,2,0,L|272:112,1,160,4|8,0:1|0:1,0:0:0:0:
352,112,165374,1,0,0:0:0:0:
160,208,165504,2,0,L|64:208,2,80,2|2|4,0:0|0:0|0:1,0:0:0:0:
352,208,166026,1,2,0:0:0:0:
160,208,166287,1,8,0:1:0:0:
496,288,166548,5,2,0:0:0:0:
160,352,166809,1,4,0:0:0:0:
320,352,167069,2,0,L|320:176,1,160,2|4,0:0|0:1,0:0:0:0:
224,176,167461,1,0,0:0:0:0:
416,245,167591,6,0,P|470:218|416:165,1,160,2|8,0:0|0:1,0:0:0:0:
304,160,167983,1,8,0:1:0:0:
97,245,168113,6,0,P|43:218|97:165,1,160,4|8,0:1|0:1,0:0:0:0:
208,160,168505,1,2,0:0:0:0:
432,192,168635,5,2,0:0:0:0:
256,192,168896,1,2,0:3:0:0:
80,192,169156,1,2,0:3:0:0:
432,192,169417,1,2,0:0:0:0:
48,320,169678,6,0,B|48:40|48:40|48:107,1,320,4|4,0:1|0:1,0:0:0:0:
464,128,170461,1,2,0:0:0:0:
48,352,170722,6,0,L|221:352,1,160,4|2,0:0|0:0,0:0:0:0:
112,320,171113,1,2,0:0:0:0:
304,352,171243,2,0,L|464:352,1,160,4|8,0:1|0:1,0:0:0:0:
368,320,171635,1,4,0:1:0:0:
144,320,171765,5,2,0:0:0:0:
304,266,172026,2,0,L|490:266,2,160,2|2|8,0:0|0:0|0:1,0:0:0:0:
215,267,172678,1,4,0:1:0:0:
448,208,172808,6,0,L|448:128,1,80,4|8,0:3|0:0,0:0:0:0:
368,128,173075,2,0,L|448:128,1,80,8|0,0:0|0:0,0:0:0:0:
256,112,173343,2,0,L|160:112,1,80,8|8,0:0|0:0,0:0:0:0:
256,112,173611,2,0,L|336:112,1,80,8|8,0:0|0:0,0:0:0:0:
96,176,173879,1,10,0:0:0:0:
256,192,174281,1,8,0:0:0:0:
64,208,174415,6,0,L|64:128,1,80,4|8,0:3|0:0,0:0:0:0:
144,128,174682,2,0,L|64:128,1,80,8|0,0:0|0:0,0:0:0:0:
256,112,174950,2,0,L|352:112,1,80,8|8,0:0|0:0,0:0:0:0:
144,80,175218,2,0,L|144:176,1,80,8|0,0:0|0:0,0:0:0:0:
256,192,175486,2,0,L|160:192,1,80,10|8,0:0|0:0,0:0:0:0:
368,240,175754,2,0,L|368:336,1,80,8|8,0:0|0:0,0:0:0:0:
64,208,176022,6,0,L|64:128,1,80,4|8,0:3|0:0,0:0:0:0:
144,128,176289,2,0,L|64:128,1,80,8|0,0:0|0:0,0:0:0:0:
256,112,176557,2,0,L|352:112,1,80,8|8,0:0|0:0,0:0:0:0:
256,112,176825,2,0,L|176:112,1,80,8|8,0:0|0:0,0:0:0:0:
416,176,177093,1,10,0:0:0:0:
256,192,177495,1,8,0:0:0:0:
448,208,177629,6,0,L|448:128,1,80,4|8,0:3|0:0,0:0:0:0:
368,128,177896,2,0,L|448:128,1,80,8|0,0:0|0:0,0:0:0:0:
256,112,178164,2,0,L|160:112,1,80,8|8,0:0|0:0,0:0:0:0:
368,80,178432,2,0,L|368:176,1,80,8|0,0:0|0:0,0:0:0:0:
256,192,178700,2,0,L|352:192,1,80,10|8,0:0|0:0,0:0:0:0:
144,240,178968,2,0,L|144:336,1,80,8|8,0:0|0:0,0:0:0:0:
448,208,179236,6,0,L|448:128,1,80,4|8,0:3|0:0,0:0:0:0:
368,128,179503,2,0,L|448:128,1,80,8|0,0:0|0:0,0:0:0:0:
256,112,179771,2,0,L|160:112,1,80,8|8,0:0|0:0,0:0:0:0:
256,112,180039,2,0,L|336:112,1,80,8|8,0:0|0:0,0:0:0:0:
96,176,180307,5,10,0:0:0:0:
256,192,180709,1,8,0:0:0:0:
64,208,180843,6,0,L|64:128,1,80,4|8,0:3|0:0,0:0:0:0:
144,128,181110,2,0,L|64:128,1,80,8|0,0:0|0:0,0:0:0:0:
256,112,181378,2,0,L|352:112,1,80,8|8,0:0|0:0,0:0:0:0:
144,80,181646,2,0,L|144:176,1,80,8|0,0:0|0:0,0:0:0:0:
256,192,181914,2,0,L|160:192,1,80,10|8,0:0|0:0,0:0:0:0:
368,240,182182,2,0,L|368:336,1,80,8|8,0:0|0:0,0:0:0:0:
64,208,182450,6,0,L|64:128,1,80,4|8,0:3|0:0,0:0:0:0:
144,128,182717,2,0,L|64:128,1,80,8|0,0:0|0:0,0:0:0:0:
256,112,182985,2,0,L|352:112,1,80,8|8,0:0|0:0,0:0:0:0:
256,112,183253,2,0,L|176:112,1,80,8|8,0:0|0:0,0:0:0:0:
416,176,183521,1,10,0:0:0:0:
256,192,183923,1,8,0:0:0:0:
448,208,184057,6,0,L|448:128,1,80,4|8,0:3|0:0,0:0:0:0:
368,128,184324,2,0,L|448:128,1,80,8|0,0:0|0:0,0:0:0:0:
256,112,184592,2,0,L|160:112,1,80,8|8,0:0|0:0,0:0:0:0:
368,80,184860,2,0,L|368:176,1,80,8|0,0:0|0:0,0:0:0:0:
256,192,185128,6,0,L|352:192,1,80,10|8,0:0|0:0,0:0:0:0:
128,240,185397,1,8,0:0:0:0:
336,272,185531,1,8,0:0:0:0:
256,192,185686,12,0,192072,0:0:0:0:
