osu file format v14

[General]
AudioFilename: audio.mp3
AudioLeadIn: 0
PreviewTime: 207002
Countdown: 0
SampleSet: Soft
StackLeniency: 0.7
Mode: 0
LetterboxInBreaks: 0
WidescreenStoryboard: 1

[Editor]
Bookmarks: 25288,39002,66430,93859,121288,152145,179573,207002,234430,261859,289288,309002
DistanceSpacing: 0.9
BeatDivisor: 4
GridSize: 32
TimelineZoom: 1.6

[Metadata]
Title:-echo-: NieR Song of the Ancients / Devola ~ Song of the Ancients / Popola
TitleUnicode:-echo-: NieR イニシエノウタ/デボル~イニシエノウタ/ポポル
Artist:sasakure.UK
ArtistUnicode:sasakure.UK
Creator:Zer0-
Version:Sorrow
Source:NieR
Tags:lasse nier gestalt replicant automata brasse instrumental electronic Keiichi Okabe 砂雲 Tribute album video game
BeatmapID:3060775
BeatmapSetID:1493195

[Difficulty]
HPDrainRate:5
CircleSize:4.2
OverallDifficulty:8
ApproachRate:8.8
SliderMultiplier:1.8
SliderTickRate:1

[Events]
//Background and Video events
0,0,"ilovenier.jpg",0,0
//Break Periods
2,7810,10944
//Storyboard Layer 0 (Background)
//Storyboard Layer 1 (Fail)
//Storyboard Layer 2 (Pass)
//Storyboard Layer 3 (Foreground)
//Storyboard Layer 4 (Overlay)
//Storyboard Sound Samples

[TimingPoints]
828,436.363636363636,4,1,1,15,1,0
828,-200,4,2,1,15,0,0
1263,384.615384615385,4,2,1,15,1,0
1263,-200,4,2,1,15,0,0
1647,472.44094488189,4,2,1,15,1,0
1647,-200,4,2,1,15,0,0
2119,545.454545454546,4,2,1,15,1,0
2119,-200,4,2,1,15,0,0
2391,444.444444444444,4,2,1,15,1,0
2391,-200,4,2,1,15,0,0
2613,468.75,4,2,1,15,1,0
2613,-200,4,2,1,15,0,0
3081,504.201680672269,4,2,1,15,1,0
3081,-200,4,2,1,15,0,0
3333,618.556701030928,4,2,1,15,1,0
3333,-200,4,2,1,15,0,0
3643,800,4,2,1,15,1,0
3643,-200,4,2,1,15,0,0
4043,845.070422535211,4,2,1,15,1,0
4043,-200,4,2,1,15,0,0
4465,1000,4,2,1,15,1,0
4465,-200,4,2,1,15,0,0
4965,1034.48275862069,4,2,1,15,1,0
4965,-200,4,2,1,15,0,0
5482,1224.48979591837,4,2,1,15,1,0
5482,-200,4,2,1,15,0,0
6094,1318.68131868132,4,2,1,15,1,0
6094,-200,4,2,1,15,0,0
6753,1714.28571428571,4,2,1,15,1,0
6753,-200,4,2,1,15,0,0
7610,3966.94214876033,4,1,1,15,1,0
7610,-200,4,2,1,15,0,0
11573,428.571428571429,4,1,1,30,1,0
11573,-100,4,2,1,30,0,0
12644,-200,4,2,1,30,0,0
13287,-100,4,2,1,30,0,0
14358,-200,4,2,1,30,0,0
15001,-100,4,2,1,30,0,0
16072,-200,4,2,1,30,0,0
16715,-100,4,2,1,30,0,0
17358,-200,4,2,1,30,0,0
19072,-100,4,2,1,30,0,0
19501,-200,4,2,1,30,0,0
20358,-100,4,2,1,30,0,0
22501,-200,4,2,1,30,0,0
23572,-100,4,2,1,30,0,0
25929,-133.333333333333,4,2,1,30,0,0
27001,-200,4,2,1,30,0,0
27644,-133.333333333333,4,2,1,30,0,0
28715,-100,4,2,1,30,0,0
29572,-133.333333333333,4,2,1,30,0,0
30429,-100,4,2,1,30,0,0
30751,-133.333333333333,4,2,1,30,0,0
31287,-100,4,2,1,30,0,0
31929,-133.333333333333,4,2,1,30,0,0
33001,-200,4,2,1,30,0,0
33858,-133.333333333333,4,2,1,30,0,0
35572,-100,4,2,1,30,0,0
36644,-133.333333333333,4,2,1,30,0,0
39001,-71.4285714285714,4,2,1,50,0,0
41465,-55.5555555555556,4,2,1,50,0,0
41787,-71.4285714285714,4,2,1,50,0,0
44894,-55.5555555555556,4,2,1,50,0,0
45215,-71.4285714285714,4,2,1,50,0,0
48322,-55.5555555555556,4,2,1,50,0,0
48644,-71.4285714285714,4,2,1,50,0,0
51751,-55.5555555555556,4,2,1,50,0,0
52072,-71.4285714285714,4,2,1,50,0,0
55179,-55.5555555555556,4,2,1,50,0,0
55501,-71.4285714285714,4,2,1,50,0,0
58608,-55.5555555555556,4,2,1,50,0,0
58929,-71.4285714285714,4,2,1,50,0,0
62037,-55.5555555555556,4,2,1,50,0,0
62358,-71.4285714285714,4,2,1,50,0,0
65465,-55.5555555555556,4,2,1,50,0,0
66429,-76.9230769230769,4,2,1,50,0,0
68144,-90.9090909090909,4,2,1,50,0,0
69858,-76.9230769230769,4,2,1,50,0,0
71358,-90.9090909090909,4,2,1,50,0,0
72322,-83.3333333333333,4,2,1,50,0,0
73287,-76.9230769230769,4,2,1,50,0,0
74358,-66.6666666666667,4,2,1,50,0,0
75001,-90.9090909090909,4,2,1,50,0,0
76715,-76.9230769230769,4,2,1,50,0,0
78215,-90.9090909090909,4,2,1,50,0,0
80144,-71.4285714285714,4,2,1,50,0,0
81644,-83.3333333333333,4,2,1,50,0,0
83572,-71.4285714285714,4,2,1,50,0,0
85179,-62.5,4,2,1,50,0,0
85394,-83.3333333333333,4,2,1,50,0,0
87000,-71.4285714285714,4,2,1,50,0,0
88501,-83.3333333333333,4,2,1,50,0,0
90429,-71.4285714285714,4,2,1,50,0,0
91929,-62.5,4,2,1,50,0,0
92251,-83.3333333333333,4,2,1,50,0,0
93858,-71.4285714285714,4,2,1,60,0,0
95465,-62.5,4,2,1,60,0,0
96001,-83.3333333333333,4,2,1,60,0,0
97715,-100,4,2,1,60,0,0
97929,-71.4285714285714,4,2,1,60,0,0
98894,-62.5,4,2,1,60,0,0
99537,-83.3333333333333,4,2,1,60,0,0
100715,-71.4285714285714,4,2,1,60,0,0
102322,-62.5,4,2,1,60,0,0
102965,-83.3333333333333,4,2,1,60,0,0
104572,-100,4,2,1,60,0,0
104787,-71.4285714285714,4,2,1,60,0,0
105751,-62.5,4,2,1,60,0,0
106394,-83.3333333333333,4,2,1,60,0,0
107572,-71.4285714285714,4,2,1,60,0,0
109179,-62.5,4,2,1,60,0,0
109822,-83.3333333333333,4,2,1,60,0,0
111429,-100,4,2,1,60,0,0
111644,-71.4285714285714,4,2,1,60,0,0
112608,-62.5,4,2,1,60,0,0
113251,-83.3333333333333,4,2,1,60,0,0
114429,-71.4285714285714,4,2,1,60,0,0
116037,-62.5,4,2,1,60,0,0
116679,-83.3333333333333,4,2,1,60,0,0
118287,-100,4,2,1,60,0,0
118501,-71.4285714285714,4,2,1,60,0,0
119465,-62.5,4,2,1,60,0,0
120108,-83.3333333333333,4,2,1,60,0,0
121287,-250,4,2,1,30,0,0
122144,-200,4,2,1,30,0,0
124287,-166.666666666667,4,2,1,30,0,0
124715,-200,4,2,1,30,0,0
126429,-166.666666666667,4,2,1,30,0,0
127608,-142.857142857143,4,2,1,30,0,0
127929,-200,4,2,1,30,0,0
128465,-133.333333333333,4,2,1,30,0,0
129001,-200,4,2,1,30,0,0
130929,-166.666666666667,4,2,1,30,0,0
131358,-133.333333333333,4,2,1,30,0,0
136715,-133.333333333333,4,2,1,5,0,0
137358,-133.333333333333,4,2,1,60,0,0
138429,-62.5,4,2,1,60,0,0
138751,-83.3333333333333,4,2,1,60,0,0
140144,-71.4285714285714,4,2,1,60,0,0
141429,-83.3333333333333,4,2,1,60,0,0
141858,-62.5,4,2,1,60,0,0
142179,-71.4285714285714,4,2,1,60,0,0
142501,-83.3333333333333,4,2,1,60,0,0
143572,-71.4285714285714,4,2,1,60,0,0
144215,-83.3333333333333,4,2,1,60,0,0
145287,-62.5,4,2,1,60,0,0
145715,-71.4285714285714,4,2,1,60,0,0
145929,-83.3333333333333,4,2,1,60,0,0
146358,-71.4285714285714,4,2,1,60,0,0
147001,-71.4285714285714,4,2,1,60,0,0
147215,-100,4,2,1,60,0,0
147858,-83.3333333333333,4,2,1,60,0,0
148072,-71.4285714285714,4,2,1,60,0,0
148287,-100,4,2,1,60,0,0
148715,-62.5,4,2,1,60,0,0
149144,-83.3333333333333,4,2,1,60,0,0
150429,-71.4285714285714,4,2,1,60,0,0
152787,-83.3333333333333,4,2,1,60,0,0
153001,-71.4285714285714,4,2,1,60,0,0
153215,-62.5,4,2,1,60,0,0
153858,-71.4285714285714,4,2,1,60,0,0
155037,-76.9230769230769,4,2,1,60,0,0
156429,-83.3333333333333,4,2,1,60,0,0
157286,-71.4285714285714,4,2,1,60,0,0
158572,-83.3333333333333,4,2,1,60,0,0
159001,-71.4285714285714,4,2,1,60,0,0
159429,-83.3333333333333,4,2,1,60,0,0
159644,-66.6666666666667,4,2,1,60,0,0
160715,-71.4285714285714,4,2,1,60,0,0
162429,-62.5,4,2,1,60,0,0
162858,-71.4285714285714,4,2,1,60,0,0
163287,-83.3333333333333,4,2,1,60,0,0
164144,-71.4285714285714,4,2,1,60,0,0
165858,-62.5,4,2,1,60,0,0
166287,-71.4285714285714,4,2,1,60,0,0
167465,-62.5,4,2,1,60,0,0
168322,-71.4285714285714,4,2,1,60,0,0
169072,-83.3333333333333,4,2,1,60,0,0
169287,-62.5,4,2,1,60,0,0
169715,-71.4285714285714,4,2,1,60,0,0
170894,-62.5,4,2,1,60,0,0
171751,-71.4285714285714,4,2,1,60,0,0
172715,-62.5,4,2,1,60,0,0
173144,-71.4285714285714,4,2,1,60,0,0
174322,-62.5,4,2,1,60,0,0
175179,-71.4285714285714,4,2,1,60,0,0
175929,-83.3333333333333,4,2,1,60,0,0
176144,-62.5,4,2,1,60,0,0
176572,-71.4285714285714,4,2,1,60,0,0
179572,-58.8235294117647,4,2,1,60,0,0
179894,-71.4285714285714,4,2,1,60,0,0
181287,-62.5,4,2,1,60,0,0
181822,-71.4285714285714,4,2,1,60,0,0
183001,-62.5,4,2,1,60,0,0
183537,-71.4285714285714,4,2,1,60,0,0
184715,-62.5,4,2,1,60,0,0
185144,-71.4285714285714,4,2,1,60,0,0
188144,-62.5,4,2,1,60,0,0
188679,-71.4285714285714,4,2,1,60,0,0
189751,-62.5,4,2,1,60,0,0
190287,-71.4285714285714,4,2,1,60,0,0
191572,-58.8235294117647,4,2,1,60,0,0
193287,-71.4285714285714,4,2,1,50,0,0
193608,-83.3333333333333,4,2,1,50,0,0
194894,-71.4285714285714,4,2,1,50,0,0
195215,-83.3333333333333,4,2,1,50,0,0
196608,-71.4285714285714,4,2,1,50,0,0
196929,-83.3333333333333,4,2,1,50,0,0
198322,-66.6666666666667,4,2,1,50,0,0
200144,-71.4285714285714,4,2,1,50,0,0
200572,-83.3333333333333,4,2,1,50,0,0
201751,-71.4285714285714,4,2,1,50,0,0
202072,-83.3333333333333,4,2,1,50,0,0
203358,-71.4285714285714,4,2,1,50,0,0
203787,-83.3333333333333,4,2,1,50,0,0
205179,-66.6666666666667,4,2,1,50,0,0
207001,-71.4285714285714,4,2,1,50,0,0
207644,-83.3333333333333,4,2,1,50,0,0
208608,-71.4285714285714,4,2,1,50,0,0
208929,-83.3333333333333,4,2,1,50,0,0
212037,-66.6666666666667,4,2,1,50,0,0
213858,-71.4285714285714,4,2,1,50,0,0
214501,-83.3333333333333,4,2,1,50,0,0
215465,-71.4285714285714,4,2,1,50,0,0
215787,-83.3333333333333,4,2,1,50,0,0
218894,-66.6666666666667,4,2,1,50,0,0
220715,-125,4,2,1,30,0,0
223072,-83.3333333333333,4,2,1,30,0,0
223394,-125,4,2,1,30,0,0
223715,-83.3333333333333,4,2,1,30,0,0
226179,-125,4,2,1,30,0,0
226715,-100,4,2,1,45,0,0
227572,-62.5,4,2,1,60,0,0
228429,-76.9230769230769,4,2,1,60,0,0
231001,-66.6666666666667,4,2,1,60,0,0
231429,-76.9230769230769,4,2,1,60,0,0
232608,-66.6666666666667,4,2,1,60,0,0
234429,-71.4285714285714,4,2,1,50,0,0
234751,-83.3333333333333,4,2,1,50,0,0
236894,-100,4,2,1,50,0,0
237858,-76.9230769230769,4,2,1,50,0,0
239358,-62.5,4,2,1,50,0,0
240001,-83.3333333333333,4,2,1,50,0,0
241287,-66.6666666666667,4,2,1,50,0,0
242572,-100,4,2,1,50,0,0
242787,-66.6666666666667,4,2,1,50,0,0
243429,-90.9090909090909,4,2,1,50,0,0
244179,-76.9230769230769,4,2,1,50,0,0
244715,-71.4285714285714,4,2,1,50,0,0
248144,-83.3333333333333,4,2,1,40,0,0
248358,-100,4,2,1,40,0,0
249644,-83.3333333333333,4,2,1,40,0,0
250072,-100,4,2,1,40,0,0
251572,-83.3333333333333,4,2,1,40,0,0
252429,-100,4,2,1,40,0,0
253072,-76.9230769230769,4,2,1,40,0,0
253501,-100,4,2,1,40,0,0
255001,-71.4285714285714,4,2,1,40,0,0
255215,-90.9090909090909,4,2,1,40,0,0
256501,-76.9230769230769,4,2,1,40,0,0
256929,-90.9090909090909,4,2,1,40,0,0
257465,-71.4285714285714,4,2,1,40,0,0
257787,-100,4,2,1,40,0,0
258429,-83.3333333333333,4,2,1,40,0,0
259287,-71.4285714285714,4,2,1,40,0,0
260144,-62.5,4,2,1,40,0,0
260787,-62.5,4,2,1,50,0,0
261858,-58.8235294117647,4,2,1,65,0,1
263144,-71.4285714285714,4,2,1,65,0,1
264322,-55.5555555555556,4,2,1,65,0,1
265072,-71.4285714285714,4,2,1,65,0,1
268715,-58.8235294117647,4,2,1,65,0,1
270429,-71.4285714285714,4,2,1,65,0,1
271179,-55.5555555555556,4,2,1,65,0,1
271930,-71.4285714285714,4,2,1,65,0,1
275573,-71.4285714285714,4,2,1,30,0,0
277178,-62.5,4,2,1,30,0,0
279428,-71.4285714285714,4,2,1,30,0,0
280608,-62.5,4,2,1,30,0,0
282429,-71.4285714285714,4,2,1,30,0,0
284037,-62.5,4,2,1,30,0,0
289287,-100,4,2,1,30,0,0
292715,-111.111111111111,4,2,1,30,0,0
296144,-125,4,2,1,30,0,0
299572,-142.857142857143,4,2,1,30,0,0
303001,-200,4,2,1,25,0,0
305358,-200,4,2,1,25,0,0
305929,-250.000000000001,4,2,1,20,0,0
306429,-333.333333333334,4,2,1,20,0,0
309001,-333.333333333334,4,2,1,5,0,0

[Colours]
Combo1 : 60,148,73
Combo2 : 223,115,131
Combo3 : 201,160,182
Combo4 : 102,172,92

[HitObjects]
391,85,827,5,2,0:0:0:0:
391,85,1264,2,0,L|387:129,1,45,2|0,0:0|0:0,0:0:0:0:
371,219,1647,5,2,0:0:0:0:
302,186,1883,1,2,0:0:0:0:
237,229,2119,2,0,P|232:250|233:273,1,45,2|2,0:0|0:0,0:0:0:0:
309,304,2613,2,0,P|314:282|313:259,1,45,2|2,0:0|0:0,0:0:0:0:
189,160,3081,5,2,0:0:0:0:
120,193,3333,1,2,0:0:0:0:
55,149,3643,2,0,P|51:138|52:126,1,22.5,2|0,0:0|0:0,0:0:0:0:
138,87,4043,2,0,P|140:76|139:64,1,22.5,2|0,0:0|0:0,0:0:0:0:
244,141,4465,2,0,P|241:130|241:118,1,22.5,2|0,0:0|0:0,0:0:0:0:
332,76,4965,2,0,P|334:65|334:53,1,22.5,2|0,0:0|0:0,0:0:0:0:
423,145,5482,5,2,0:0:0:0:
343,254,6094,5,2,0:0:0:0:
397,313,6753,5,2,0:0:0:0:
378,348,7610,5,2,0:0:0:0:
417,78,11573,6,0,P|402:95|397:116,1,45,2|0,2:0|2:0,2:0:0:0:
259,20,12644,6,0,P|287:54|297:97,1,90,2|0,2:0|2:0,2:0:0:0:
205,142,13287,2,0,P|176:107|166:64,1,90,2|0,2:0|2:0,2:0:0:0:
143,273,14358,6,0,P|98:272|55:261,1,90,2|0,0:0|0:0,0:0:0:0:
41,357,15001,2,0,P|86:358|130:370,1,90,2|0,0:0|0:0,0:0:0:0:
372,376,16073,6,0,P|380:331|392:288,1,90,2|0,0:0|0:0,0:0:0:0:
428,181,16715,6,0,P|446:193|469:193,1,45,2|0,0:0|0:0,0:0:0:0:
496,118,17037,2,0,P|478:106|456:106,1,45,2|0,0:0|0:0,0:0:0:0:
315,162,17358,6,0,P|309:140|309:117,1,45,2|0,0:0|0:0,0:0:0:0:
203,97,17787,2,0,P|221:56|225:11,1,90,2|0,0:0|0:0,0:0:0:0:
71,84,18430,5,2,0:0:0:0:
71,84,18537,2,0,P|64:116|77:146,1,67.5,2|0,0:0|0:0,0:0:0:0:
171,277,19073,6,0,P|175:254|173:232,1,45,2|0,0:0|0:0,0:0:0:0:
324,187,19501,6,0,P|390:194|455:177,1,135,2|0,0:0|0:0,0:0:0:0:
455,48,20358,2,0,P|428:100|394:109,1,90,2|0,0:0|0:0,0:0:0:0:
390,97,20680,2,0,P|331:100|306:75,1,90,2|0,0:0|0:0,0:0:0:0:
221,70,21001,2,0,P|194:17|160:8,1,90,2|0,0:0|0:0,0:0:0:0:
156,21,21323,2,0,P|97:17|72:42,1,90,2|0,0:0|0:0,0:0:0:0:
0,1,21644,1,2,0:0:0:0:
76,142,21858,6,0,P|83:162|83:185,1,45,2|0,0:0|0:0,0:0:0:0:
222,261,22501,6,0,P|244:263|265:256,1,45,2|0,0:0|0:0,0:0:0:0:
317,314,22930,2,0,P|354:290|399:290,1,90,2|0,0:0|0:0,0:0:0:0:
407,296,23465,1,0,0:0:0:0:
407,296,23573,6,0,P|414:275|410:253,1,45,2|0,0:0|0:0,0:0:0:0:
493,205,23894,2,0,P|478:188|457:180,1,45,2|0,0:0|0:0,0:0:0:0:
453,63,24215,5,2,0:0:0:0:
431,101,24323,1,2,0:0:0:0:
392,124,24430,1,2,0:0:0:0:
348,123,24537,1,2,0:0:0:0:
307,150,24644,5,2,0:0:0:0:
287,138,24751,1,2,0:0:0:0:
275,119,24858,1,2,0:0:0:0:
276,97,24965,1,2,0:0:0:0:
245,59,25073,5,2,0:0:0:0:
251,49,25180,1,2,0:0:0:0:
257,41,25287,6,0,P|274:26|317:18,1,45,2|0,0:0|0:0,0:0:0:0:
340,97,25608,2,0,P|323:112|280:120,1,45,2|0,0:0|0:0,0:0:0:0:
194,140,25930,6,0,P|128:124|61:128,2,135.000005149842,2|2|2,0:0|0:0|0:0,0:0:0:0:
160,210,27001,2,0,P|109:213|63:202,1,90,2|0,0:0|0:0,0:0:0:0:
0,175,27644,5,0,0:0:0:0:
71,204,27858,2,0,L|113:198,1,33.7500012874604,2|0,0:0|0:0,0:0:0:0:
174,263,28180,2,0,L|132:269,1,33.7500012874604,2|0,0:0|0:0,0:0:0:0:
250,194,28501,5,0,0:0:0:0:
250,194,28608,1,0,0:0:0:0:
250,194,28715,2,0,P|273:136|262:44,1,135,2|0,0:0|0:0,0:0:0:0:
229,0,29573,5,0,0:0:0:0:
285,69,29787,2,0,P|289:135|265:198,1,135,2|0,0:0|0:0,0:0:0:0:
350,284,30430,6,0,P|326:273|273:260,1,45,2|0,0:0|0:0,0:0:0:0:
165,360,30751,2,0,P|227:334|276:332,1,101.250003862381,2|0,0:0|0:0,0:0:0:0:
385,252,31287,6,0,P|447:277|489:279,1,90,2|0,0:0|0:0,0:0:0:0:
469,279,31608,1,2,0:0:0:0:
469,279,31715,1,2,0:0:0:0:
390,140,31930,5,0,0:0:0:0:
379,154,32037,1,0,0:0:0:0:
369,137,32144,1,2,0:0:0:0:
359,150,32251,1,0,0:0:0:0:
296,87,32465,6,0,L|292:60,6,16.8750006437302
249,10,33001,2,0,P|247:63|171:17,1,180,0|2,0:0|0:0,0:0:0:0:
155,104,34073,5,0,0:0:0:0:
82,85,34394,1,0,0:0:0:0:
9,101,34715,1,0,0:0:0:0:
98,162,34930,5,2,0:0:0:0:
91,169,35037,2,0,P|72:201|61:266,1,101.250003862381
106,337,35573,6,0,P|139:322|158:320,1,45,2|0,0:0|0:0,0:0:0:0:
333,376,36215,2,0,P|300:361|281:359,1,45,2|0,0:0|0:0,0:0:0:0:
371,283,36537,1,2,0:0:0:0:
371,283,36644,2,0,P|406:285|439:265,1,67.5000025749208
512,139,37073,5,0,0:0:0:0:
512,139,37180,1,0,0:0:0:0:
512,139,37287,1,2,0:0:0:0:
394,179,37501,5,0,0:0:0:0:
394,179,37608,1,0,0:0:0:0:
114,74,37930,5,2,0:0:0:0:
114,74,38037,1,0,0:0:0:0:
14,141,38251,5,2,0:0:0:0:
14,141,38358,1,2,0:0:0:0:
14,141,38465,1,0,0:0:0:0:
42,159,38573,5,2,0:0:0:0:
12,175,38680,1,2,0:0:0:0:
40,193,38787,1,2,0:0:0:0:
10,209,38894,1,2,0:0:0:0:
30,238,39001,6,0,L|15:368,1,125.999996154785,6|0,1:2|0:0,0:0:0:0:
155,235,39323,1,0,1:2:0:0:
141,207,39430,2,0,L|133:269,1,62.9999980773926,10|0,0:0|0:0,0:0:0:0:
223,337,39644,5,0,1:2:0:0:
229,344,39751,1,0,0:0:0:0:
249,370,39858,1,2,0:0:0:0:
258,368,39965,1,2,0:0:0:0:
290,363,40073,1,2,1:2:0:0:
293,354,40180,1,2,0:0:0:0:
295,345,40287,2,0,L|299:282,1,62.9999980773926,8|0,0:0|1:2,0:0:0:0:
505,174,40501,5,2,0:0:0:0:
482,244,40608,1,2,0:0:0:0:
475,253,40715,2,0,P|402:260|372:218,1,125.999996154785,0|0,1:2|0:0,0:0:0:0:
259,78,41037,5,0,1:2:0:0:
244,76,41144,1,10,0:0:0:0:
203,120,41251,1,2,0:0:0:0:
218,178,41358,1,2,0:0:0:0:
275,194,41465,2,0,P|354:178|426:142,1,161.999995056153,2|0,0:0|0:0,0:0:0:0:
449,19,41787,2,0,P|430:43|400:45,1,62.9999980773926,0|0,1:2|0:0,0:0:0:0:
184,88,42001,1,8,0:0:0:0:
171,43,42108,1,0,1:2:0:0:
209,13,42215,2,0,P|239:16|256:41,1,62.9999980773926
228,257,42430,6,0,P|164:267|102:279,1,125.999996154785,2|0,1:2|0:0,0:0:0:0:
132,144,42751,1,0,1:2:0:0:
165,171,42858,2,0,P|133:175|102:181,1,62.9999980773926,10|0,0:0|0:0,0:0:0:0:
15,46,43073,5,0,1:2:0:0:
21,39,43180,1,0,0:0:0:0:
41,13,43287,1,2,0:0:0:0:
50,15,43394,1,2,0:0:0:0:
82,20,43501,1,2,1:2:0:0:
85,29,43608,1,2,0:0:0:0:
87,38,43715,2,0,L|91:101,1,62.9999980773926,8|0,0:0|1:2,0:0:0:0:
173,181,43930,5,2,0:0:0:0:
237,221,44037,1,2,0:0:0:0:
249,225,44144,2,0,B|292:211|333:244|333:244|336:191|386:161,1,188.999994232178,0|0,1:2|1:2,0:0:0:0:
505,140,44573,5,10,0:0:0:0:
512,80,44680,1,2,0:0:0:0:
461,49,44787,1,2,1:2:0:0:
411,82,44894,2,0,P|406:162|415:243,1,161.999995056153,2|0,0:0|0:0,0:0:0:0:
468,360,45215,2,0,P|451:334|421:326,1,62.9999980773926,0|0,1:2|0:0,0:0:0:0:
238,267,45430,1,8,0:0:0:0:
287,275,45537,1,0,1:2:0:0:
304,319,45644,2,0,P|287:344|257:352,1,62.9999980773926
118,384,45858,6,0,P|120:321|128:258,1,125.999996154785,2|0,1:2|0:0,0:0:0:0:
1,295,46180,1,0,1:2:0:0:
25,330,46287,2,0,P|26:298|30:267,1,62.9999980773926,10|0,0:0|0:0,0:0:0:0:
147,104,46501,5,0,1:2:0:0:
153,97,46608,1,0,0:0:0:0:
173,71,46715,1,2,0:0:0:0:
182,73,46823,1,2,0:0:0:0:
214,78,46930,1,2,1:2:0:0:
217,87,47037,1,2,0:0:0:0:
219,96,47144,2,0,L|223:159,1,62.9999980773926,8|0,0:0|1:2,0:0:0:0:
323,297,47358,5,2,0:0:0:0:
388,258,47465,1,2,0:0:0:0:
394,248,47573,2,0,P|383:191|320:173,1,125.999996154785,0|0,1:2|0:0,0:0:0:0:
204,254,47894,5,0,1:2:0:0:
197,264,48001,1,10,0:0:0:0:
134,254,48108,1,2,0:0:0:0:
72,245,48215,1,2,1:2:0:0:
10,236,48323,2,0,P|88:209|168:198,1,161.999995056153,2|0,0:0|0:0,0:0:0:0:
247,148,48644,2,0,P|259:119|254:89,1,62.9999980773926,0|0,1:2|0:0,0:0:0:0:
160,3,48858,1,8,0:0:0:0:
112,25,48965,1,0,1:2:0:0:
108,73,49073,2,0,P|126:98|155:108,1,62.9999980773926
451,56,49287,6,0,P|389:43|328:26,1,125.999996154785,2|0,1:2|0:0,0:0:0:0:
395,166,49608,1,0,1:2:0:0:
426,141,49715,2,0,P|395:134|364:126,1,62.9999980773926,10|0,0:0|0:0,0:0:0:0:
197,200,49930,5,0,1:2:0:0:
191,207,50037,1,0,2:0:0:0:
169,231,50144,1,2,2:0:0:0:
172,239,50251,1,2,2:0:0:0:
183,270,50358,1,2,1:2:0:0:
192,271,50465,1,2,2:0:0:0:
201,272,50573,2,0,L|263:264,1,62.9999980773926,8|0,2:0|1:2,2:0:0:0:
488,278,50787,5,2,0:0:0:0:
423,234,50894,1,2,0:0:0:0:
414,234,51001,2,0,B|331:254|379:346|284:355,1,188.999994232178,0|0,1:2|1:2,0:0:0:0:
63,269,51430,5,10,0:0:0:0:
51,327,51537,1,2,0:0:0:0:
100,362,51644,1,2,1:2:0:0:
152,333,51751,2,0,L|145:171,1,161.999995056153,2|0,0:0|0:0,0:0:0:0:
32,47,52073,2,0,P|55:69|85:72,1,62.9999980773926,0|0,1:2|0:0,0:0:0:0:
241,114,52287,1,8,0:0:0:0:
200,94,52394,1,0,1:2:0:0:
199,49,52501,2,0,P|221:27|251:24,1,62.9999980773926
449,71,52715,6,0,L|436:196,1,125.999996154785,6|0,1:2|0:0,0:0:0:0:
321,91,53037,1,0,1:2:0:0:
353,72,53144,2,0,L|346:134,1,62.9999980773926,10|0,0:0|0:0,0:0:0:0:
300,269,53358,5,0,1:2:0:0:
294,276,53465,1,0,2:0:0:0:
274,302,53573,1,2,2:0:0:0:
266,301,53680,1,2,2:0:0:0:
234,295,53787,1,2,1:2:0:0:
231,287,53894,1,2,2:0:0:0:
228,277,54001,2,0,L|225:214,1,62.9999980773926,8|0,2:0|1:2,2:0:0:0:
173,124,54215,5,2,0:0:0:0:
120,174,54323,1,2,0:0:0:0:
111,181,54430,2,0,P|80:175|53:159,1,62.9999980773926,0|0,1:2|0:0,0:0:0:0:
19,246,54644,2,0,P|49:251|76:267,1,62.9999980773926,2|0,0:0|1:2,0:0:0:0:
171,340,54858,5,10,0:0:0:0:
221,376,54965,1,2,0:0:0:0:
283,378,55073,1,2,1:2:0:0:
335,344,55180,2,0,P|345:264|365:186,1,161.999995056153,2|0,0:0|0:0,0:0:0:0:
290,56,55501,2,0,L|287:118,1,62.9999980773926,0|0,1:2|0:0,0:0:0:0:
128,217,55715,1,8,0:0:0:0:
169,234,55823,1,0,1:2:0:0:
206,208,55930,2,0,P|201:176|189:147,1,62.9999980773926
0,47,56144,6,0,L|124:27,1,125.999996154785,2|0,1:2|0:0,0:0:0:0:
55,150,56465,1,0,1:2:0:0:
33,126,56573,2,0,L|95:116,1,62.9999980773926,10|0,0:0|0:0,0:0:0:0:
246,144,56787,5,0,1:2:0:0:
252,151,56894,1,0,2:0:0:0:
274,174,57001,1,2,2:0:0:0:
271,183,57108,1,2,2:0:0:0:
260,214,57215,1,2,1:2:0:0:
251,215,57323,1,2,2:0:0:0:
242,216,57430,2,0,L|180:208,1,62.9999980773926,8|0,2:0|1:2,2:0:0:0:
5,299,57644,5,2,0:0:0:0:
56,351,57751,1,2,0:0:0:0:
65,357,57858,2,0,P|137:355|260:373,1,188.999994232178,0|0,1:2|1:2,0:0:0:0:
446,225,58287,5,10,0:0:0:0:
444,284,58394,1,2,0:0:0:0:
389,307,58501,1,2,1:2:0:0:
345,267,58608,2,0,L|334:105,1,161.999995056153,2|0,0:0|0:0,0:0:0:0:
222,50,58930,5,2,1:2:0:0:
179,67,59037,1,2,0:0:0:0:
139,102,59144,5,10,0:0:0:0:
182,119,59251,1,2,1:2:0:0:
222,154,59358,5,2,0:0:0:0:
179,171,59465,1,2,0:0:0:0:
152,208,59573,22,0,P|138:146|142:84,1,125.999996154785,2|0,1:2|0:0,0:0:0:0:
260,150,59894,1,0,1:2:0:0:
231,167,60001,2,0,P|225:136|227:105,1,62.9999980773926,10|0,0:0|0:0,0:0:0:0:
327,42,60215,5,0,1:2:0:0:
334,36,60323,1,0,2:0:0:0:
357,14,60430,1,2,2:0:0:0:
366,17,60537,1,2,2:0:0:0:
397,28,60644,1,2,1:2:0:0:
398,37,60751,1,2,2:0:0:0:
399,46,60858,2,0,L|391:108,1,62.9999980773926,8|0,2:0|1:2,2:0:0:0:
421,282,61073,5,2,0:0:0:0:
454,215,61180,1,2,0:0:0:0:
455,204,61287,2,0,P|394:191|342:223,1,125.999996154785,0|0,1:2|0:0,0:0:0:0:
166,225,61608,5,0,1:2:0:0:
156,219,61715,1,10,0:0:0:0:
125,167,61823,1,2,0:0:0:0:
143,109,61930,1,2,1:2:0:0:
200,84,62037,2,0,B|254:95|254:95|274:154|243:197,1,161.999995056153,2|0,0:0|0:0,0:0:0:0:
0,360,62358,2,0,P|15:339|45:344,1,62.9999980773926,2|0,1:2|0:0,0:0:0:0:
120,264,62573,1,8,0:0:0:0:
117,277,62680,2,0,P|152:325|210:313,1,125.999996154785,2|0,1:2|0:0,0:0:0:0:
293,330,63001,6,0,L|303:204,1,125.999996154785,2|0,1:2|0:0,0:0:0:0:
411,306,63323,1,2,1:2:0:0:
377,315,63430,2,0,L|382:252,1,62.9999980773926,8|0,0:0|0:0,0:0:0:0:
311,30,63644,2,0,B|282:52|252:44|252:44|280:56|292:92,1,125.999996154785,2|0,1:2|0:0,0:0:0:0:
390,52,63965,2,0,B|401:87|429:99|429:99|399:91|370:113,1,125.999996154785,2|0,0:0|0:0,0:0:0:0:
208,127,64287,6,0,P|207:158|216:188,1,62.9999980773926,10|0,0:0|1:2,0:0:0:0:
177,293,64501,1,0,0:0:0:0:
161,322,64608,1,2,0:0:0:0:
123,323,64715,2,0,P|64:300|2:298,1,125.999996154785,0|2,1:2|0:0,0:0:0:0:
16,165,65037,5,0,1:2:0:0:
28,168,65144,1,8,0:0:0:0:
69,123,65251,1,2,0:0:0:0:
63,62,65358,1,0,1:2:0:0:
13,27,65465,2,0,P|46:99|124:121,1,161.999995056153
288,156,65787,5,0,1:2:0:0:
352,120,65894,5,10,0:0:0:0:
354,47,66001,5,8,0:0:0:0:
291,10,66108,5,8,0:0:0:0:
227,44,66215,5,10,0:0:0:0:
225,118,66323,5,8,0:0:0:0:
289,84,66430,6,0,P|374:76|495:80,1,175.499991966248,14|0,1:2|1:2,0:0:0:0:
476,62,66858,1,10,0:0:0:0:
406,196,67073,1,2,1:2:0:0:
486,309,67287,1,2,0:0:0:0:
498,294,67394,1,2,0:0:0:0:
375,384,67608,1,2,0:0:0:0:
387,369,67715,2,0,P|345:355|267:348,1,116.999994644165,10|2,0:0|0:0,0:0:0:0:
121,383,68144,6,0,P|126:335|141:270,1,99.0000030212403,2|2,1:2|0:0,0:0:0:0:
133,255,68465,1,0,1:2:0:0:
118,280,68573,1,8,0:0:0:0:
285,216,68787,1,0,1:2:0:0:
300,241,68894,2,0,P|295:193|280:128,1,99.0000030212403,2|2,0:0|0:0,0:0:0:0:
238,83,69215,2,0,L|173:69,1,49.5000015106202,0|2,1:2|0:0,0:0:0:0:
292,24,69430,1,10,0:0:0:0:
316,41,69537,1,0,1:0:0:0:
344,31,69644,1,2,0:0:0:0:
189,72,69858,6,0,P|96:73|-5:81,1,175.499991966248,2|0,1:2|1:2,0:0:0:0:
24,65,70287,1,10,0:0:0:0:
126,162,70501,1,0,1:2:0:0:
19,272,70715,1,2,0:0:0:0:
35,277,70823,1,2,0:0:0:0:
19,286,70930,1,2,1:2:0:0:
35,291,71037,2,0,P|90:282|177:270,1,116.999994644165,2|0,0:0|1:2,0:0:0:0:
220,219,71358,5,2,0:0:0:0:
242,229,71465,1,2,0:0:0:0:
261,245,71573,2,0,P|277:289|280:369,1,99.0000030212403,0|0,1:2|0:0,0:0:0:0:
435,384,72001,5,10,0:0:0:0:
456,365,72108,1,2,0:0:0:0:
463,341,72215,1,0,1:0:0:0:
473,351,72323,2,0,P|459:300|457:246,1,107.999996704102,2|2,0:0|0:0,0:0:0:0:
408,162,72644,2,0,P|391:183|367:195,1,53.9999983520508,0|2,1:2|0:0,0:0:0:0:
384,79,72858,1,10,0:0:0:0:
397,43,72965,1,0,1:0:0:0:
428,21,73073,1,2,0:0:0:0:
280,71,73287,6,0,B|181:68|218:35|106:38,1,175.499991966248,2|0,1:2|1:2,0:0:0:0:
94,29,73715,1,10,0:0:0:0:
209,148,73930,1,2,1:2:0:0:
92,229,74144,1,2,0:0:0:0:
82,214,74251,1,2,0:0:0:0:
66,205,74358,2,0,P|34:205|-15:226,1,67.5000025749208,2|2,1:2|0:0,0:0:0:0:
29,328,74573,2,0,P|61:328|110:307,1,67.5000025749208,10|0,0:0|1:2,0:0:0:0:
208,242,74787,5,2,0:0:0:0:
208,242,74894,1,2,0:0:0:0:
208,242,75001,2,0,P|196:324|193:365,1,99.0000030212403,0|0,1:2|0:0,0:0:0:0:
197,369,75323,1,0,1:2:0:0:
182,343,75430,1,10,0:0:0:0:
390,264,75644,1,0,1:2:0:0:
408,286,75751,2,0,P|402:335|394:384,1,99.0000030212403,2|2,0:0|0:0,0:0:0:0:
322,348,76073,2,0,L|257:334,1,49.5000015106202,0|2,1:2|0:0,0:0:0:0:
288,261,76287,1,10,0:0:0:0:
293,231,76394,1,0,0:0:0:0:
299,202,76501,1,2,0:0:0:0:
190,27,76715,6,0,P|283:28|382:13,1,175.499991966248,2|0,1:2|1:2,0:0:0:0:
378,6,77144,1,10,0:0:0:0:
240,127,77358,1,2,1:2:0:0:
422,198,77573,1,2,0:0:0:0:
437,190,77680,1,2,0:0:0:0:
448,203,77787,1,2,1:2:0:0:
433,211,77894,2,0,P|432:278|447:340,1,116.999994644165,2|0,0:0|1:2,0:0:0:0:
359,373,78215,5,2,0:0:0:0:
359,373,78323,1,2,0:0:0:0:
359,373,78430,2,0,P|343:328|338:278,1,99.0000030212403,0|0,1:2|0:0,0:0:0:0:
341,247,78751,1,0,1:2:0:0:
327,273,78858,1,10,0:0:0:0:
305,141,79073,5,2,1:2:0:0:
280,157,79180,1,2,0:0:0:0:
246,166,79287,1,2,0:0:0:0:
207,155,79394,1,2,0:0:0:0:
187,114,79501,1,2,1:2:0:0:
223,80,79608,1,2,0:0:0:0:
266,111,79715,1,10,0:0:0:0:
246,166,79823,1,2,1:2:0:0:
180,193,79930,1,2,0:0:0:0:
114,157,80037,1,2,0:0:0:0:
32,178,80144,6,0,P|8:254|9:373,1,188.999994232178,6|0,1:2|1:2,0:0:0:0:
43,351,80573,1,10,0:0:0:0:
19,321,80680,1,0,0:0:0:0:
25,283,80787,1,2,1:2:0:0:
11,247,80894,1,0,0:0:0:0:
29,214,81001,1,2,0:0:0:0:
14,179,81108,1,2,0:0:0:0:
31,145,81215,1,2,1:2:0:0:
19,109,81323,1,2,0:0:0:0:
19,109,81430,2,0,P|24:79|32:42,1,62.9999980773926,10|0,0:0|1:2,0:0:0:0:
191,17,81644,5,2,0:0:0:0:
191,17,81751,2,0,P|199:56|210:164,1,107.999996704102,2|0,0:0|0:0,0:0:0:0:
202,155,82073,1,2,0:0:0:0:
334,89,82287,1,10,0:0:0:0:
339,57,82394,1,2,0:0:0:0:
377,221,82608,1,2,0:0:0:0:
452,212,82823,1,2,0:0:0:0:
512,263,83037,1,2,0:0:0:0:
506,277,83144,1,10,0:0:0:0:
429,287,83358,1,2,0:0:0:0:
299,381,83573,5,2,1:2:0:0:
296,368,83680,1,0,0:0:0:0:
294,355,83787,1,2,0:0:0:0:
292,342,83894,1,0,1:2:0:0:
290,329,84001,2,0,L|279:267,1,62.9999980773926,10|0,0:0|0:0,0:0:0:0:
209,384,84215,2,0,L|198:322,1,62.9999980773926,2|0,1:2|0:0,0:0:0:0:
120,275,84430,1,2,0:0:0:0:
74,298,84537,1,2,0:0:0:0:
46,255,84644,1,2,1:2:0:0:
92,232,84751,1,2,0:0:0:0:
92,232,84858,2,0,L|107:159,1,62.9999980773926,10|0,0:0|1:2,0:0:0:0:
225,54,85073,5,2,0:0:0:0:
225,54,85180,2,0,B|310:44|282:85|364:78,1,144,2|0,0:0|0:0,0:0:0:0:
390,52,85501,1,2,0:0:0:0:
512,198,85715,1,10,0:0:0:0:
485,172,85823,1,2,0:0:0:0:
324,256,86037,1,2,0:0:0:0:
459,310,86251,1,2,0:0:0:0:
364,350,86465,1,2,0:0:0:0:
357,362,86573,1,10,0:0:0:0:
418,215,86787,1,2,0:0:0:0:
232,251,87001,6,0,P|219:170|224:57,1,188.999994232178,2|0,1:2|1:2,0:0:0:0:
202,94,87430,1,10,0:0:0:0:
227,122,87537,1,0,0:0:0:0:
218,159,87644,1,2,1:2:0:0:
243,187,87751,1,0,0:0:0:0:
232,223,87858,1,2,0:0:0:0:
258,245,87965,1,2,0:0:0:0:
248,281,88073,1,2,1:2:0:0:
274,314,88180,1,2,0:0:0:0:
274,314,88287,2,0,P|284:348|284:377,1,62.9999980773926,10|0,0:0|1:2,0:0:0:0:
121,293,88501,5,2,0:0:0:0:
121,293,88608,2,0,P|48:275|8:269,1,107.999996704102,2|0,0:0|0:0,0:0:0:0:
31,241,88930,1,2,0:0:0:0:
226,180,89144,1,10,0:0:0:0:
209,212,89251,1,2,0:0:0:0:
77,96,89465,1,2,0:0:0:0:
152,70,89680,1,2,0:0:0:0:
95,23,89894,1,2,0:0:0:0:
95,23,90001,1,10,0:0:0:0:
21,42,90215,1,2,0:0:0:0:
230,104,90430,5,2,1:2:0:0:
242,103,90537,1,0,0:0:0:0:
254,101,90644,1,2,0:0:0:0:
266,100,90751,1,0,1:2:0:0:
278,98,90858,2,0,L|267:177,1,62.9999980773926,10|0,0:0|0:0,0:0:0:0:
388,76,91073,2,0,L|396:13,1,62.9999980773926,2|0,1:2|0:0,0:0:0:0:
438,188,91287,1,2,0:0:0:0:
484,165,91394,1,2,0:0:0:0:
512,208,91501,1,2,1:2:0:0:
466,231,91608,1,2,0:0:0:0:
466,231,91715,2,0,L|450:319,1,62.9999980773926,10|0,0:0|1:2,0:0:0:0:
338,384,91930,5,2,0:0:0:0:
338,384,92037,2,0,B|318:323|343:300|324:241,1,144,2|0,0:0|0:0,0:0:0:0:
305,208,92358,1,2,0:0:0:0:
204,51,92573,1,10,0:0:0:0:
223,18,92680,1,2,0:0:0:0:
233,29,92787,5,2,1:2:0:0:
193,46,92894,1,2,0:0:0:0:
150,41,93001,1,2,0:0:0:0:
113,17,93108,1,2,0:0:0:0:
70,9,93215,1,2,1:2:0:0:
28,22,93323,1,2,0:0:0:0:
7,60,93430,5,10,0:0:0:0:
49,123,93537,5,10,0:0:0:0:
18,192,93644,5,10,0:0:0:0:
62,252,93751,5,10,0:0:0:0:
32,323,93858,6,0,P|27:354|38:384,1,62.9999980773926,6|0,1:2|0:0,0:0:0:0:
135,376,94073,2,0,P|139:345|128:315,1,62.9999980773926,2|0,0:0|1:2,0:0:0:0:
193,217,94287,1,10,0:0:0:0:
196,226,94394,1,0,0:0:0:0:
202,235,94501,2,0,P|233:236|261:224,1,62.9999980773926,2|0,1:2|0:0,0:0:0:0:
429,174,94715,5,2,0:0:0:0:
424,211,94823,1,2,0:0:0:0:
420,249,94930,1,2,1:2:0:0:
416,286,95037,1,2,0:0:0:0:
426,319,95144,5,10,0:0:0:0:
421,270,95251,1,0,1:2:0:0:
416,221,95358,1,2,0:0:0:0:
409,170,95465,6,0,P|408:99|423:28,1,144,2|0,0:0|0:0,0:0:0:0:
438,15,95787,1,2,0:0:0:0:
286,202,96001,1,10,0:0:0:0:
272,210,96108,2,0,P|246:212|220:219,1,53.9999983520508,2|0,0:0|1:2,0:0:0:0:
309,113,96323,1,2,0:0:0:0:
264,322,96537,1,2,0:0:0:0:
115,157,96751,1,2,0:0:0:0:
99,168,96858,2,0,L|91:221,1,53.9999983520508,10|0,0:0|1:2,0:0:0:0:
127,293,97073,2,0,L|119:346,1,53.9999983520508,2|0,0:0|0:0,0:0:0:0:
29,102,97287,5,2,1:2:0:0:
63,75,97394,1,2,0:0:0:0:
106,66,97501,1,2,0:0:0:0:
148,78,97608,1,2,1:2:0:0:
180,107,97715,2,0,P|188:129|188:151,1,45,10|0,0:0|0:0,0:0:0:0:
295,97,97930,6,0,P|284:126|282:157,1,62.9999980773926,2|0,1:2|0:0,0:0:0:0:
335,297,98144,5,2,0:0:0:0:
381,320,98251,1,2,0:0:0:0:
409,277,98358,1,2,1:2:0:0:
455,290,98465,1,2,0:0:0:0:
484,272,98573,2,0,P|496:243|495:211,1,62.9999980773926,10|0,0:0|1:2,0:0:0:0:
490,80,98787,5,2,0:0:0:0:
490,80,98894,2,0,L|346:102,1,144,2|0,0:0|0:0,0:0:0:0:
356,117,99215,1,2,0:0:0:0:
177,206,99430,1,10,0:0:0:0:
190,212,99537,2,0,P|217:208|240:194,1,53.9999983520508,2|0,0:0|1:2,0:0:0:0:
265,353,99751,1,2,0:0:0:0:
33,313,99965,5,2,0:0:0:0:
39,330,100073,1,2,1:2:0:0:
63,287,100180,1,2,0:0:0:0:
35,246,100287,1,10,0:0:0:0:
59,203,100394,1,2,1:2:0:0:
31,162,100501,1,2,0:0:0:0:
55,121,100608,1,2,0:0:0:0:
27,77,100715,6,0,L|25:14,1,62.9999980773926,2|0,1:2|0:0,0:0:0:0:
134,117,100930,2,0,L|134:54,1,62.9999980773926,2|0,0:0|0:0,0:0:0:0:
235,19,101144,1,10,0:0:0:0:
242,9,101251,1,0,0:0:0:0:
252,3,101358,2,0,P|283:9|309:27,1,62.9999980773926,2|0,1:2|0:0,0:0:0:0:
352,176,101573,5,2,0:0:0:0:
393,163,101680,1,2,0:0:0:0:
434,150,101787,1,2,1:2:0:0:
476,138,101894,1,2,0:0:0:0:
495,170,102001,5,10,0:0:0:0:
437,165,102108,1,0,1:2:0:0:
380,160,102215,1,2,0:0:0:0:
324,155,102323,6,0,P|252:145|182:128,1,144,2|0,0:0|0:0,0:0:0:0:
163,150,102644,1,2,0:0:0:0:
396,13,102858,1,10,0:0:0:0:
403,25,102965,2,0,P|403:52|392:77,1,53.9999983520508,2|0,0:0|1:2,0:0:0:0:
275,229,103180,1,2,0:0:0:0:
174,33,103394,1,2,0:0:0:0:
144,52,103501,1,0,1:2:0:0:
138,59,103608,1,2,1:2:0:0:
132,66,103715,2,0,L|125:119,1,53.9999983520508,10|0,0:0|1:2,0:0:0:0:
183,174,103930,2,0,L|188:227,1,53.9999983520508
40,317,104144,5,2,1:2:0:0:
71,347,104251,1,2,0:0:0:0:
111,363,104358,1,2,0:0:0:0:
154,363,104465,1,2,1:2:0:0:
194,347,104573,2,0,P|215:341|238:337,1,45,10|0,0:0|0:0,0:0:0:0:
287,261,104787,6,0,P|319:260|351:265,1,62.9999980773926,0|0,1:2|0:0,0:0:0:0:
478,343,105001,5,2,0:0:0:0:
451,314,105108,1,2,0:0:0:0:
471,281,105215,1,2,1:2:0:0:
443,251,105323,1,2,0:0:0:0:
464,209,105430,2,0,P|469:178|478:148,1,62.9999980773926,10|0,0:0|1:2,0:0:0:0:
406,10,105644,5,0,0:0:0:0:
406,10,105751,2,0,P|369:67|301:62,1,144
280,70,106073,1,2,0:0:0:0:
67,168,106287,1,10,0:0:0:0:
81,158,106394,2,0,P|89:132|89:105,1,53.9999983520508,2|0,0:0|1:2,0:0:0:0:
180,266,106608,1,2,0:0:0:0:
324,171,106823,1,2,0:0:0:0:
459,340,107037,1,2,0:0:0:0:
427,325,107144,1,10,0:0:0:0:
383,342,107251,1,2,1:2:0:0:
337,357,107358,1,10,0:1:0:0:
270,332,107465,1,10,0:1:0:0:
243,261,107573,6,0,P|246:229|262:203,1,62.9999980773926,2|0,1:2|0:0,0:0:0:0:
380,242,107787,2,0,P|377:274|362:301,1,62.9999980773926,2|0,0:0|1:2,0:0:0:0:
185,315,108001,1,10,0:0:0:0:
176,318,108108,1,0,0:0:0:0:
166,318,108215,2,0,P|150:292|147:262,1,62.9999980773926,2|0,1:2|0:0,0:0:0:0:
231,128,108430,5,2,0:0:0:0:
275,121,108537,1,2,0:0:0:0:
319,114,108644,1,2,1:2:0:0:
362,108,108751,1,2,0:0:0:0:
382,130,108858,5,10,0:0:0:0:
330,122,108965,1,0,1:2:0:0:
278,114,109073,1,2,0:0:0:0:
226,106,109180,6,0,P|149:121|145:195,1,144,2|0,0:0|0:0,0:0:0:0:
126,200,109501,1,2,0:0:0:0:
306,329,109715,1,10,0:0:0:0:
292,337,109823,2,0,P|265:334|241:322,1,53.9999983520508,2|0,0:0|1:2,0:0:0:0:
253,205,110037,1,2,0:0:0:0:
392,344,110251,1,2,0:0:0:0:
501,199,110465,1,2,0:0:0:0:
510,214,110573,2,0,L|456:205,1,53.9999983520508,10|0,0:0|1:2,0:0:0:0:
389,241,110787,2,0,L|335:232,1,53.9999983520508,2|0,0:0|0:0,0:0:0:0:
106,160,111001,5,2,1:2:0:0:
141,187,111108,1,2,0:0:0:0:
186,195,111215,1,2,0:0:0:0:
228,180,111323,1,2,1:2:0:0:
258,145,111430,2,0,P|261:123|262:101,1,45,10|0,0:0|0:0,0:0:0:0:
364,83,111644,6,0,P|354:53|335:28,1,62.9999980773926,2|0,1:2|0:0,0:0:0:0:
1,38,111858,5,2,0:0:0:0:
47,15,111965,1,2,0:0:0:0:
75,58,112073,1,2,1:2:0:0:
121,45,112180,1,2,0:0:0:0:
150,63,112287,2,0,P|162:92|161:124,1,62.9999980773926,10|0,0:0|1:2,0:0:0:0:
21,329,112501,5,2,0:0:0:0:
21,329,112608,2,0,P|82:317|172:322,1,144,2|0,0:0|0:0,0:0:0:0:
172,336,112930,1,2,0:0:0:0:
315,186,113144,1,10,0:0:0:0:
299,194,113251,2,0,P|287:218|288:244,1,53.9999983520508,2|0,0:0|1:2,0:0:0:0:
382,364,113465,1,2,0:0:0:0:
501,163,113680,5,2,0:0:0:0:
508,178,113787,1,2,1:2:0:0:
465,202,113894,1,2,0:0:0:0:
424,174,114001,1,10,0:0:0:0:
381,198,114108,1,2,1:2:0:0:
340,170,114215,1,2,0:0:0:0:
299,194,114323,1,2,0:0:0:0:
255,166,114430,6,0,P|224:161|194:171,1,62.9999980773926,2|0,1:2|0:0,0:0:0:0:
55,279,114644,2,0,P|85:283|115:273,1,62.9999980773926,2|0,0:0|1:2,0:0:0:0:
89,106,114858,1,10,0:0:0:0:
78,100,114965,1,0,0:0:0:0:
67,103,115073,2,0,L|75:173,1,62.9999980773926,2|0,1:2|0:0,0:0:0:0:
230,347,115287,5,2,0:0:0:0:
189,334,115394,1,2,0:0:0:0:
148,321,115501,1,2,1:2:0:0:
106,309,115608,1,2,0:0:0:0:
87,341,115715,5,10,0:0:0:0:
145,336,115823,1,0,1:2:0:0:
202,331,115930,1,2,0:0:0:0:
258,325,116037,6,0,P|267:263|287:182,1,144,2|0,0:0|0:0,0:0:0:0:
302,164,116358,1,2,0:0:0:0:
65,183,116573,1,10,0:0:0:0:
79,188,116680,2,0,P|93:210|98:237,1,53.9999983520508,2|0,0:0|1:2,0:0:0:0:
212,85,116894,1,2,0:0:0:0:
73,10,117108,1,2,0:0:0:0:
43,29,117215,1,0,1:2:0:0:
37,36,117323,1,2,1:2:0:0:
31,43,117430,2,0,L|24:96,1,53.9999983520508,10|0,0:0|1:2,0:0:0:0:
85,148,117644,2,0,L|78:201,1,53.9999983520508,2|0,0:0|0:0,0:0:0:0:
212,85,117858,5,2,1:2:0:0:
242,114,117965,1,2,0:0:0:0:
284,124,118073,1,2,0:0:0:0:
325,111,118180,1,2,1:2:0:0:
352,79,118287,2,0,P|357:56|366:36,1,45,10|0,0:0|0:0,0:0:0:0:
494,145,118501,6,0,P|487:114|475:85,1,62.9999980773926,2|0,1:2|0:0,0:0:0:0:
361,189,118715,5,2,0:0:0:0:
334,218,118823,1,2,0:0:0:0:
354,251,118930,1,2,1:2:0:0:
326,281,119037,1,2,0:0:0:0:
346,322,119144,2,0,P|375:335|406:337,1,62.9999980773926,10|0,0:0|1:2,0:0:0:0:
202,227,119358,5,2,0:0:0:0:
202,227,119465,2,0,P|203:295|141:323,1,144,2|0,0:0|0:0,0:0:0:0:
126,339,119787,1,2,0:0:0:0:
24,208,120001,1,10,0:0:0:0:
15,192,120108,2,0,P|17:165|32:142,1,53.9999983520508,2|0,0:0|1:2,0:0:0:0:
187,0,120323,1,2,0:0:0:0:
0,17,120537,1,2,0:0:0:0:
132,176,120751,5,2,0:0:0:0:
156,151,120858,5,10,0:0:0:0:
204,140,120965,5,2,1:2:0:0:
251,157,121073,5,10,1:0:0:0:
318,132,121180,5,10,1:0:0:0:
338,57,121287,6,0,P|328:22|327:-9,1,54,2|0,1:2|1:2,0:0:0:0:
495,63,122144,5,8,0:1:0:0:
495,63,122358,2,0,P|491:89|486:111,1,45,2|0,0:0|0:0,0:0:0:0:
478,124,122680,2,0,L|443:123,1,22.5,2|0,0:0|0:0,0:0:0:0:
379,182,123001,2,0,P|382:248|390:287,1,90,2|0,0:0|1:2,0:0:0:0:
238,384,123858,6,0,P|241:340|254:308,1,67.5,10|0,0:1|0:0,0:0:0:0:
248,318,124287,2,0,P|278:317|308:302,2,53.9999983520508,0|0|2,0:0|0:0|1:2,0:0:0:0:
153,83,125573,1,0,1:2:0:0:
206,136,125787,2,0,P|215:179|212:235,1,90,10|0,0:1|0:0,0:0:0:0:
154,278,126430,6,0,P|108:266|63:263,1,80.9999975280763,2|2,1:2|1:2,0:0:0:0:
234,381,127287,2,0,P|247:342|264:319,1,53.9999983520508,2|8,1:2|0:1,0:0:0:0:
269,326,127608,2,0,L|314:343,1,31.4999990386963,2|0,0:0|0:0,0:0:0:0:
415,250,127930,5,0,1:2:0:0:
417,232,128037,1,0,0:0:0:0:
429,244,128144,1,2,1:2:0:0:
431,226,128251,1,0,0:0:0:0:
500,148,128465,6,0,L|507:167,6,16.8750006437302,0|0|0|0|0|0|0,0:0|0:0|0:0|0:0|0:0|0:0|1:2,0:0:0:0:
500,148,129001,2,0,B|393:113|421:175|324:138,1,180,8|2,0:1|0:0,0:0:0:0:
225,78,130073,5,0,1:2:0:0:
229,152,130394,1,0,1:2:0:0:
233,226,130715,1,8,0:1:0:0:
137,186,130930,5,2,0:0:0:0:
137,186,131037,2,0,P|105:172|75:169,1,53.9999983520508
64,180,131358,2,0,P|59:154|48:100,1,67.5000025749208,8|2,0:1|1:2,0:0:0:0:
256,0,132215,5,2,1:2:0:0:
224,67,132537,1,10,0:1:0:0:
224,67,132644,1,10,0:1:0:0:
269,122,132858,1,0,1:2:0:0:
225,183,133073,1,8,0:1:0:0:
225,183,133180,1,8,0:1:0:0:
225,183,133287,1,2,1:0:0:0:
275,242,133501,1,8,0:1:0:0:
278,246,133608,1,8,0:1:0:0:
256,0,133930,5,2,1:2:0:0:
256,0,134037,1,10,0:1:0:0:
269,122,134251,1,10,0:1:0:0:
269,122,134358,1,10,0:1:0:0:
278,246,134573,1,2,1:2:0:0:
282,276,134680,1,2,1:2:0:0:
286,306,134787,1,2,1:2:0:0:
290,336,134894,1,2,1:2:0:0:
294,366,135001,1,2,1:2:0:0:
256,192,135108,12,0,136715,0:0:0:0:
22,230,137358,5,2,0:0:0:0:
49,238,137465,1,2,0:0:0:0:
80,232,137573,1,2,0:0:0:0:
108,209,137680,1,2,0:0:0:0:
123,171,137787,1,2,0:0:0:0:
116,128,137894,1,2,0:0:0:0:
132,83,138001,1,2,0:0:0:0:
178,60,138108,1,2,0:0:0:0:
231,71,138215,1,2,0:0:0:0:
252,125,138323,1,2,0:0:0:0:
339,98,138430,6,0,P|441:92|484:0,1,216,6|0,1:2|1:2,0:0:0:0:
409,21,138858,2,0,L|419:82,1,53.9999983520508,10|0,0:0|0:0,0:0:0:0:
441,158,139073,1,2,1:2:0:0:
441,158,139180,1,0,0:0:0:0:
441,158,139287,1,0,0:0:0:0:
324,280,139501,5,0,1:2:0:0:
350,246,139608,1,0,0:0:0:0:
393,246,139715,1,8,0:0:0:0:
422,277,139823,1,0,1:2:0:0:
421,320,139930,1,0,0:0:0:0:
387,347,140037,1,0,0:0:0:0:
367,384,140144,6,0,P|306:361|241:357,1,125.999996154785,2|0,1:2|0:0,0:0:0:0:
202,347,140465,1,0,1:2:0:0:
243,333,140573,1,8,0:0:0:0:
103,246,140787,1,2,1:2:0:0:
76,254,140894,1,0,0:0:0:0:
49,263,141001,2,0,L|130:272,1,62.9999980773926,2|0,0:0|0:0,0:0:0:0:
9,137,141215,2,0,L|-2:212,1,62.9999980773926,2|0,1:2|0:0,0:0:0:0:
143,77,141430,2,0,P|93:79|20:56,1,107.999996704102,10|2,0:0|0:0,0:0:0:0:
371,171,141858,6,0,P|431:175|523:141,1,144,2|0,1:2|0:0,0:0:0:0:
512,133,142180,1,0,1:2:0:0:
457,76,142287,2,0,P|446:47|442:4,1,62.9999980773926,8|0,0:0|0:0,0:0:0:0:
311,86,142501,1,0,1:2:0:0:
311,86,142608,1,0,0:0:0:0:
311,86,142715,2,0,P|340:88|373:93,1,53.9999983520508
246,5,142930,5,0,1:2:0:0:
223,36,143037,1,0,0:0:0:0:
186,26,143144,1,8,0:0:0:0:
161,43,143251,1,0,1:2:0:0:
141,34,143358,1,0,0:0:0:0:
125,42,143465,1,0,0:0:0:0:
56,3,143573,6,0,P|42:74|46:145,1,125.999996154785,2|0,1:2|0:0,0:0:0:0:
69,162,143894,1,0,1:2:0:0:
32,137,144001,1,8,0:0:0:0:
77,331,144215,1,0,1:2:0:0:
36,355,144323,2,0,P|26:310|23:231,1,107.999996704102
173,124,144644,5,0,1:2:0:0:
197,164,144751,1,0,0:0:0:0:
243,178,144858,1,8,0:0:0:0:
286,159,144965,1,0,1:2:0:0:
306,116,145073,1,0,0:0:0:0:
292,70,145180,1,0,0:0:0:0:
352,20,145287,5,2,1:2:0:0:
352,20,145394,2,0,P|335:85|339:176,1,144,0|0,0:0|1:2,0:0:0:0:
340,170,145662,1,0,0:0:0:0:
345,178,145715,2,0,P|362:200|383:241,1,62.9999980773926,10|0,0:0|0:0,0:0:0:0:
206,282,145930,2,0,P|256:255|309:252,1,107.999996704102,2|0,1:2|0:0,0:0:0:0:
512,366,146358,2,0,P|483:352|438:344,1,62.9999980773926,0|0,1:2|0:0,0:0:0:0:
377,375,146573,1,8,0:0:0:0:
377,375,146680,1,0,1:2:0:0:
377,375,146787,1,0,0:0:0:0:
464,204,147001,6,0,P|476:164|479:66,1,125.999996154785,2|0,1:2|0:0,0:0:0:0:
512,55,147323,1,0,1:2:0:0:
496,97,147430,1,8,0:0:0:0:
458,122,147537,1,0,0:0:0:0:
413,115,147644,6,0,L|349:89,1,45,2|0,1:2|0:0,0:0:0:0:
303,217,147858,6,0,L|239:191,1,53.9999983520508,2|0,0:0|0:0,0:0:0:0:
171,338,148073,6,0,L|107:312,1,62.9999980773926,2|0,1:2|0:0,0:0:0:0:
0,319,148287,6,0,P|5:285|36:235,1,90,10|2,0:0|0:0,0:0:0:0:
237,96,148715,6,0,P|332:85|453:39,1,216,2|0,1:2|1:2,0:0:0:0:
371,98,149144,2,0,P|342:83|306:71,1,53.9999983520508,8|0,0:0|0:0,0:0:0:0:
231,55,149358,1,0,1:2:0:0:
231,55,149465,1,0,0:0:0:0:
231,55,149573,1,0,0:0:0:0:
236,213,149787,5,0,1:2:0:0:
197,183,149894,1,0,0:0:0:0:
148,189,150001,1,8,0:0:0:0:
115,225,150108,1,0,1:2:0:0:
118,273,150215,1,0,0:0:0:0:
151,308,150323,1,0,0:0:0:0:
136,358,150430,6,0,P|201:338|269:337,1,125.999996154785,2|0,1:2|0:0,0:0:0:0:
295,361,150751,1,0,1:2:0:0:
271,324,150858,1,8,0:0:0:0:
402,174,151073,5,2,1:2:0:0:
387,212,151180,1,2,0:0:0:0:
402,255,151287,1,2,0:0:0:0:
454,275,151394,1,2,0:0:0:0:
504,246,151501,1,2,1:2:0:0:
512,189,151608,1,2,0:0:0:0:
466,129,151715,5,10,0:0:0:0:
400,158,151823,5,2,1:2:0:0:
325,137,151930,5,2,0:0:0:0:
288,62,152037,5,2,0:0:0:0:
213,29,152144,6,0,P|155:47|146:106,1,125.999996154785,6|0,1:2|0:0,0:0:0:0:
202,167,152465,1,0,1:2:0:0:
202,167,152573,1,10,0:0:0:0:
428,137,152787,2,0,P|428:164|434:191,1,53.9999983520508,2|0,1:2|0:0,0:0:0:0:
339,157,153001,2,0,P|338:126|332:95,1,62.9999980773926
512,217,153215,2,0,P|504:242|467:271,1,72,0|0,1:2|0:0,0:0:0:0:
395,341,153430,5,8,0:0:0:0:
381,312,153537,1,0,1:2:0:0:
353,295,153644,1,0,0:0:0:0:
322,296,153751,1,0,0:0:0:0:
295,314,153858,6,0,B|210:291|217:395|123:361,1,188.999994232178,2|0,1:2|1:2,0:0:0:0:
110,344,154287,1,8,0:0:0:0:
101,327,154394,1,0,0:0:0:0:
103,311,154501,2,0,P|133:309|158:328,1,62.9999980773926,2|0,1:2|0:0,0:0:0:0:
15,290,154715,2,0,P|-12:244|26:189,1,125.999996154785,2|0,0:0|1:2,0:0:0:0:
62,118,155037,1,2,0:0:0:0:
95,141,155144,2,0,P|153:139|211:132,1,116.999994644165,8|2,0:0|0:0,0:0:0:0:
400,13,155573,5,2,1:2:0:0:
400,13,156001,2,0,P|400:42|393:70,1,58.4999973220826,10|0,0:0|0:0,0:0:0:0:
503,25,156215,2,0,P|496:53|497:83,1,58.4999973220826,0|0,1:0|0:0,0:0:0:0:
454,166,156430,1,2,0:0:0:0:
441,157,156537,1,0,0:0:0:0:
428,164,156644,2,0,L|423:217,1,53.9999983520508,0|0,1:2|0:0,0:0:0:0:
318,276,156859,1,8,0:0:0:0:
305,285,156965,1,0,1:2:0:0:
292,278,157074,2,0,L|287:224,1,53.9999983520508
133,85,157287,6,0,P|180:123|176:183,1,125.999996154785,2|0,1:2|0:0,0:0:0:0:
129,244,157608,1,0,1:2:0:0:
117,242,157715,1,8,0:0:0:0:
272,124,157930,1,0,1:2:0:0:
284,126,158037,1,0,0:0:0:0:
400,345,158251,1,0,0:0:0:0:
419,315,158358,1,0,1:2:0:0:
404,289,158465,1,0,0:0:0:0:
414,264,158573,2,0,P|417:231|418:192,1,53.9999983520508,8|0,0:0|1:2,0:0:0:0:
458,50,158787,5,0,0:0:0:0:
463,64,158894,1,0,0:0:0:0:
438,101,159001,2,0,P|376:86|314:79,1,125.999996154785,2|0,1:2|0:0,0:0:0:0:
243,106,159323,1,0,1:2:0:0:
233,116,159430,2,0,P|223:141|220:168,1,53.9999983520508,10|0,0:0|0:0,0:0:0:0:
69,130,159644,2,0,P|114:180|126:245,1,135.000005149842,2|0,0:0|0:0,0:0:0:0:
109,319,159965,1,0,0:0:0:0:
109,319,160073,1,0,1:2:0:0:
272,281,160287,5,8,0:0:0:0:
314,272,160394,1,0,1:2:0:0:
346,309,160501,1,0,0:0:0:0:
383,301,160608,1,0,0:0:0:0:
409,333,160715,2,0,P|413:270|427:208,1,125.999996154785,0|0,1:2|0:0,0:0:0:0:
482,156,161037,1,0,1:2:0:0:
482,156,161144,1,8,0:0:0:0:
253,49,161358,6,0,P|262:80|268:111,1,62.9999980773926,2|0,1:2|0:0,0:0:0:0:
336,265,161573,2,0,P|342:234|350:203,1,62.9999980773926,2|0,0:0|0:0,0:0:0:0:
177,168,161787,1,0,1:2:0:0:
177,181,161894,1,0,0:0:0:0:
202,207,162001,2,0,P|196:176|188:146,1,62.9999980773926,10|0,0:0|1:2,0:0:0:0:
374,57,162215,2,0,P|365:88|360:119,1,62.9999980773926,2|0,0:0|0:0,0:0:0:0:
257,269,162430,6,0,P|188:249|106:248,1,144,2|0,1:2|0:0,0:0:0:0:
99,256,162751,1,0,1:2:0:0:
44,313,162858,2,0,P|39:344|47:375,1,62.9999980773926,8|0,0:0|0:0,0:0:0:0:
9,215,163073,1,0,1:2:0:0:
9,215,163180,1,0,0:0:0:0:
9,215,163287,2,0,L|16:161,1,53.9999983520508
100,103,163501,5,0,1:2:0:0:
123,72,163608,1,0,0:0:0:0:
160,82,163715,1,8,0:0:0:0:
185,65,163823,1,0,1:2:0:0:
205,74,163930,1,0,0:0:0:0:
221,66,164037,1,0,0:0:0:0:
298,75,164144,6,0,P|319:135|316:198,1,125.999996154785,2|0,1:2|0:0,0:0:0:0:
307,240,164465,1,0,1:2:0:0:
296,205,164573,1,8,0:0:0:0:
275,321,164787,5,2,1:2:0:0:
242,331,164894,1,2,0:0:0:0:
207,323,165001,1,2,0:0:0:0:
183,298,165108,1,2,0:0:0:0:
176,264,165215,1,2,1:2:0:0:
165,222,165323,1,2,0:0:0:0:
135,192,165430,5,10,0:0:0:0:
61,180,165537,5,10,0:0:0:0:
4,231,165644,5,10,0:0:0:0:
3,310,165751,5,10,0:0:0:0:
62,360,165858,6,0,P|122:342|207:341,1,144,6|2,1:2|0:0,0:0:0:0:
226,350,166180,1,0,1:2:0:0:
226,350,166287,2,0,P|238:320|236:289,1,62.9999980773926,10|0,0:0|0:0,0:0:0:0:
160,197,166501,2,0,P|148:226|150:257,1,62.9999980773926,2|0,1:2|0:0,0:0:0:0:
317,320,166715,1,2,0:0:0:0:
353,327,166823,1,2,0:0:0:0:
383,305,166930,1,2,1:2:0:0:
386,269,167037,1,2,0:0:0:0:
372,260,167144,2,0,P|372:228|380:198,1,62.9999980773926,10|0,0:0|1:2,0:0:0:0:
438,67,167358,5,2,0:0:0:0:
431,82,167465,2,0,P|375:105|302:63,1,144,2|0,0:0|0:0,0:0:0:0:
309,51,167787,1,2,0:0:0:0:
98,17,168001,1,10,0:0:0:0:
128,48,168108,1,2,0:0:0:0:
114,95,168215,1,2,1:2:0:0:
97,101,168323,2,0,P|66:97|37:86,1,62.9999980773926,2|0,0:0|0:0,0:0:0:0:
80,336,168644,1,2,1:2:0:0:
96,313,168751,1,2,0:0:0:0:
129,325,168858,1,10,0:0:0:0:
143,312,168965,1,2,1:2:0:0:
161,316,169073,2,0,P|187:315|214:319,1,53.9999983520508,2|0,0:0|0:0,0:0:0:0:
314,200,169287,6,0,L|329:347,1,144,2|2,1:2|0:0,0:0:0:0:
358,362,169608,1,0,1:2:0:0:
358,362,169715,2,0,P|387:371|418:369,1,62.9999980773926,10|0,0:0|0:0,0:0:0:0:
472,283,169930,2,0,P|442:273|411:275,1,62.9999980773926,2|0,1:2|0:0,0:0:0:0:
385,174,170144,1,2,0:0:0:0:
364,145,170251,1,2,0:0:0:0:
363,111,170358,1,2,1:2:0:0:
383,83,170465,1,2,0:0:0:0:
398,77,170573,2,0,P|428:78|467:103,1,62.9999980773926,10|0,0:0|1:2,0:0:0:0:
272,167,170787,5,2,0:0:0:0:
272,167,170894,2,0,L|127:155,1,144,2|0,0:0|0:0,0:0:0:0:
113,170,171215,1,2,0:0:0:0:
247,2,171430,1,10,0:0:0:0:
230,39,171537,1,2,0:0:0:0:
247,75,171644,1,2,1:2:0:0:
256,83,171751,2,0,P|285:72|310:53,1,62.9999980773926,2|0,0:0|0:0,0:0:0:0:
477,279,172073,1,2,1:2:0:0:
492,285,172180,1,2,0:0:0:0:
504,300,172287,2,0,P|497:330|477:353,1,62.9999980773926,10|0,0:0|1:2,0:0:0:0:
353,361,172501,5,2,0:0:0:0:
353,361,172608,1,0,0:0:0:0:
353,361,172715,2,0,P|281:351|209:350,1,144,2|2,1:2|0:0,0:0:0:0:
195,357,173037,1,0,1:2:0:0:
195,357,173144,2,0,P|191:326|181:297,1,62.9999980773926,10|0,0:0|0:0,0:0:0:0:
291,201,173358,2,0,P|280:230|276:261,1,62.9999980773926,2|0,1:2|0:0,0:0:0:0:
86,308,173573,1,2,0:0:0:0:
73,267,173680,1,2,0:0:0:0:
110,240,173787,1,2,1:2:0:0:
98,193,173894,1,2,0:0:0:0:
101,183,174001,2,0,L|93:118,1,62.9999980773926,10|0,0:0|0:0,0:0:0:0:
280,80,174215,5,2,0:0:0:0:
280,80,174323,2,0,L|422:61,1,144,2|0,0:0|0:0,0:0:0:0:
435,76,174644,1,2,0:0:0:0:
473,307,174858,1,10,0:0:0:0:
461,265,174965,1,2,0:0:0:0:
413,254,175073,1,2,1:2:0:0:
399,265,175180,2,0,P|386:293|381:324,1,62.9999980773926,2|0,0:0|0:0,0:0:0:0:
150,53,175501,1,2,1:2:0:0:
176,63,175608,1,2,0:0:0:0:
172,98,175715,1,10,0:0:0:0:
189,108,175823,1,2,1:2:0:0:
190,126,175930,2,0,P|197:150|200:177,1,53.9999983520508,2|0,0:0|0:0,0:0:0:0:
68,346,176144,6,0,P|105:288|173:304,1,144,2|2,1:2|0:0,0:0:0:0:
204,307,176465,1,0,1:2:0:0:
204,307,176573,2,0,P|214:337|209:368,1,62.9999980773926,10|0,0:0|0:0,0:0:0:0:
323,368,176787,2,0,P|318:337|328:308,1,62.9999980773926,2|0,1:2|0:0,0:0:0:0:
469,201,177001,1,2,0:0:0:0:
443,227,177108,1,2,0:0:0:0:
406,230,177215,1,2,1:2:0:0:
377,207,177323,1,2,0:0:0:0:
374,188,177430,2,0,P|371:119|371:118,1,62.9999980773926,10|0,0:0|1:2,0:0:0:0:
230,73,177644,5,2,0:0:0:0:
230,73,177751,2,0,P|164:60|111:1,1,125.999996154785,2|0,0:0|0:0,0:0:0:0:
100,26,178073,1,2,0:0:0:0:
23,313,178287,1,10,0:0:0:0:
21,297,178394,1,2,0:0:0:0:
0,278,178501,5,2,1:2:0:0:
13,267,178608,1,2,0:0:0:0:
31,265,178715,1,2,0:0:0:0:
51,270,178823,1,2,0:0:0:0:
72,286,178930,1,2,1:2:0:0:
89,311,179037,1,2,0:0:0:0:
120,329,179144,5,10,0:0:0:0:
168,326,179251,5,10,0:0:0:0:
207,288,179358,5,10,0:0:0:0:
221,218,179465,5,10,0:0:0:0:
171,161,179573,6,0,B|147:79|210:93|189:2,1,153.000002918243,6|2,1:2|0:0,0:0:0:0:
247,128,179894,1,0,1:2:0:0:
247,128,180001,2,0,P|278:132|308:121,1,62.9999980773926,10|0,0:0|0:0,0:0:0:0:
109,47,180215,1,2,1:2:0:0:
109,47,180323,2,0,P|78:43|48:54,1,62.9999980773926,2|0,0:0|0:0,0:0:0:0:
68,163,180537,2,0,P|38:174|7:170,1,62.9999980773926,2|0,0:0|1:2,0:0:0:0:
141,254,180751,1,2,0:0:0:0:
141,254,180858,2,0,B|122:317|171:306|154:377,1,125.999996154785,10|2,0:0|0:0,0:0:0:0:
148,384,181180,1,2,0:0:0:0:
79,353,181287,6,0,P|44:346|-10:341,1,72,2|0,1:2|0:0,0:0:0:0:
214,274,181501,2,0,P|249:267|303:262,1,72,0|0,1:2|0:0,0:0:0:0:
383,294,181715,5,10,0:0:0:0:
390,314,181823,1,2,0:0:0:0:
398,288,181930,1,2,1:2:0:0:
408,307,182037,2,0,P|411:338|412:382,1,62.9999980773926,2|0,0:0|0:0,0:0:0:0:
485,248,182251,2,0,P|488:279|489:323,1,62.9999980773926,2|0,0:0|1:2,0:0:0:0:
409,196,182465,1,2,0:0:0:0:
409,196,182573,2,0,P|405:164|404:133,1,62.9999980773926,10|0,0:0|1:2,0:0:0:0:
507,35,182787,5,2,0:0:0:0:
503,47,182894,1,2,0:0:0:0:
497,60,183001,2,0,P|467:52|428:29,1,72,2|0,1:2|0:0,0:0:0:0:
319,84,183215,2,0,P|289:92|252:114,1,72,0|0,0:0|1:2,0:0:0:0:
167,56,183430,1,10,0:0:0:0:
153,27,183537,1,2,0:0:0:0:
144,66,183644,1,2,1:2:0:0:
130,37,183751,2,0,P|70:22|47:23,1,62.9999980773926,2|0,0:0|0:0,0:0:0:0:
61,142,183965,2,0,P|29:146|0:157,1,62.9999980773926,2|0,0:0|1:2,0:0:0:0:
143,209,184180,1,2,0:0:0:0:
143,209,184287,2,0,P|137:278|147:353,1,125.999996154785,10|2,0:0|0:0,0:0:0:0:
136,347,184608,1,2,0:0:0:0:
212,381,184715,6,0,P|247:375|283:375,1,72,2|0,1:2|0:0,0:0:0:0:
395,311,184930,2,0,P|395:346|397:383,1,72,0|0,0:0|1:2,0:0:0:0:
291,268,185144,1,10,0:0:0:0:
273,274,185251,1,2,0:0:0:0:
288,285,185358,1,2,1:2:0:0:
310,284,185465,2,0,P|310:249|309:213,1,62.9999980773926,2|0,0:0|0:0,0:0:0:0:
475,217,185680,2,0,P|475:252|477:288,1,62.9999980773926,2|0,0:0|1:2,0:0:0:0:
323,136,185894,1,2,0:0:0:0:
323,136,186001,2,0,P|389:148|449:115,1,125.999996154785,10|0,0:0|0:0,0:0:0:0:
276,21,186430,5,2,1:2:0:0:
244,41,186537,1,2,0:0:0:0:
208,28,186644,1,2,0:0:0:0:
174,45,186751,1,2,1:2:0:0:
144,20,186858,1,10,0:0:0:0:
149,38,186965,1,0,0:0:0:0:
151,56,187073,1,2,1:2:0:0:
150,75,187180,2,0,P|118:81|74:96,1,62.9999980773926,2|0,0:0|0:0,0:0:0:0:
207,146,187394,2,0,P|239:152|283:167,1,62.9999980773926,2|0,0:0|1:2,0:0:0:0:
138,220,187608,1,2,0:0:0:0:
138,220,187715,2,0,P|80:222|-10:241,1,125.999996154785,10|0,0:0|0:0,0:0:0:0:
8,249,188037,1,2,0:0:0:0:
59,307,188144,6,0,P|49:360|48:391,1,72,2|0,1:2|0:0,0:0:0:0:
163,368,188358,2,0,P|170:332|174:297,1,72,0|0,0:0|1:2,0:0:0:0:
59,156,188573,1,10,0:0:0:0:
40,174,188680,1,2,0:0:0:0:
32,149,188787,1,2,1:2:0:0:
16,168,188894,2,0,P|8:132|6:102,1,62.9999980773926,2|0,0:0|0:0,0:0:0:0:
105,62,189108,2,0,P|102:30|95:0,1,62.9999980773926,2|0,0:0|1:2,0:0:0:0:
220,121,189323,1,2,0:0:0:0:
220,121,189430,2,0,P|222:89|229:59,1,62.9999980773926,10|0,0:0|1:2,0:0:0:0:
349,9,189644,5,2,0:0:0:0:
373,24,189751,1,2,0:0:0:0:
401,18,189858,2,0,P|446:11|494:11,1,72,2|0,1:2|0:0,0:0:0:0:
496,97,190073,2,0,P|503:142|503:190,1,72,0|0,0:0|1:2,0:0:0:0:
437,237,190287,1,10,0:0:0:0:
475,246,190394,1,2,0:0:0:0:
445,278,190501,1,2,1:2:0:0:
407,269,190608,2,0,P|377:258|346:251,1,62.9999980773926,2|0,0:0|0:0,0:0:0:0:
325,364,190823,2,0,P|294:370|264:381,1,62.9999980773926,2|0,0:0|1:2,0:0:0:0:
174,313,191037,1,2,0:0:0:0:
174,313,191144,2,0,P|87:342|37:336,1,125.999996154785,10|0,0:0|0:0,0:0:0:0:
38,333,191465,1,2,0:0:0:0:
89,254,191573,6,0,P|53:247|7:243,1,76.5000014591217,2|0,1:2|0:0,0:0:0:0:
211,216,191787,2,0,P|249:212|286:205,1,76.5000014591217,0|0,0:0|1:2,0:0:0:0:
346,51,192001,5,10,0:0:0:0:
346,51,192108,1,2,0:0:0:0:
412,112,192215,5,2,1:2:0:0:
377,128,192323,1,2,0:0:0:0:
330,130,192430,1,2,0:0:0:0:
283,103,192537,1,2,0:0:0:0:
258,44,192644,1,2,1:2:0:0:
190,17,192751,1,2,0:0:0:0:
113,33,192858,5,10,0:0:0:0:
63,92,192965,5,10,0:0:0:0:
60,173,193073,5,10,0:0:0:0:
122,236,193180,5,10,0:0:0:0:
218,209,193287,6,0,P|292:204|362:207,1,125.999996154785,6|2,1:2|0:0,0:0:0:0:
374,219,193608,1,0,1:2:0:0:
345,233,193715,1,10,0:0:0:0:
435,352,193930,1,2,1:2:0:0:
282,384,194144,1,2,0:0:0:0:
301,365,194251,1,2,0:0:0:0:
278,349,194358,1,2,1:2:0:0:
256,365,194465,2,0,L|190:354,1,53.9999983520508,2|8,0:0|0:0,0:0:0:0:
48,384,194787,5,2,0:0:0:0:
48,384,194894,2,0,P|49:318|80:265,1,125.999996154785,2|0,0:0|0:0,0:0:0:0:
156,228,195215,2,0,P|162:259|174:296,1,53.9999983520508,2|0,0:0|1:2,0:0:0:0:
79,181,195430,1,10,0:0:0:0:
53,172,195537,1,2,0:0:0:0:
232,121,195751,5,2,0:0:0:0:
74,59,195965,5,2,0:0:0:0:
246,13,196180,5,2,0:0:0:0:
286,40,196287,1,10,0:0:0:0:
334,43,196394,1,2,1:2:0:0:
337,56,196501,1,2,0:0:0:0:
507,26,196715,5,2,1:2:0:0:
510,16,196823,1,0,0:0:0:0:
474,1,196930,1,2,0:0:0:0:
438,14,197037,1,0,1:2:0:0:
418,46,197144,1,10,0:0:0:0:
421,83,197251,1,0,0:0:0:0:
449,107,197358,2,0,P|489:110|521:117,1,53.9999983520508,2|0,1:2|0:0,0:0:0:0:
372,170,197573,5,2,0:0:0:0:
407,203,197680,1,2,0:0:0:0:
404,251,197787,1,2,1:2:0:0:
362,276,197894,2,0,P|326:264|278:252,1,53.9999983520508,2|8,0:0|0:0,0:0:0:0:
169,168,198215,5,2,0:0:0:0:
125,231,198323,2,0,B|101:297|162:300|138:379,1,135.000005149842,2|0,0:0|0:0,0:0:0:0:
67,384,198644,1,2,0:0:0:0:
203,259,198858,1,10,0:0:0:0:
203,259,198965,1,2,0:0:0:0:
55,158,199180,5,2,0:0:0:0:
254,105,199394,5,2,0:0:0:0:
131,5,199608,5,2,0:0:0:0:
122,44,199715,1,10,0:0:0:0:
81,39,199823,1,2,1:2:0:0:
90,0,199930,1,2,0:0:0:0:
275,120,200144,6,0,P|345:107|412:111,1,125.999996154785,2|2,1:2|0:0,0:0:0:0:
431,113,200465,1,0,1:2:0:0:
402,129,200573,1,10,0:0:0:0:
306,19,200787,1,2,1:2:0:0:
212,163,201001,1,2,0:0:0:0:
226,185,201108,1,2,0:0:0:0:
199,185,201215,1,2,1:2:0:0:
182,164,201323,2,0,P|159:150|119:136,1,53.9999983520508,2|8,0:0|0:0,0:0:0:0:
0,301,201644,5,2,0:0:0:0:
0,301,201751,2,0,P|7:240|46:160,1,125.999996154785,2|0,0:0|0:0,0:0:0:0:
111,270,202073,2,0,P|108:243|102:216,1,53.9999983520508,2|0,0:0|1:2,0:0:0:0:
133,139,202287,1,10,0:0:0:0:
152,133,202394,1,2,0:0:0:0:
82,10,202608,5,2,0:0:0:0:
31,180,202823,5,2,0:0:0:0:
227,54,203037,5,2,0:0:0:0:
280,46,203144,1,10,0:0:0:0:
319,82,203251,1,2,1:2:0:0:
317,94,203358,1,2,0:0:0:0:
510,127,203573,5,2,1:2:0:0:
512,142,203680,1,0,0:0:0:0:
476,156,203787,1,2,0:0:0:0:
451,185,203894,1,0,1:2:0:0:
440,221,204001,1,10,0:0:0:0:
444,258,204108,1,0,0:0:0:0:
469,285,204215,2,0,P|429:288|399:305,1,53.9999983520508,2|0,1:2|0:0,0:0:0:0:
331,384,204430,5,2,0:0:0:0:
295,350,204537,1,2,0:0:0:0:
315,305,204644,1,2,1:2:0:0:
296,259,204751,2,0,L|309:200,1,53.9999983520508,2|8,0:0|0:0,0:0:0:0:
228,57,205073,5,2,0:0:0:0:
172,106,205180,2,0,B|99:119|120:63|26:74,1,135.000005149842,2|0,0:0|0:0,0:0:0:0:
0,132,205501,1,2,0:0:0:0:
222,223,205715,5,10,0:0:0:0:
222,223,205823,1,2,0:0:0:0:
165,270,205930,5,2,1:2:0:0:
148,253,206037,1,2,0:0:0:0:
114,245,206144,1,2,0:0:0:0:
72,252,206251,1,2,0:0:0:0:
38,286,206358,1,2,1:2:0:0:
36,340,206465,1,2,0:0:0:0:
70,383,206573,5,10,0:0:0:0:
19,349,206680,5,10,0:0:0:0:
15,277,206787,5,10,0:0:0:0:
74,226,206894,5,10,0:0:0:0:
151,217,207001,6,0,P|157:155|147:93,1,125.999996154785,6|2,1:2|0:0,0:0:0:0:
120,83,207323,1,0,1:2:0:0:
127,108,207430,1,10,0:0:0:0:
281,36,207644,2,0,P|271:61|267:88,1,53.9999983520508,2|0,1:2|0:0,0:0:0:0:
455,208,207858,1,2,0:0:0:0:
450,182,207965,1,2,0:0:0:0:
433,162,208073,1,2,1:2:0:0:
407,155,208180,2,0,P|380:158|354:168,1,53.9999983520508,2|8,0:0|0:0,0:0:0:0:
243,305,208501,5,2,0:0:0:0:
243,305,208608,2,0,P|271:348|336:317,1,125.999996154785,2|0,0:0|0:0,0:0:0:0:
396,372,208930,2,0,P|417:356|443:349,1,53.9999983520508,2|0,0:0|1:2,0:0:0:0:
488,269,209144,1,10,0:0:0:0:
506,285,209251,1,2,0:0:0:0:
374,109,209465,5,2,0:0:0:0:
270,206,209680,5,2,0:0:0:0:
135,90,209894,5,2,0:0:0:0:
106,128,210001,1,10,0:0:0:0:
124,174,210108,1,2,1:2:0:0:
134,186,210215,1,2,0:0:0:0:
5,26,210430,5,2,1:2:0:0:
2,16,210537,1,0,0:0:0:0:
38,1,210644,1,2,0:0:0:0:
74,14,210751,1,0,1:2:0:0:
94,46,210858,1,10,0:0:0:0:
91,83,210965,1,0,0:0:0:0:
63,107,211073,2,0,P|23:110|-9:117,1,53.9999983520508,2|0,1:2|0:0,0:0:0:0:
163,139,211287,5,2,0:0:0:0:
124,175,211394,1,2,0:0:0:0:
127,228,211501,1,2,1:2:0:0:
174,255,211608,2,0,P|213:241|266:228,1,53.9999983520508,2|8,0:0|0:0,0:0:0:0:
122,384,211930,5,2,0:0:0:0:
185,336,212037,2,0,P|249:314|315:296,1,135.000005149842,2|0,0:0|0:0,0:0:0:0:
364,234,212358,1,2,0:0:0:0:
457,355,212573,1,10,0:0:0:0:
457,355,212680,1,2,0:0:0:0:
459,175,212894,5,2,0:0:0:0:
357,357,213108,5,2,0:0:0:0:
325,69,213323,5,2,0:0:0:0:
293,103,213430,1,10,0:0:0:0:
311,148,213537,1,2,1:2:0:0:
278,181,213644,1,2,0:0:0:0:
60,294,213858,6,0,P|120:277|182:266,1,125.999996154785,2|2,1:2|0:0,0:0:0:0:
264,326,214180,1,0,1:2:0:0:
245,323,214287,1,10,0:0:0:0:
167,123,214501,2,0,P|154:147|143:172,1,53.9999983520508,2|0,1:2|0:0,0:0:0:0:
32,96,214715,1,2,0:0:0:0:
17,73,214823,1,2,0:0:0:0:
13,47,214930,1,2,1:2:0:0:
22,21,215037,2,0,P|48:17|74:9,1,53.9999983520508,2|8,0:0|0:0,0:0:0:0:
249,88,215358,5,2,0:0:0:0:
249,88,215465,2,0,P|213:136|245:186,1,125.999996154785,2|0,0:0|0:0,0:0:0:0:
318,268,215787,2,0,P|318:241|327:215,1,53.9999983520508,2|0,0:0|1:2,0:0:0:0:
413,155,216001,1,10,0:0:0:0:
424,187,216108,1,2,0:0:0:0:
258,357,216323,5,2,0:0:0:0:
128,240,216537,5,2,0:0:0:0:
4,345,216751,5,2,0:0:0:0:
39,364,216858,1,10,0:0:0:0:
81,358,216965,1,2,1:2:0:0:
91,345,217073,1,2,0:0:0:0:
189,151,217287,5,2,1:2:0:0:
196,137,217394,1,0,0:0:0:0:
227,125,217501,1,2,0:0:0:0:
264,130,217608,1,0,1:2:0:0:
298,160,217715,1,10,0:0:0:0:
345,180,217823,1,0,0:0:0:0:
388,153,217930,2,0,L|396:99,1,53.9999983520508,2|0,1:2|0:0,0:0:0:0:
485,246,218144,5,2,0:0:0:0:
512,279,218251,1,2,0:0:0:0:
503,324,218358,1,2,1:2:0:0:
463,349,218465,2,0,P|437:355|410:354,1,53.9999983520508,2|8,0:0|0:0,0:0:0:0:
231,314,218787,5,2,0:0:0:0:
291,357,218894,2,0,B|271:325|286:291|286:291|300:258|285:227,1,135.000005149842,2|0,0:0|0:0,0:0:0:0:
296,153,219215,1,2,0:0:0:0:
410,354,219430,1,10,0:0:0:0:
410,354,219537,1,2,0:0:0:0:
401,188,219751,5,2,0:0:0:0:
291,357,219965,5,2,0:0:0:0:
160,89,220180,5,2,0:0:0:0:
159,75,220287,5,10,0:0:0:0:
93,63,220394,5,10,0:0:0:0:
35,95,220501,5,10,0:0:0:0:
10,156,220608,5,10,0:0:0:0:
30,220,220715,6,0,P|102:216|28:195,1,216,2|0,1:2|0:0,0:0:0:0:
76,283,221573,2,0,L|83:329,1,36,8|0,0:1|0:0,0:0:0:0:
179,252,221787,2,0,L|172:298,1,36,0|0,1:2|0:0,0:0:0:0:
244,348,222001,1,10,0:1:0:0:
258,346,222108,1,0,0:0:0:0:
272,344,222215,1,0,0:0:0:0:
286,342,222323,1,0,0:0:0:0:
308,320,222430,5,2,1:2:0:0:
338,195,222644,1,0,1:2:0:0:
326,205,222751,2,0,P|308:201|291:194,1,36
82,98,223073,6,0,B|75:127|75:127|149:102,1,107.999996704102,10|0,0:1|0:0,0:0:0:0:
240,37,223394,1,10,0:1:0:0:
232,52,223501,2,0,P|231:69|234:87,1,36
316,116,223715,2,0,P|369:105|423:104,1,107.999996704102,10|0,0:1|0:0,0:0:0:0:
458,323,224144,5,2,1:2:0:0:
326,55,225001,5,2,0:0:0:0:
154,267,225858,5,2,0:0:0:0:
80,107,226180,5,0,1:2:0:0:
91,120,226287,2,0,L|126:125,1,36,8|0,0:1|0:0,0:0:0:0:
187,173,226501,2,0,L|222:178,1,36,0|0,1:2|0:0,0:0:0:0:
361,32,226715,6,0,P|353:99|348:167,2,135,2|10|2,0:0|0:1|0:0,0:0:0:0:
442,253,227573,6,0,P|295:270|169:328,1,288,6|8,1:2|0:0,0:0:0:0:
353,291,228215,1,2,1:2:0:0:
353,291,228323,1,2,0:0:0:0:
286,229,228430,2,0,P|259:216|231:210,2,58.4999973220826,2|2|0,0:0|0:0|1:2,0:0:0:0:
223,98,228751,1,2,0:0:0:0:
223,98,228858,2,0,P|194:103|168:116,1,58.4999973220826,10|0,0:0|1:2,0:0:0:0:
19,275,229073,5,2,0:0:0:0:
15,266,229180,1,2,0:0:0:0:
28,243,229287,2,0,P|38:270|39:299,1,58.4999973220826,0|0,1:2|0:0,0:0:0:0:
132,222,229501,2,0,P|132:251|143:278,1,58.4999973220826,0|0,0:0|1:2,0:0:0:0:
235,352,229715,5,10,0:0:0:0:
270,326,229823,1,2,0:0:0:0:
315,350,229930,1,2,1:2:0:0:
350,324,230037,2,0,P|408:326|466:335,1,116.999994644165,2|0,0:0|0:0,0:0:0:0:
512,237,230358,5,2,1:2:0:0:
505,225,230465,1,2,0:0:0:0:
467,210,230573,2,0,L|410:225,1,58.4999973220826,10|0,0:0|1:2,0:0:0:0:
286,138,230787,2,0,L|342:153,1,58.4999973220826,2|0,0:0|0:0,0:0:0:0:
448,0,231001,6,0,L|415:131,1,135.000005149842,2|2,1:2|0:0,0:0:0:0:
322,248,231323,1,0,1:2:0:0:
322,248,231430,2,0,P|288:253|256:243,1,58.4999973220826,10|0,0:0|0:0,0:0:0:0:
183,279,231644,2,0,P|162:252|154:220,1,58.4999973220826,2|0,1:2|0:0,0:0:0:0:
11,24,231858,5,2,0:0:0:0:
50,58,231965,1,2,0:0:0:0:
22,100,232073,1,2,1:2:0:0:
61,134,232180,1,2,0:0:0:0:
64,150,232287,2,0,L|56:208,1,58.4999973220826,10|0,0:0|1:2,0:0:0:0:
12,354,232501,5,2,0:0:0:0:
75,305,232608,2,0,B|204:240|207:391|347:315,1,270.000010299683,2|0,0:0|1:2,0:0:0:0:
404,252,233144,1,10,0:0:0:0:
393,263,233251,1,2,0:0:0:0:
376,245,233358,5,2,1:2:0:0:
385,204,233465,1,2,0:0:0:0:
364,166,233573,1,2,0:0:0:0:
312,149,233680,1,2,0:0:0:0:
250,187,233787,1,2,1:2:0:0:
259,261,233894,1,2,0:0:0:0:
200,313,234001,5,10,0:0:0:0:
124,277,234108,5,10,0:0:0:0:
159,203,234215,5,10,0:0:0:0:
95,144,234323,5,10,0:0:0:0:
169,113,234430,6,0,B|192:107|199:94|199:94|155:64|173:2|173:2|173:35|201:53,1,188.999994232178,6|0,1:2|1:2,0:0:0:0:
215,75,234858,1,10,0:0:0:0:
249,89,234965,1,0,0:0:0:0:
287,89,235073,1,2,1:2:0:0:
323,78,235180,1,0,0:0:0:0:
350,51,235287,1,2,0:0:0:0:
345,41,235394,1,2,0:0:0:0:
339,31,235501,1,2,1:2:0:0:
332,22,235608,1,2,0:0:0:0:
323,15,235715,2,0,P|290:18|260:23,1,53.9999983520508,10|0,0:0|1:2,0:0:0:0:
201,98,235930,5,2,0:0:0:0:
201,98,236037,2,0,P|211:150|217:204,1,107.999996704102,2|0,0:0|0:0,0:0:0:0:
215,227,236358,1,2,0:0:0:0:
112,133,236573,1,10,0:0:0:0:
85,126,236680,1,2,0:0:0:0:
91,150,236787,1,2,1:2:0:0:
64,143,236894,2,0,P|39:144|-1:153,1,45,2|0,0:0|0:0,0:0:0:0:
48,219,237108,2,0,P|22:244|11:262,1,45,2|0,0:0|1:2,0:0:0:0:
91,284,237323,1,2,0:0:0:0:
91,284,237430,2,0,P|76:323|89:383,1,90,10|0,0:0|0:0,0:0:0:0:
223,316,237858,5,2,1:2:0:0:
220,303,237965,1,0,0:0:0:0:
218,290,238073,1,2,0:0:0:0:
216,277,238180,1,0,1:2:0:0:
214,264,238287,2,0,L|205:203,1,58.4999973220826,10|0,0:0|0:0,0:0:0:0:
302,289,238501,2,0,L|293:228,1,58.4999973220826,2|0,1:2|0:0,0:0:0:0:
361,179,238715,1,2,0:0:0:0:
388,189,238823,1,2,0:0:0:0:
398,337,239037,1,2,0:0:0:0:
371,347,239144,1,10,0:0:0:0:
478,267,239358,5,2,0:0:0:0:
478,267,239465,2,0,B|516:162|441:169|489:46,1,216,2|0,0:0|0:0,0:0:0:0:
388,189,240001,1,8,0:0:0:0:
351,199,240108,1,0,0:0:0:0:
315,185,240215,1,0,1:2:0:0:
278,195,240323,2,0,P|252:190|210:186,1,53.9999983520508
310,104,240537,2,0,P|336:99|378:95,1,53.9999983520508,0|0,0:0|1:2,0:0:0:0:
259,23,240751,1,0,0:0:0:0:
259,23,240858,1,8,0:0:0:0:
153,96,241073,5,2,0:0:0:0:
153,96,241180,1,0,0:0:0:0:
153,96,241287,2,0,B|54:87|99:40|-18:33,1,135.000005149842,2|2,1:2|0:0,0:0:0:0:
66,37,241608,1,0,1:2:0:0:
92,57,241715,1,10,0:0:0:0:
96,90,241823,1,0,0:0:0:0:
74,116,241930,1,2,1:2:0:0:
41,124,242037,1,0,0:0:0:0:
18,148,242144,1,2,0:0:0:0:
18,161,242251,1,2,0:0:0:0:
18,174,242358,1,2,1:2:0:0:
18,187,242465,1,2,0:0:0:0:
19,200,242573,2,0,L|24:265,1,45,10|0,0:0|1:2,0:0:0:0:
87,335,242787,5,2,0:0:0:0:
87,335,242894,2,0,B|159:330|136:290|209:284,1,135.000005149842,2|0,0:0|0:0,0:0:0:0:
225,298,243215,1,2,1:2:0:0:
151,186,243430,1,10,0:0:0:0:
125,200,243537,1,2,0:0:0:0:
95,201,243644,1,2,1:2:0:0:
67,189,243751,2,0,P|60:166|56:125,1,49.5000015106202,2|0,0:0|0:0,0:0:0:0:
107,59,243965,2,0,P|120:25|140:-4,1,49.5000015106202,2|0,0:0|1:2,0:0:0:0:
188,117,244180,1,2,0:0:0:0:
188,117,244287,2,0,B|235:114|235:114|251:96|251:96|300:91,1,116.999994644165,10|2,0:0|0:0,0:0:0:0:
440,62,244715,5,2,1:2:0:0:
453,63,244823,1,0,0:0:0:0:
466,65,244930,1,2,0:0:0:0:
480,66,245037,1,0,1:2:0:0:
493,68,245144,2,0,P|497:24|492:-11,1,62.9999980773926,10|0,0:0|0:0,0:0:0:0:
366,91,245358,2,0,P|362:135|367:170,1,62.9999980773926,2|0,1:2|0:0,0:0:0:0:
438,233,245573,1,2,0:0:0:0:
480,221,245680,1,2,0:0:0:0:
509,253,245787,1,2,1:2:0:0:
467,265,245894,1,2,0:0:0:0:
467,265,246001,2,0,L|451:353,1,62.9999980773926,10|0,0:0|1:2,0:0:0:0:
346,376,246215,5,2,0:0:0:0:
346,376,246323,2,0,B|301:366|301:366|275:374|275:374|209:359,1,125.999996154785,2|0,0:0|0:0,0:0:0:0:
211,376,246644,1,2,0:0:0:0:
140,247,246858,1,10,0:0:0:0:
139,257,246965,1,2,0:0:0:0:
138,267,247073,5,2,1:2:0:0:
90,251,247180,1,2,0:0:0:0:
41,239,247287,1,2,0:0:0:0:
87,220,247394,1,2,0:0:0:0:
136,209,247501,1,2,1:2:0:0:
88,192,247608,1,2,0:0:0:0:
38,181,247715,5,10,0:0:0:0:
109,166,247823,5,10,0:0:0:0:
60,112,247930,5,10,0:0:0:0:
130,94,248037,5,10,0:0:0:0:
182,147,248144,6,0,P|230:152|303:119,1,107.999996704102,2|2,1:2|0:0,0:0:0:0:
323,109,248465,1,0,1:2:0:0:
296,144,248573,1,10,0:0:0:0:
228,61,248787,1,2,1:2:0:0:
323,12,249001,1,2,0:0:0:0:
347,28,249108,1,2,0:0:0:0:
375,36,249215,1,2,1:2:0:0:
375,36,249323,2,0,P|410:25|450:14,1,45,2|8,0:0|0:0,0:0:0:0:
507,117,249644,5,2,0:0:0:0:
507,117,249751,2,0,P|457:138|390:97,1,107.999996704102,2|0,0:0|0:0,0:0:0:0:
401,135,250073,2,0,L|416:200,1,45,2|0,0:0|1:2,0:0:0:0:
388,261,250287,1,10,0:0:0:0:
368,242,250394,1,2,0:0:0:0:
342,232,250501,1,2,1:2:0:0:
315,230,250608,1,2,0:0:0:0:
287,302,250823,1,2,0:0:0:0:
217,274,251037,1,2,0:0:0:0:
217,274,251144,1,10,0:0:0:0:
187,345,251358,1,2,0:0:0:0:
134,231,251573,6,0,P|72:233|23:267,1,107.999996704102,2|2,1:2|0:0,0:0:0:0:
18,284,251894,1,0,1:2:0:0:
17,251,252001,1,10,0:0:0:0:
145,247,252215,1,2,1:2:0:0:
68,143,252430,1,2,0:0:0:0:
50,122,252537,1,2,0:0:0:0:
41,96,252644,1,2,1:2:0:0:
44,69,252751,1,2,0:0:0:0:
63,50,252858,2,0,P|96:42|115:42,1,45,10|0,0:0|1:2,0:0:0:0:
193,88,253073,5,2,0:0:0:0:
193,88,253180,2,0,B|257:72|228:49|293:32,1,116.999994644165,2|0,0:0|0:0,0:0:0:0:
312,18,253501,2,0,L|299:82,1,45,2|0,0:0|1:2,0:0:0:0:
409,152,253715,1,10,0:0:0:0:
431,148,253823,1,2,0:0:0:0:
453,144,253930,5,2,1:2:0:0:
453,144,254037,2,0,L|436:64,1,45,2|0,0:0|0:0,0:0:0:0:
383,217,254251,1,2,0:0:0:0:
383,217,254358,2,0,L|366:137,1,45,2|0,1:2|0:0,0:0:0:0:
300,140,254573,5,10,0:0:0:0:
235,175,254680,5,10,0:0:0:0:
170,133,254787,5,10,0:0:0:0:
111,187,254894,5,10,0:0:0:0:
37,138,255001,6,0,P|0:188|13:276,1,125.999996154785,2|2,1:2|0:0,0:0:0:0:
10,277,255323,1,0,1:2:0:0:
14,247,255430,1,10,0:0:0:0:
111,187,255644,1,0,1:2:0:0:
193,266,255858,1,2,0:0:0:0:
187,290,255965,1,2,0:0:0:0:
181,314,256073,1,2,1:2:0:0:
173,337,256180,2,0,P|145:344|112:347,1,49.5000015106202,2|8,0:0|0:0,0:0:0:0:
270,372,256501,5,2,0:0:0:0:
270,372,256608,2,0,B|340:364|311:330|402:321,1,116.999994644165,2|0,0:0|0:0,0:0:0:0:
400,314,256930,2,0,P|409:343|408:364,1,49.5000015106202,2|0,0:0|1:2,0:0:0:0:
264,287,257144,1,10,0:0:0:0:
252,254,257251,1,2,0:0:0:0:
247,219,257358,1,2,1:2:0:0:
257,185,257465,2,0,B|275:140|275:140|269:116|269:116|295:54,1,125.999996154785,2|0,0:0|0:0,0:0:0:0:
297,50,257787,6,0,L|206:61,1,90,2|8,1:2|0:0,0:0:0:0:
194,73,258108,2,0,L|103:84,1,90,2|0,1:2|0:0,0:0:0:0:
319,40,258430,6,0,P|369:56|422:45,1,107.999996704102,2|0,1:2|0:0,0:0:0:0:
441,35,258751,1,2,1:2:0:0:
462,37,258858,2,0,P|474:56|478:109,1,53.9999983520508,8|0,0:0|0:0,0:0:0:0:
512,176,259073,2,0,P|506:202|493:225,1,53.9999983520508,2|0,1:2|0:0,0:0:0:0:
379,325,259287,2,0,P|439:341|493:373,1,125.999996154785,2|0,0:0|1:2,0:0:0:0:
493,373,259608,1,2,0:0:0:0:
493,373,259715,2,0,L|475:275,1,62.9999980773926,8|0,0:0|1:2,0:0:0:0:
293,200,260037,5,2,0:0:0:0:
293,200,260144,2,0,B|365:192|349:129|434:125,1,144,2|0,1:2|0:0,0:0:0:0:
239,1,260573,1,10,0:0:0:0:
246,4,260680,1,2,0:0:0:0:
255,1,260787,5,2,1:2:0:0:
216,19,260894,1,2,0:0:0:0:
202,60,261001,1,2,0:0:0:0:
209,102,261108,1,2,0:0:0:0:
240,131,261215,1,2,1:2:0:0:
282,135,261323,1,2,0:0:0:0:
346,180,261430,5,10,0:0:0:0:
319,114,261537,5,10,0:0:0:0:
348,42,261644,5,10,0:0:0:0:
428,20,261751,5,10,0:0:0:0:
497,66,261858,5,6,1:2:0:0:
496,119,261965,1,0,0:0:0:0:
468,163,262073,1,0,0:0:0:0:
420,186,262180,1,0,1:2:0:0:
368,181,262287,1,8,0:0:0:0:
326,149,262394,1,0,0:0:0:0:
299,103,262501,1,0,1:2:0:0:
253,77,262608,1,0,0:0:0:0:
200,80,262715,2,0,P|187:116|194:153,1,76.5000014591217,2|0,0:0|0:0,0:0:0:0:
320,222,262930,2,0,P|332:186|326:149,1,76.5000014591217
100,198,263144,5,8,0:0:0:0:
113,232,263251,1,0,1:2:0:0:
141,258,263358,1,0,0:0:0:0:
177,268,263465,1,0,0:0:0:0:
212,260,263573,2,0,P|230:287|235:317,1,62.9999980773926,2|0,1:2|0:0,0:0:0:0:
426,190,263787,2,0,P|408:216|403:246,1,62.9999980773926,0|0,0:0|1:2,0:0:0:0:
219,33,264001,5,10,0:0:0:0:
245,101,264108,1,2,0:0:0:0:
314,113,264215,1,2,1:2:0:0:
369,68,264323,2,0,P|317:128|303:207,1,161.999995056153,2|0,0:0|0:0,0:0:0:0:
452,304,264644,5,2,1:2:0:0:
430,323,264751,1,2,0:0:0:0:
386,318,264858,1,10,0:0:0:0:
364,337,264965,1,2,1:2:0:0:
324,329,265073,2,0,P|294:335|268:353,1,62.9999980773926,2|0,0:0|0:0,0:0:0:0:
128,322,265287,5,2,1:2:0:0:
110,292,265394,1,0,0:0:0:0:
114,258,265501,1,0,0:0:0:0:
139,233,265608,1,0,1:2:0:0:
173,229,265715,1,8,0:0:0:0:
207,231,265823,1,0,0:0:0:0:
236,212,265930,1,0,1:2:0:0:
247,179,266037,1,0,0:0:0:0:
235,146,266144,5,2,0:0:0:0:
195,176,266251,1,0,0:0:0:0:
179,223,266358,1,0,1:2:0:0:
194,270,266465,1,0,0:0:0:0:
234,300,266573,1,8,0:0:0:0:
283,302,266680,1,0,1:2:0:0:
324,274,266787,1,0,0:0:0:0:
342,228,266894,1,0,0:0:0:0:
331,178,267001,5,2,1:2:0:0:
289,216,267108,1,0,0:0:0:0:
233,226,267215,1,0,0:0:0:0:
182,204,267323,1,0,1:2:0:0:
151,156,267430,1,8,0:0:0:0:
152,98,267537,1,0,0:0:0:0:
186,53,267644,1,0,1:2:0:0:
239,32,267751,1,0,0:0:0:0:
294,45,267858,2,0,L|287:107,1,62.9999980773926,2|0,0:0|0:0,0:0:0:0:
403,228,268073,5,2,1:2:0:0:
339,253,268180,5,2,0:0:0:0:
273,226,268287,5,10,0:0:0:0:
209,251,268394,5,10,0:0:0:0:
144,224,268501,5,10,0:0:0:0:
80,249,268608,5,10,0:0:0:0:
38,320,268715,5,2,1:2:0:0:
74,345,268823,1,0,0:0:0:0:
118,343,268930,1,0,0:0:0:0:
151,316,269037,1,0,1:2:0:0:
162,274,269144,1,8,0:0:0:0:
152,233,269251,1,0,0:0:0:0:
150,188,269358,1,0,1:2:0:0:
176,153,269465,1,0,0:0:0:0:
218,140,269573,6,0,P|230:175|219:211,1,76.5000014591217,2|0,0:0|0:0,0:0:0:0:
30,131,269787,2,0,P|54:102|91:93,1,76.5000014591217,0|0,1:2|0:0,0:0:0:0:
139,342,270001,1,8,0:0:0:0:
94,345,270108,1,0,1:2:0:0:
60,316,270215,1,0,0:0:0:0:
55,271,270323,1,0,0:0:0:0:
83,237,270430,2,0,L|145:248,1,62.9999980773926,2|0,1:2|0:0,0:0:0:0:
240,329,270644,2,0,L|302:318,1,62.9999980773926,0|0,0:0|1:2,0:0:0:0:
436,257,270858,5,10,0:0:0:0:
426,186,270965,1,2,0:0:0:0:
359,160,271073,1,2,1:2:0:0:
297,197,271180,2,0,L|456:225,1,161.999995056153,2|0,0:0|0:0,0:0:0:0:
499,28,271501,5,2,1:2:0:0:
471,16,271608,1,2,0:0:0:0:
431,36,271715,1,10,0:0:0:0:
404,26,271823,1,2,1:2:0:0:
368,47,271930,2,0,L|305:57,1,62.9999980773926,2|0,0:0|0:0,0:0:0:0:
49,247,272144,5,2,1:2:0:0:
23,204,272251,1,0,0:0:0:0:
33,158,272358,1,0,0:0:0:0:
72,132,272465,1,0,1:2:0:0:
119,137,272573,1,8,0:0:0:0:
149,174,272680,1,0,0:0:0:0:
166,217,272787,1,0,1:2:0:0:
208,238,272894,1,0,0:0:0:0:
253,225,273001,5,2,0:0:0:0:
226,198,273108,1,0,0:0:0:0:
191,185,273215,1,0,1:2:0:0:
153,187,273323,1,0,0:0:0:0:
120,205,273430,1,8,0:0:0:0:
98,235,273537,1,0,1:2:0:0:
89,271,273644,1,0,0:0:0:0:
97,308,273751,1,0,0:0:0:0:
119,338,273858,5,2,1:2:0:0:
145,321,273965,1,0,0:0:0:0:
163,295,274073,1,0,0:0:0:0:
170,265,274180,1,0,1:2:0:0:
165,234,274287,1,8,0:0:0:0:
149,207,274394,1,0,0:0:0:0:
124,188,274501,1,0,1:2:0:0:
94,180,274608,1,0,0:0:0:0:
62,183,274715,2,0,L|52:251,1,62.9999980773926,2|0,0:0|0:0,0:0:0:0:
130,340,274930,5,2,1:2:0:0:
181,332,275037,1,0,1:2:0:0:
232,324,275144,1,10,0:0:0:0:
283,316,275251,1,0,1:2:0:0:
334,308,275358,1,10,0:0:0:0:
385,300,275465,1,8,0:0:0:0:
440,296,275573,1,2,1:2:0:0:
440,296,275787,5,2,0:0:0:0:
433,314,275894,1,2,0:0:0:0:
425,327,276001,2,0,P|395:332|366:320,1,62.9999980773926,2|0,0:0|0:0,0:0:0:0:
322,255,276215,2,0,P|293:242|262:247,1,62.9999980773926,2|0,0:0|0:0,0:0:0:0:
174,140,276430,5,2,0:0:0:0:
136,127,276537,1,2,0:0:0:0:
138,92,276644,1,2,1:2:0:0:
173,79,276751,1,2,0:0:0:0:
196,110,276858,1,10,0:1:0:0:
322,255,277073,5,0,0:0:0:0:
283,318,277180,2,0,B|237:347|184:316|184:316|124:282|79:318,1,216,0|2,1:2|0:0,0:0:0:0:
26,193,277715,5,2,0:0:0:0:
49,177,277823,1,2,0:0:0:0:
163,232,278037,5,2,0:0:0:0:
268,131,278251,5,2,0:0:0:0:
382,205,278465,5,2,0:0:0:0:
405,189,278573,1,10,0:1:0:0:
445,65,278787,5,2,0:0:0:0:
283,27,279001,5,2,1:2:0:0:
160,244,279215,5,2,0:0:0:0:
173,255,279323,1,2,0:0:0:0:
188,258,279430,2,0,P|219:257|247:242,1,62.9999980773926,2|0,0:0|0:0,0:0:0:0:
305,296,279644,2,0,P|336:297|364:312,1,62.9999980773926,2|0,0:0|0:0,0:0:0:0:
442,227,279858,5,2,0:0:0:0:
464,197,279965,1,2,0:0:0:0:
498,209,280073,1,10,0:1:0:0:
500,246,280180,1,2,0:0:0:0:
462,258,280287,1,2,0:0:0:0:
323,90,280501,5,2,0:0:0:0:
258,128,280608,2,0,P|234:233|228:340,1,216,2|2,0:0|0:0,0:0:0:0:
0,354,281144,5,2,0:0:0:0:
9,335,281251,1,2,0:0:0:0:
115,273,281465,5,2,0:0:0:0:
28,177,281680,5,2,0:0:0:0:
168,119,281894,5,2,0:0:0:0:
177,100,282001,1,10,0:1:0:0:
60,17,282215,5,2,1:2:0:0:
243,187,282430,5,2,1:2:0:0:
280,202,282537,1,2,1:2:0:0:
304,196,282644,1,2,0:0:0:0:
318,186,282751,1,2,0:0:0:0:
322,174,282858,2,0,L|319:105,1,62.9999980773926,2|0,0:0|0:0,0:0:0:0:
392,90,283073,2,0,L|394:27,1,62.9999980773926,2|0,0:0|0:0,0:0:0:0:
476,219,283287,5,10,0:1:0:0:
454,249,283394,1,2,0:0:0:0:
420,237,283501,1,2,0:0:0:0:
418,200,283608,1,2,0:0:0:0:
456,188,283715,1,2,0:0:0:0:
393,336,283930,5,2,0:0:0:0:
323,368,284037,2,0,B|219:371|244:261|141:274,1,216,2|2,0:0|1:2,0:0:0:0:
394,192,284573,5,2,0:0:0:0:
371,198,284680,1,2,1:2:0:0:
282,104,284894,5,2,0:0:0:0:
184,207,285108,5,2,0:0:0:0:
92,100,285323,5,2,0:0:0:0:
69,106,285430,1,10,0:1:0:0:
8,224,285644,5,2,0:0:0:0:
160,42,285858,5,2,1:2:0:0:
189,67,285965,1,2,0:0:0:0:
200,88,286073,1,2,0:0:0:0:
204,103,286180,1,2,0:0:0:0:
202,118,286287,2,0,P|183:148|151:163,1,72,2|0,0:0|0:0,0:0:0:0:
146,238,286501,2,0,P|111:245|78:233,1,72,2|0,1:2|0:0,0:0:0:0:
58,43,286715,5,10,0:1:0:0:
36,13,286823,1,2,0:0:0:0:
2,25,286930,1,2,0:0:0:0:
0,62,287037,1,2,0:0:0:0:
38,74,287144,1,2,0:0:0:0:
405,65,287358,5,2,0:0:0:0:
339,25,287465,2,0,P|255:85|266:188,1,216,2|2,0:0|0:0,0:0:0:0:
189,320,288001,5,2,0:0:0:0:
194,339,288108,1,2,0:0:0:0:
163,318,288215,5,2,1:2:0:0:
189,293,288323,1,2,0:0:0:0:
223,284,288430,1,2,0:0:0:0:
258,293,288537,1,2,0:0:0:0:
284,317,288644,1,10,0:1:0:0:
310,340,288751,1,2,0:0:0:0:
345,349,288858,1,10,0:1:0:0:
384,332,288965,1,2,0:0:0:0:
412,294,289073,1,10,0:1:0:0:
410,244,289180,1,2,0:0:0:0:
380,199,289287,6,0,L|286:188,1,90,0|2,1:2|0:0,0:0:0:0:
423,126,289715,2,0,L|517:137,1,90,2|2,0:0|0:0,0:0:0:0:
352,71,290144,1,10,0:1:0:0:
319,87,290251,1,2,0:0:0:0:
295,59,290358,1,2,0:0:0:0:
328,43,290465,2,0,L|341:-7,1,45,2|8,0:0|0:1,0:0:0:0:
198,93,290787,5,2,0:0:0:0:
198,93,290894,2,0,B|127:78|150:47|75:40,1,135,2|2,0:0|0:0,0:0:0:0:
110,149,291430,1,2,1:2:0:0:
110,149,291537,1,2,0:0:0:0:
33,161,291751,1,2,0:0:0:0:
160,207,291965,1,2,0:0:0:0:
83,219,292180,1,2,0:0:0:0:
83,219,292287,1,10,0:1:0:0:
187,134,292501,1,2,0:0:0:0:
237,262,292715,6,0,L|231:348,1,80.9999975280763,2|2,1:2|0:0,0:0:0:0:
342,382,293144,2,0,L|347:301,1,80.9999975280763,2|2,0:0|0:0,0:0:0:0:
437,250,293573,1,2,1:2:0:0:
466,263,293680,1,2,0:0:0:0:
451,233,293787,1,10,0:1:0:0:
475,251,293894,2,0,L|470:207,1,40.4999987640381,2|0,0:0|0:0,0:0:0:0:
360,144,294215,5,2,0:0:0:0:
360,144,294323,2,0,B|312:151|312:151|294:133|294:133|239:118,1,121.499996292114,2|2,0:0|0:0,0:0:0:0:
229,259,294858,1,2,0:0:0:0:
229,259,294965,1,2,0:0:0:0:
185,186,295180,1,2,0:0:0:0:
181,329,295394,1,2,0:0:0:0:
253,374,295608,1,2,0:0:0:0:
253,374,295715,1,10,0:1:0:0:
147,257,295930,1,2,1:2:0:0:
308,187,296144,6,0,L|395:178,1,72,2|2,1:2|0:0,0:0:0:0:
270,78,296573,2,0,L|357:69,1,72,2|0,0:0|0:0,0:0:0:0:
216,150,297001,1,10,0:1:0:0:
188,157,297108,1,2,0:0:0:0:
159,156,297215,1,2,0:0:0:0:
131,146,297323,2,0,P|127:126|121:109,1,36,2|0,0:0|0:0,0:0:0:0:
0,196,297644,5,2,0:0:0:0:
0,196,297752,2,0,P|-4:247|11:318,1,108,2|2,0:0|1:2,0:0:0:0:
38,376,298287,1,2,0:0:0:0:
38,376,298394,1,2,1:2:0:0:
81,259,298608,1,2,0:0:0:0:
145,299,298823,1,2,0:0:0:0:
88,181,299037,1,2,0:0:0:0:
88,181,299144,1,10,0:1:0:0:
126,114,299358,1,2,1:2:0:0:
62,43,299573,6,0,L|-11:49,1,62.9999980773926,2|2,1:2|0:0,0:0:0:0:
126,114,300002,2,0,L|199:108,1,62.9999980773926,2|2,0:0|1:2,0:0:0:0:
285,52,300430,1,10,0:1:0:0:
301,66,300537,1,2,0:0:0:0:
322,70,300644,1,2,0:0:0:0:
342,61,300751,2,0,P|339:38|330:24,1,31.4999990386963
208,127,301073,5,2,0:0:0:0:
208,127,301180,2,0,P|200:174|214:241,1,94.499997116089,2|2,0:0|0:0,0:0:0:0:
237,297,301715,1,10,0:1:0:0:
237,297,301823,1,2,0:0:0:0:
281,232,302037,1,2,0:0:0:0:
159,277,302251,1,2,0:0:0:0:
269,374,302465,5,2,0:0:0:0:
293,359,302573,1,2,0:0:0:0:
321,355,302680,1,2,0:0:0:0:
382,305,302787,5,2,1:2:0:0:
402,325,302894,1,10,0:1:0:0:
429,330,303001,2,0,B|489:324|502:270|502:270|411:180|455:55|455:55|372:55|361:128,1,450,2|0,0:0|0:0,0:0:0:0:
365,110,305358,6,0,L|368:40,1,60,2|2,0:0|0:0,0:0:0:0:
292,23,305930,6,0,L|289:78,1,48,2|2,0:0|0:0,0:0:0:0:
229,126,306430,6,0,B|181:158|130:127|130:127|101:65|21:71|21:71|46:34|97:34,1,323.999990112305,2|0,0:0|0:0,0:0:0:0:
