osu file format v14

[General]
AudioFilename: audio.mp3
AudioLeadIn: 0
PreviewTime: -1
Countdown: 0
SampleSet: Normal
StackLeniency: 0.7
Mode: 3
LetterboxInBreaks: 0
SpecialStyle: 0
WidescreenStoryboard: 0

[Editor]
DistanceSpacing: 0.8
BeatDivisor: 2
GridSize: 32
TimelineZoom: 1

[Metadata]
Title:ikazuchi_B
TitleUnicode:ikazuchi_B
Artist:saradisk
ArtistUnicode:saradisk
Creator:Daikyi
Version:Challenge
Source:
Tags:
BeatmapID:1230517
BeatmapSetID:581303

[Difficulty]
HPDrainRate:10
CircleSize:4
OverallDifficulty:10
ApproachRate:5
SliderMultiplier:1.4
SliderTickRate:1

[Events]
//Background and Video events
0,0,"ikazuchi_bg.png",0,0
//Break Periods
//Storyboard Layer 0 (Background)
//Storyboard Layer 1 (Fail)
//Storyboard Layer 2 (Pass)
//Storyboard Layer 3 (Foreground)
//Storyboard Sound Samples

[TimingPoints]
299,333.333333,4,1,0,100,1,0

[HitObjects]
64,192,299,5,0,0:0:0:0:
192,192,326,1,0,0:0:0:0:
320,192,354,1,0,0:0:0:0:
64,192,465,1,0,0:0:0:0:
448,192,465,1,0,0:0:0:0:
64,192,632,1,0,0:0:0:0:
320,192,632,1,0,0:0:0:0:
448,192,632,1,0,0:0:0:0:
192,192,798,1,0,0:0:0:0:
320,192,798,1,0,0:0:0:0:
64,192,965,1,0,0:0:0:0:
320,192,965,1,0,0:0:0:0:
448,192,965,1,0,0:0:0:0:
192,192,1132,1,0,0:0:0:0:
320,192,1132,1,0,0:0:0:0:
64,192,1298,1,0,0:0:0:0:
320,192,1298,1,0,0:0:0:0:
448,192,1298,1,0,0:0:0:0:
192,192,1465,1,0,0:0:0:0:
320,192,1465,1,0,0:0:0:0:
64,192,1548,1,0,0:0:0:0:
320,192,1548,1,0,0:0:0:0:
448,192,1548,1,0,0:0:0:0:
192,192,1715,1,0,0:0:0:0:
320,192,1715,1,0,0:0:0:0:
64,192,1798,1,0,0:0:0:0:
320,192,1798,1,0,0:0:0:0:
448,192,1798,1,0,0:0:0:0:
64,192,1882,1,0,0:0:0:0:
192,192,1882,1,0,0:0:0:0:
192,192,1965,1,0,0:0:0:0:
320,192,1965,1,0,0:0:0:0:
448,192,1965,1,0,0:0:0:0:
64,192,2132,1,0,0:0:0:0:
192,192,2132,1,0,0:0:0:0:
192,192,2298,1,0,0:0:0:0:
320,192,2298,1,0,0:0:0:0:
448,192,2298,1,0,0:0:0:0:
64,192,2465,1,0,0:0:0:0:
192,192,2465,1,0,0:0:0:0:
192,192,2632,1,0,0:0:0:0:
320,192,2632,1,0,0:0:0:0:
448,192,2632,1,0,0:0:0:0:
64,192,2798,1,0,0:0:0:0:
192,192,2798,1,0,0:0:0:0:
192,192,2882,1,0,0:0:0:0:
320,192,2882,1,0,0:0:0:0:
448,192,2882,1,0,0:0:0:0:
64,192,3048,1,0,0:0:0:0:
192,192,3048,1,0,0:0:0:0:
192,192,3132,1,0,0:0:0:0:
320,192,3132,1,0,0:0:0:0:
448,192,3132,1,0,0:0:0:0:
64,192,3215,1,0,0:0:0:0:
448,192,3215,1,0,0:0:0:0:
64,192,3298,1,0,0:0:0:0:
192,192,3298,1,0,0:0:0:0:
320,192,3298,1,0,0:0:0:0:
64,192,3465,1,0,0:0:0:0:
448,192,3465,1,0,0:0:0:0:
64,192,3632,1,0,0:0:0:0:
192,192,3632,1,0,0:0:0:0:
320,192,3632,1,0,0:0:0:0:
64,192,3798,1,0,0:0:0:0:
448,192,3798,1,0,0:0:0:0:
64,192,3965,1,0,0:0:0:0:
192,192,3965,1,0,0:0:0:0:
320,192,3965,1,0,0:0:0:0:
64,192,4132,1,0,0:0:0:0:
448,192,4132,1,0,0:0:0:0:
64,192,4215,1,0,0:0:0:0:
192,192,4215,1,0,0:0:0:0:
320,192,4215,1,0,0:0:0:0:
64,192,4382,1,0,0:0:0:0:
448,192,4382,1,0,0:0:0:0:
64,192,4465,1,0,0:0:0:0:
192,192,4465,1,0,0:0:0:0:
320,192,4465,1,0,0:0:0:0:
192,192,4548,1,0,0:0:0:0:
448,192,4548,1,0,0:0:0:0:
64,192,4632,1,0,0:0:0:0:
320,192,4632,1,0,0:0:0:0:
448,192,4632,1,0,0:0:0:0:
320,192,4798,1,0,0:0:0:0:
448,192,4798,1,0,0:0:0:0:
192,192,4882,1,0,0:0:0:0:
64,192,4965,1,0,0:0:0:0:
320,192,4965,1,0,0:0:0:0:
64,192,5132,1,0,0:0:0:0:
192,192,5132,1,0,0:0:0:0:
320,192,5187,1,0,0:0:0:0:
64,192,5298,1,0,0:0:0:0:
192,192,5298,1,0,0:0:0:0:
320,192,5382,1,0,0:0:0:0:
448,192,5382,1,0,0:0:0:0:
192,192,5465,1,0,0:0:0:0:
320,192,5465,1,0,0:0:0:0:
64,192,5548,1,0,0:0:0:0:
448,192,5548,1,0,0:0:0:0:
320,192,5576,1,0,0:0:0:0:
64,192,5632,1,0,0:0:0:0:
192,192,5632,1,0,0:0:0:0:
320,192,5743,1,0,0:0:0:0:
64,192,5798,1,0,0:0:0:0:
192,192,5798,1,0,0:0:0:0:
448,192,5798,1,0,0:0:0:0:
320,192,5854,1,0,0:0:0:0:
64,192,5965,1,0,0:0:0:0:
192,192,5965,1,0,0:0:0:0:
448,192,5965,1,0,0:0:0:0:
320,192,6132,1,0,0:0:0:0:
448,192,6132,1,0,0:0:0:0:
64,192,6298,1,0,0:0:0:0:
192,192,6298,1,0,0:0:0:0:
448,192,6298,1,0,0:0:0:0:
320,192,6465,1,0,0:0:0:0:
448,192,6465,1,0,0:0:0:0:
64,192,6632,1,0,0:0:0:0:
192,192,6632,1,0,0:0:0:0:
448,192,6632,1,0,0:0:0:0:
320,192,6798,1,0,0:0:0:0:
448,192,6798,1,0,0:0:0:0:
64,192,6882,1,0,0:0:0:0:
192,192,6882,1,0,0:0:0:0:
448,192,6882,1,0,0:0:0:0:
320,192,7048,1,0,0:0:0:0:
448,192,7048,1,0,0:0:0:0:
64,192,7132,1,0,0:0:0:0:
192,192,7132,1,0,0:0:0:0:
448,192,7132,1,0,0:0:0:0:
192,192,7215,1,0,0:0:0:0:
320,192,7215,1,0,0:0:0:0:
64,192,7298,1,0,0:0:0:0:
320,192,7298,1,0,0:0:0:0:
448,192,7298,1,0,0:0:0:0:
192,192,7465,1,0,0:0:0:0:
320,192,7465,1,0,0:0:0:0:
64,192,7632,1,0,0:0:0:0:
320,192,7632,1,0,0:0:0:0:
448,192,7632,1,0,0:0:0:0:
192,192,7798,1,0,0:0:0:0:
320,192,7798,1,0,0:0:0:0:
64,192,7965,1,0,0:0:0:0:
320,192,7965,1,0,0:0:0:0:
448,192,7965,1,0,0:0:0:0:
192,192,8132,1,0,0:0:0:0:
320,192,8132,1,0,0:0:0:0:
64,192,8215,1,0,0:0:0:0:
320,192,8215,1,0,0:0:0:0:
448,192,8215,1,0,0:0:0:0:
192,192,8382,1,0,0:0:0:0:
320,192,8382,1,0,0:0:0:0:
64,192,8465,1,0,0:0:0:0:
320,192,8465,1,0,0:0:0:0:
448,192,8465,1,0,0:0:0:0:
192,192,8548,1,0,0:0:0:0:
448,192,8548,1,0,0:0:0:0:
64,192,8632,1,0,0:0:0:0:
192,192,8632,1,0,0:0:0:0:
320,192,8632,1,0,0:0:0:0:
192,192,8798,1,0,0:0:0:0:
448,192,8798,1,0,0:0:0:0:
64,192,8965,1,0,0:0:0:0:
192,192,8965,1,0,0:0:0:0:
320,192,8965,1,0,0:0:0:0:
192,192,9132,1,0,0:0:0:0:
448,192,9132,1,0,0:0:0:0:
64,192,9298,1,0,0:0:0:0:
192,192,9298,1,0,0:0:0:0:
320,192,9298,1,0,0:0:0:0:
320,192,9382,1,0,0:0:0:0:
192,192,9465,1,0,0:0:0:0:
448,192,9465,1,0,0:0:0:0:
64,192,9548,1,0,0:0:0:0:
192,192,9548,1,0,0:0:0:0:
320,192,9548,1,0,0:0:0:0:
192,192,9715,1,0,0:0:0:0:
448,192,9715,1,0,0:0:0:0:
64,192,9798,1,0,0:0:0:0:
192,192,9798,1,0,0:0:0:0:
320,192,9798,1,0,0:0:0:0:
64,192,9882,1,0,0:0:0:0:
448,192,9882,1,0,0:0:0:0:
192,192,9965,1,0,0:0:0:0:
320,192,9965,1,0,0:0:0:0:
448,192,9965,1,0,0:0:0:0:
320,192,10132,1,0,0:0:0:0:
192,192,10298,1,0,0:0:0:0:
448,192,10298,1,0,0:0:0:0:
64,192,10632,1,0,0:0:0:0:
192,192,10632,1,0,0:0:0:0:
320,192,10632,1,0,0:0:0:0:
448,192,10798,1,0,0:0:0:0:
64,192,10965,1,0,0:0:0:0:
320,192,10965,1,0,0:0:0:0:
192,192,11048,1,0,0:0:0:0:
64,192,11132,1,0,0:0:0:0:
320,192,11132,1,0,0:0:0:0:
192,192,11215,1,0,0:0:0:0:
64,192,11298,1,0,0:0:0:0:
320,192,11298,1,0,0:0:0:0:
448,192,11298,1,0,0:0:0:0:
192,192,11465,1,0,0:0:0:0:
320,192,11465,1,0,0:0:0:0:
64,192,11632,1,0,0:0:0:0:
320,192,11632,1,0,0:0:0:0:
448,192,11632,1,0,0:0:0:0:
192,192,11798,1,0,0:0:0:0:
320,192,11798,1,0,0:0:0:0:
64,192,11965,1,0,0:0:0:0:
320,192,11965,1,0,0:0:0:0:
448,192,11965,1,0,0:0:0:0:
192,192,12132,1,0,0:0:0:0:
320,192,12132,1,0,0:0:0:0:
64,192,12215,1,0,0:0:0:0:
320,192,12215,1,0,0:0:0:0:
448,192,12215,1,0,0:0:0:0:
192,192,12382,1,0,0:0:0:0:
320,192,12382,1,0,0:0:0:0:
64,192,12465,1,0,0:0:0:0:
320,192,12465,1,0,0:0:0:0:
448,192,12465,1,0,0:0:0:0:
192,192,12548,1,0,0:0:0:0:
448,192,12548,1,0,0:0:0:0:
64,192,12632,1,0,0:0:0:0:
192,192,12632,1,0,0:0:0:0:
320,192,12632,1,0,0:0:0:0:
192,192,12798,1,0,0:0:0:0:
448,192,12798,1,0,0:0:0:0:
64,192,12965,1,0,0:0:0:0:
192,192,12965,1,0,0:0:0:0:
320,192,12965,1,0,0:0:0:0:
192,192,13132,1,0,0:0:0:0:
448,192,13132,1,0,0:0:0:0:
64,192,13298,1,0,0:0:0:0:
192,192,13298,1,0,0:0:0:0:
320,192,13298,1,0,0:0:0:0:
192,192,13465,1,0,0:0:0:0:
448,192,13465,1,0,0:0:0:0:
64,192,13548,1,0,0:0:0:0:
192,192,13548,1,0,0:0:0:0:
320,192,13548,1,0,0:0:0:0:
192,192,13715,1,0,0:0:0:0:
448,192,13715,1,0,0:0:0:0:
64,192,13798,1,0,0:0:0:0:
192,192,13798,1,0,0:0:0:0:
320,192,13798,1,0,0:0:0:0:
64,192,13882,1,0,0:0:0:0:
448,192,13882,1,0,0:0:0:0:
192,192,13965,1,0,0:0:0:0:
320,192,13965,1,0,0:0:0:0:
448,192,13965,1,0,0:0:0:0:
64,192,14132,1,0,0:0:0:0:
448,192,14132,1,0,0:0:0:0:
192,192,14298,1,0,0:0:0:0:
320,192,14298,1,0,0:0:0:0:
448,192,14298,1,0,0:0:0:0:
64,192,14465,1,0,0:0:0:0:
448,192,14465,1,0,0:0:0:0:
192,192,14632,1,0,0:0:0:0:
320,192,14632,1,0,0:0:0:0:
448,192,14632,1,0,0:0:0:0:
64,192,14798,1,0,0:0:0:0:
448,192,14798,1,0,0:0:0:0:
192,192,14882,1,0,0:0:0:0:
320,192,14882,1,0,0:0:0:0:
448,192,14882,1,0,0:0:0:0:
64,192,15048,1,0,0:0:0:0:
448,192,15048,1,0,0:0:0:0:
192,192,15132,1,0,0:0:0:0:
320,192,15132,1,0,0:0:0:0:
448,192,15132,1,0,0:0:0:0:
64,192,15298,1,0,0:0:0:0:
320,192,15298,1,0,0:0:0:0:
448,192,15298,1,0,0:0:0:0:
320,192,15465,1,0,0:0:0:0:
448,192,15465,1,0,0:0:0:0:
64,192,15548,1,0,0:0:0:0:
192,192,15548,1,0,0:0:0:0:
64,192,15632,1,0,0:0:0:0:
192,192,15632,1,0,0:0:0:0:
320,192,15715,1,0,0:0:0:0:
448,192,15715,1,0,0:0:0:0:
64,192,15798,1,0,0:0:0:0:
192,192,15882,1,0,0:0:0:0:
320,192,15882,1,0,0:0:0:0:
64,192,15965,1,0,0:0:0:0:
448,192,15965,1,0,0:0:0:0:
192,192,16048,1,0,0:0:0:0:
320,192,16048,1,0,0:0:0:0:
64,192,16132,1,0,0:0:0:0:
192,192,16132,1,0,0:0:0:0:
320,192,16215,1,0,0:0:0:0:
448,192,16215,1,0,0:0:0:0:
64,192,16298,1,0,0:0:0:0:
192,192,16298,1,0,0:0:0:0:
320,192,16382,1,0,0:0:0:0:
192,192,16465,1,0,0:0:0:0:
448,192,16465,1,0,0:0:0:0:
320,192,16548,1,0,0:0:0:0:
64,192,16632,1,0,0:0:0:0:
192,192,16632,1,0,0:0:0:0:
448,192,16632,1,0,0:0:0:0:
64,192,16798,1,0,0:0:0:0:
320,192,16798,1,0,0:0:0:0:
64,192,16965,1,0,0:0:0:0:
192,192,16965,1,0,0:0:0:0:
448,192,16965,1,0,0:0:0:0:
64,192,17132,1,0,0:0:0:0:
320,192,17132,1,0,0:0:0:0:
64,192,17298,1,0,0:0:0:0:
192,192,17298,1,0,0:0:0:0:
448,192,17298,1,0,0:0:0:0:
64,192,17465,1,0,0:0:0:0:
320,192,17465,1,0,0:0:0:0:
64,192,17548,1,0,0:0:0:0:
192,192,17548,1,0,0:0:0:0:
448,192,17548,1,0,0:0:0:0:
64,192,17715,1,0,0:0:0:0:
320,192,17715,1,0,0:0:0:0:
64,192,17798,1,0,0:0:0:0:
192,192,17798,1,0,0:0:0:0:
448,192,17798,1,0,0:0:0:0:
320,192,17882,1,0,0:0:0:0:
448,192,17882,1,0,0:0:0:0:
64,192,17965,1,0,0:0:0:0:
192,192,17965,1,0,0:0:0:0:
320,192,17965,1,0,0:0:0:0:
320,192,18132,1,0,0:0:0:0:
448,192,18132,1,0,0:0:0:0:
64,192,18298,1,0,0:0:0:0:
192,192,18298,1,0,0:0:0:0:
320,192,18298,1,0,0:0:0:0:
320,192,18465,1,0,0:0:0:0:
448,192,18465,1,0,0:0:0:0:
64,192,18632,1,0,0:0:0:0:
192,192,18632,1,0,0:0:0:0:
320,192,18632,1,0,0:0:0:0:
320,192,18798,1,0,0:0:0:0:
448,192,18798,1,0,0:0:0:0:
64,192,18882,1,0,0:0:0:0:
192,192,18882,1,0,0:0:0:0:
320,192,18882,1,0,0:0:0:0:
320,192,19048,1,0,0:0:0:0:
448,192,19048,1,0,0:0:0:0:
64,192,19132,1,0,0:0:0:0:
192,192,19132,1,0,0:0:0:0:
320,192,19132,1,0,0:0:0:0:
192,192,19215,1,0,0:0:0:0:
448,192,19215,1,0,0:0:0:0:
64,192,19298,1,0,0:0:0:0:
320,192,19298,1,0,0:0:0:0:
448,192,19298,1,0,0:0:0:0:
192,192,19465,1,0,0:0:0:0:
448,192,19465,1,0,0:0:0:0:
64,192,19632,1,0,0:0:0:0:
320,192,19632,1,0,0:0:0:0:
448,192,19632,1,0,0:0:0:0:
192,192,19798,1,0,0:0:0:0:
448,192,19798,1,0,0:0:0:0:
64,192,19965,1,0,0:0:0:0:
320,192,19965,1,0,0:0:0:0:
448,192,19965,1,0,0:0:0:0:
64,192,20048,1,0,0:0:0:0:
192,192,20132,1,0,0:0:0:0:
448,192,20132,1,0,0:0:0:0:
64,192,20215,1,0,0:0:0:0:
320,192,20215,1,0,0:0:0:0:
448,192,20215,1,0,0:0:0:0:
192,192,20382,1,0,0:0:0:0:
448,192,20382,1,0,0:0:0:0:
64,192,20465,1,0,0:0:0:0:
320,192,20465,1,0,0:0:0:0:
448,192,20465,1,0,0:0:0:0:
192,192,20548,1,0,0:0:0:0:
320,192,20548,1,0,0:0:0:0:
64,192,20632,1,0,0:0:0:0:
192,192,20632,1,0,0:0:0:0:
448,192,20632,1,0,0:0:0:0:
192,192,20798,1,0,0:0:0:0:
320,192,20798,1,0,0:0:0:0:
64,192,20882,1,0,0:0:0:0:
192,192,20882,1,0,0:0:0:0:
448,192,20882,1,0,0:0:0:0:
320,192,20965,1,0,0:0:0:0:
64,192,21048,1,0,0:0:0:0:
448,192,21048,1,0,0:0:0:0:
192,192,21132,1,0,0:0:0:0:
320,192,21132,1,0,0:0:0:0:
64,192,21215,1,0,0:0:0:0:
448,192,21215,1,0,0:0:0:0:
192,192,21298,1,0,0:0:0:0:
448,192,21298,1,0,0:0:0:0:
64,192,21382,1,0,0:0:0:0:
320,192,21382,1,0,0:0:0:0:
448,192,21423,1,0,0:0:0:0:
64,192,21465,1,0,0:0:0:0:
192,192,21465,1,0,0:0:0:0:
448,192,21507,1,0,0:0:0:0:
192,192,21548,1,0,0:0:0:0:
320,192,21548,1,0,0:0:0:0:
64,192,21632,1,0,0:0:0:0:
448,192,21632,1,0,0:0:0:0:
320,192,21715,1,0,0:0:0:0:
64,192,21798,1,0,0:0:0:0:
192,192,21798,1,0,0:0:0:0:
320,192,21882,1,0,0:0:0:0:
448,192,21882,1,0,0:0:0:0:
64,192,21965,1,0,0:0:0:0:
192,192,21965,1,0,0:0:0:0:
448,192,21965,1,0,0:0:0:0:
64,192,22132,1,0,0:0:0:0:
192,192,22298,1,0,0:0:0:0:
320,192,22298,1,0,0:0:0:0:
448,192,22298,1,0,0:0:0:0:
64,192,22465,1,0,0:0:0:0:
192,192,22465,1,0,0:0:0:0:
64,192,22548,1,0,0:0:0:0:
192,192,22548,1,0,0:0:0:0:
320,192,22632,1,0,0:0:0:0:
64,192,22798,1,0,0:0:0:0:
192,192,22798,1,0,0:0:0:0:
320,192,22882,1,0,0:0:0:0:
192,192,22965,1,0,0:0:0:0:
320,192,22965,1,0,0:0:0:0:
448,192,22965,1,0,0:0:0:0:
192,192,23132,1,0,0:0:0:0:
448,192,23132,1,0,0:0:0:0:
448,192,23215,1,0,0:0:0:0:
64,192,23298,1,0,0:0:0:0:
448,192,23298,1,0,0:0:0:0:
192,192,23465,1,0,0:0:0:0:
192,192,23548,1,0,0:0:0:0:
320,192,23548,1,0,0:0:0:0:
64,192,23632,1,0,0:0:0:0:
320,192,23632,1,0,0:0:0:0:
448,192,23632,1,0,0:0:0:0:
64,192,23798,1,0,0:0:0:0:
192,192,23798,1,0,0:0:0:0:
64,192,23882,1,0,0:0:0:0:
192,192,23882,1,0,0:0:0:0:
448,192,23965,1,0,0:0:0:0:
64,192,24132,1,0,0:0:0:0:
320,192,24132,1,0,0:0:0:0:
192,192,24215,1,0,0:0:0:0:
192,192,24298,1,0,0:0:0:0:
320,192,24298,1,0,0:0:0:0:
448,192,24298,1,0,0:0:0:0:
64,192,24382,1,0,0:0:0:0:
192,192,24465,1,0,0:0:0:0:
448,192,24465,1,0,0:0:0:0:
448,192,24548,1,0,0:0:0:0:
64,192,24632,1,0,0:0:0:0:
448,192,24632,1,0,0:0:0:0:
320,192,24798,1,0,0:0:0:0:
320,192,24882,1,0,0:0:0:0:
448,192,24882,1,0,0:0:0:0:
64,192,24965,1,0,0:0:0:0:
192,192,24965,1,0,0:0:0:0:
448,192,24965,1,0,0:0:0:0:
64,192,25132,1,0,0:0:0:0:
192,192,25132,1,0,0:0:0:0:
64,192,25215,1,0,0:0:0:0:
192,192,25215,1,0,0:0:0:0:
448,192,25298,1,0,0:0:0:0:
64,192,25465,1,0,0:0:0:0:
192,192,25465,1,0,0:0:0:0:
320,192,25548,1,0,0:0:0:0:
192,192,25632,1,0,0:0:0:0:
320,192,25632,1,0,0:0:0:0:
448,192,25632,1,0,0:0:0:0:
64,192,25798,1,0,0:0:0:0:
448,192,25798,1,0,0:0:0:0:
320,192,25882,1,0,0:0:0:0:
64,192,25965,1,0,0:0:0:0:
192,192,25965,1,0,0:0:0:0:
448,192,26132,1,0,0:0:0:0:
192,192,26215,1,0,0:0:0:0:
448,192,26215,1,0,0:0:0:0:
64,192,26298,1,0,0:0:0:0:
192,192,26298,1,0,0:0:0:0:
448,192,26298,1,0,0:0:0:0:
64,192,26465,1,0,0:0:0:0:
448,192,26465,1,0,0:0:0:0:
64,192,26548,1,0,0:0:0:0:
448,192,26548,1,0,0:0:0:0:
192,192,26632,1,0,0:0:0:0:
320,192,26632,1,0,0:0:0:0:
64,192,26798,1,0,0:0:0:0:
320,192,26798,1,0,0:0:0:0:
320,192,26882,1,0,0:0:0:0:
64,192,26965,1,0,0:0:0:0:
320,192,26965,1,0,0:0:0:0:
448,192,26965,1,0,0:0:0:0:
192,192,27132,1,0,0:0:0:0:
192,192,27215,1,0,0:0:0:0:
192,192,27298,1,0,0:0:0:0:
448,192,27298,1,0,0:0:0:0:
64,192,27465,1,0,0:0:0:0:
64,192,27548,1,0,0:0:0:0:
448,192,27548,1,0,0:0:0:0:
64,192,27632,1,0,0:0:0:0:
320,192,27632,1,0,0:0:0:0:
448,192,27632,1,0,0:0:0:0:
64,192,27798,1,0,0:0:0:0:
192,192,27798,1,0,0:0:0:0:
448,192,27798,1,0,0:0:0:0:
64,192,27882,1,0,0:0:0:0:
448,192,27882,1,0,0:0:0:0:
448,192,27965,1,0,0:0:0:0:
192,192,28132,1,0,0:0:0:0:
320,192,28132,1,0,0:0:0:0:
320,192,28215,1,0,0:0:0:0:
64,192,28298,1,0,0:0:0:0:
320,192,28298,1,0,0:0:0:0:
448,192,28298,1,0,0:0:0:0:
192,192,28465,1,0,0:0:0:0:
64,192,28632,1,0,0:0:0:0:
448,192,28632,1,0,0:0:0:0:
320,192,28798,1,0,0:0:0:0:
192,192,28882,1,0,0:0:0:0:
448,192,28882,1,0,0:0:0:0:
64,192,28965,1,0,0:0:0:0:
320,192,28965,1,0,0:0:0:0:
448,192,28965,1,0,0:0:0:0:
64,192,29132,1,0,0:0:0:0:
192,192,29132,1,0,0:0:0:0:
448,192,29132,1,0,0:0:0:0:
64,192,29215,1,0,0:0:0:0:
320,192,29215,1,0,0:0:0:0:
192,192,29298,1,0,0:0:0:0:
64,192,29465,1,0,0:0:0:0:
448,192,29465,1,0,0:0:0:0:
64,192,29548,1,0,0:0:0:0:
192,192,29632,1,0,0:0:0:0:
320,192,29632,1,0,0:0:0:0:
448,192,29632,1,0,0:0:0:0:
64,192,29715,1,0,0:0:0:0:
320,192,29798,1,0,0:0:0:0:
320,192,29882,1,0,0:0:0:0:
64,192,29965,1,0,0:0:0:0:
320,192,29965,1,0,0:0:0:0:
448,192,30048,1,0,0:0:0:0:
64,192,30132,1,0,0:0:0:0:
64,192,30215,1,0,0:0:0:0:
192,192,30215,1,0,0:0:0:0:
64,192,30298,1,0,0:0:0:0:
320,192,30298,1,0,0:0:0:0:
448,192,30298,1,0,0:0:0:0:
448,192,30382,1,0,0:0:0:0:
64,192,30465,1,0,0:0:0:0:
320,192,30465,1,0,0:0:0:0:
448,192,30465,1,0,0:0:0:0:
64,192,30548,1,0,0:0:0:0:
192,192,30548,1,0,0:0:0:0:
64,192,30632,1,0,0:0:0:0:
320,192,30715,1,0,0:0:0:0:
192,192,30798,1,0,0:0:0:0:
448,192,30798,1,0,0:0:0:0:
64,192,30882,1,0,0:0:0:0:
192,192,30965,1,0,0:0:0:0:
320,192,30965,1,0,0:0:0:0:
448,192,30965,1,0,0:0:0:0:
64,192,31048,1,0,0:0:0:0:
192,192,31132,1,0,0:0:0:0:
448,192,31215,1,0,0:0:0:0:
64,192,31298,1,0,0:0:0:0:
320,192,31298,1,0,0:0:0:0:
192,192,31382,1,0,0:0:0:0:
320,192,31465,1,0,0:0:0:0:
64,192,31548,1,0,0:0:0:0:
192,192,31548,1,0,0:0:0:0:
64,192,31632,1,0,0:0:0:0:
320,192,31632,1,0,0:0:0:0:
448,192,31632,1,0,0:0:0:0:
64,192,31715,1,0,0:0:0:0:
320,192,31798,1,0,0:0:0:0:
448,192,31798,1,0,0:0:0:0:
192,192,31882,1,0,0:0:0:0:
448,192,31882,1,0,0:0:0:0:
64,192,31965,1,0,0:0:0:0:
64,192,32048,1,0,0:0:0:0:
192,192,32132,1,0,0:0:0:0:
448,192,32132,1,0,0:0:0:0:
448,192,32215,1,0,0:0:0:0:
64,192,32298,1,0,0:0:0:0:
320,192,32298,1,0,0:0:0:0:
192,192,32465,1,0,0:0:0:0:
64,192,32632,1,0,0:0:0:0:
192,192,32632,1,0,0:0:0:0:
320,192,32632,1,0,0:0:0:0:
448,192,32632,1,0,0:0:0:0:
64,192,32798,1,0,0:0:0:0:
192,192,32882,1,0,0:0:0:0:
64,192,32965,1,0,0:0:0:0:
320,192,32965,1,0,0:0:0:0:
448,192,32965,1,0,0:0:0:0:
64,192,33132,1,0,0:0:0:0:
192,192,33215,1,0,0:0:0:0:
64,192,33298,1,0,0:0:0:0:
320,192,33298,1,0,0:0:0:0:
448,192,33298,1,0,0:0:0:0:
192,192,33382,1,0,0:0:0:0:
320,192,33465,1,0,0:0:0:0:
64,192,33548,1,0,0:0:0:0:
192,192,33548,1,0,0:0:0:0:
448,192,33548,1,0,0:0:0:0:
320,192,33632,1,0,0:0:0:0:
64,192,33715,1,0,0:0:0:0:
192,192,33798,1,0,0:0:0:0:
320,192,33798,1,0,0:0:0:0:
448,192,33798,1,0,0:0:0:0:
192,192,33965,1,0,0:0:0:0:
320,192,33965,1,0,0:0:0:0:
448,192,33965,1,0,0:0:0:0:
64,192,34048,1,0,0:0:0:0:
192,192,34132,1,0,0:0:0:0:
320,192,34132,1,0,0:0:0:0:
64,192,34215,1,0,0:0:0:0:
192,192,34298,1,0,0:0:0:0:
320,192,34298,1,0,0:0:0:0:
448,192,34298,1,0,0:0:0:0:
64,192,34465,1,0,0:0:0:0:
320,192,34465,1,0,0:0:0:0:
192,192,34548,1,0,0:0:0:0:
64,192,34632,1,0,0:0:0:0:
320,192,34632,1,0,0:0:0:0:
448,192,34632,1,0,0:0:0:0:
192,192,34715,1,0,0:0:0:0:
320,192,34798,1,0,0:0:0:0:
448,192,34798,1,0,0:0:0:0:
192,192,34882,1,0,0:0:0:0:
320,192,34882,1,0,0:0:0:0:
448,192,34882,1,0,0:0:0:0:
64,192,34965,1,0,0:0:0:0:
192,192,35048,1,0,0:0:0:0:
448,192,35048,1,0,0:0:0:0:
64,192,35132,1,0,0:0:0:0:
320,192,35132,1,0,0:0:0:0:
448,192,35132,1,0,0:0:0:0:
64,192,35215,1,0,0:0:0:0:
192,192,35298,1,0,0:0:0:0:
320,192,35298,1,0,0:0:0:0:
448,192,35298,1,0,0:0:0:0:
64,192,35382,1,0,0:0:0:0:
192,192,35465,1,0,0:0:0:0:
448,192,35465,1,0,0:0:0:0:
320,192,35548,1,0,0:0:0:0:
64,192,35632,1,0,0:0:0:0:
192,192,35632,1,0,0:0:0:0:
448,192,35632,1,0,0:0:0:0:
192,192,35798,1,0,0:0:0:0:
448,192,35798,1,0,0:0:0:0:
64,192,35882,1,0,0:0:0:0:
192,192,35965,1,0,0:0:0:0:
320,192,35965,1,0,0:0:0:0:
448,192,35965,1,0,0:0:0:0:
64,192,36048,1,0,0:0:0:0:
320,192,36132,1,0,0:0:0:0:
64,192,36215,1,0,0:0:0:0:
192,192,36215,1,0,0:0:0:0:
448,192,36215,1,0,0:0:0:0:
320,192,36298,1,0,0:0:0:0:
448,192,36382,1,0,0:0:0:0:
64,192,36465,1,0,0:0:0:0:
192,192,36465,1,0,0:0:0:0:
320,192,36465,1,0,0:0:0:0:
64,192,36632,1,0,0:0:0:0:
192,192,36632,1,0,0:0:0:0:
320,192,36632,1,0,0:0:0:0:
448,192,36715,1,0,0:0:0:0:
192,192,36798,1,0,0:0:0:0:
448,192,36882,1,0,0:0:0:0:
64,192,36965,1,0,0:0:0:0:
192,192,36965,1,0,0:0:0:0:
320,192,36965,1,0,0:0:0:0:
448,192,37048,1,0,0:0:0:0:
192,192,37132,1,0,0:0:0:0:
448,192,37215,1,0,0:0:0:0:
64,192,37298,1,0,0:0:0:0:
192,192,37298,1,0,0:0:0:0:
320,192,37298,1,0,0:0:0:0:
448,192,37382,1,0,0:0:0:0:
192,192,37465,1,0,0:0:0:0:
64,192,37548,1,0,0:0:0:0:
320,192,37548,1,0,0:0:0:0:
448,192,37548,1,0,0:0:0:0:
192,192,37632,1,0,0:0:0:0:
320,192,37632,1,0,0:0:0:0:
448,192,37715,1,0,0:0:0:0:
64,192,37798,1,0,0:0:0:0:
192,192,37798,1,0,0:0:0:0:
320,192,37798,1,0,0:0:0:0:
64,192,37882,1,0,0:0:0:0:
192,192,37965,1,0,0:0:0:0:
320,192,37965,1,0,0:0:0:0:
448,192,37965,1,0,0:0:0:0:
64,192,38048,1,0,0:0:0:0:
192,192,38132,1,0,0:0:0:0:
320,192,38215,1,0,0:0:0:0:
64,192,38298,1,0,0:0:0:0:
192,192,38298,1,0,0:0:0:0:
448,192,38298,1,0,0:0:0:0:
320,192,38382,1,0,0:0:0:0:
64,192,38465,1,0,0:0:0:0:
192,192,38465,1,0,0:0:0:0:
320,192,38465,1,0,0:0:0:0:
448,192,38465,1,0,0:0:0:0:
64,192,38548,1,0,0:0:0:0:
192,192,38632,1,0,0:0:0:0:
320,192,38632,1,0,0:0:0:0:
448,192,38632,1,0,0:0:0:0:
64,192,38715,1,0,0:0:0:0:
192,192,38798,1,0,0:0:0:0:
64,192,38882,1,0,0:0:0:0:
320,192,38882,1,0,0:0:0:0:
448,192,38882,1,0,0:0:0:0:
192,192,38965,1,0,0:0:0:0:
448,192,38965,1,0,0:0:0:0:
192,192,39048,1,0,0:0:0:0:
192,192,39132,1,0,0:0:0:0:
320,192,39132,1,0,0:0:0:0:
448,192,39132,1,0,0:0:0:0:
64,192,39298,1,0,0:0:0:0:
320,192,39298,1,0,0:0:0:0:
448,192,39298,1,0,0:0:0:0:
192,192,39382,1,0,0:0:0:0:
320,192,39465,1,0,0:0:0:0:
64,192,39548,1,0,0:0:0:0:
192,192,39548,1,0,0:0:0:0:
64,192,39632,1,0,0:0:0:0:
192,192,39632,1,0,0:0:0:0:
448,192,39632,1,0,0:0:0:0:
320,192,39715,1,0,0:0:0:0:
192,192,39798,1,0,0:0:0:0:
448,192,39798,1,0,0:0:0:0:
64,192,39882,1,0,0:0:0:0:
192,192,39965,1,0,0:0:0:0:
320,192,39965,1,0,0:0:0:0:
448,192,39965,1,0,0:0:0:0:
64,192,40048,1,0,0:0:0:0:
320,192,40132,1,0,0:0:0:0:
448,192,40132,1,0,0:0:0:0:
192,192,40215,1,0,0:0:0:0:
320,192,40215,1,0,0:0:0:0:
448,192,40215,1,0,0:0:0:0:
64,192,40298,1,0,0:0:0:0:
192,192,40298,1,0,0:0:0:0:
64,192,40382,1,0,0:0:0:0:
448,192,40382,1,0,0:0:0:0:
192,192,40465,1,0,0:0:0:0:
320,192,40465,1,0,0:0:0:0:
448,192,40465,1,0,0:0:0:0:
192,192,40548,1,0,0:0:0:0:
64,192,40632,1,0,0:0:0:0:
320,192,40632,1,0,0:0:0:0:
448,192,40632,1,0,0:0:0:0:
64,192,40715,1,0,0:0:0:0:
320,192,40798,1,0,0:0:0:0:
320,192,40882,1,0,0:0:0:0:
64,192,40965,1,0,0:0:0:0:
192,192,40965,1,0,0:0:0:0:
448,192,40965,1,0,0:0:0:0:
192,192,41048,1,0,0:0:0:0:
64,192,41132,1,0,0:0:0:0:
320,192,41132,1,0,0:0:0:0:
448,192,41132,1,0,0:0:0:0:
448,192,41215,1,0,0:0:0:0:
64,192,41298,1,0,0:0:0:0:
192,192,41298,1,0,0:0:0:0:
320,192,41298,1,0,0:0:0:0:
192,192,41382,1,0,0:0:0:0:
320,192,41465,1,0,0:0:0:0:
64,192,41548,1,0,0:0:0:0:
192,192,41548,1,0,0:0:0:0:
320,192,41548,1,0,0:0:0:0:
64,192,41632,1,0,0:0:0:0:
448,192,41632,1,0,0:0:0:0:
448,192,41715,1,0,0:0:0:0:
64,192,41798,1,0,0:0:0:0:
192,192,41798,1,0,0:0:0:0:
320,192,41798,1,0,0:0:0:0:
64,192,41882,1,0,0:0:0:0:
192,192,41965,1,0,0:0:0:0:
320,192,41965,1,0,0:0:0:0:
448,192,41965,1,0,0:0:0:0:
320,192,42048,1,0,0:0:0:0:
64,192,42132,1,0,0:0:0:0:
448,192,42132,1,0,0:0:0:0:
64,192,42215,1,0,0:0:0:0:
192,192,42215,1,0,0:0:0:0:
320,192,42215,1,0,0:0:0:0:
448,192,42298,1,0,0:0:0:0:
64,192,42382,1,0,0:0:0:0:
192,192,42382,1,0,0:0:0:0:
64,192,42465,1,0,0:0:0:0:
320,192,42465,1,0,0:0:0:0:
448,192,42465,1,0,0:0:0:0:
320,192,42548,1,0,0:0:0:0:
448,192,42548,1,0,0:0:0:0:
64,192,42632,1,0,0:0:0:0:
192,192,42632,1,0,0:0:0:0:
448,192,42632,1,0,0:0:0:0:
192,192,42715,1,0,0:0:0:0:
320,192,42715,1,0,0:0:0:0:
448,192,42715,1,0,0:0:0:0:
64,192,42798,1,0,0:0:0:0:
320,192,42798,1,0,0:0:0:0:
64,192,42882,1,0,0:0:0:0:
192,192,42882,1,0,0:0:0:0:
448,192,42882,1,0,0:0:0:0:
192,192,42965,1,0,0:0:0:0:
320,192,42965,1,0,0:0:0:0:
448,192,43048,1,0,0:0:0:0:
192,192,43132,1,0,0:0:0:0:
64,192,43160,1,0,0:0:0:0:
320,192,43215,1,0,0:0:0:0:
448,192,43243,1,0,0:0:0:0:
64,192,43298,1,0,0:0:0:0:
192,192,43298,1,0,0:0:0:0:
320,192,43298,1,0,0:0:0:0:
448,192,43298,1,0,0:0:0:0:
