osu file format v14

[General]
AudioFilename: audio.mp3
AudioLeadIn: 0
PreviewTime: 1311
Countdown: 0
SampleSet: Normal
StackLeniency: 0.7
Mode: 1
LetterboxInBreaks: 0
WidescreenStoryboard: 0

[Editor]
DistanceSpacing: 1
BeatDivisor: 4
GridSize: 32
TimelineZoom: 1.5

[Metadata]
Title:226 - Inoshikachoo!
TitleUnicode:226 - イノシカチョー!
Artist:saradisk
ArtistUnicode:saradisk
Creator:Jaltzu
Version:Oni
Source:
Tags:japanese electronic saradisc 皿 sara anime naruto novelty ナルト
BeatmapID:2347225
BeatmapSetID:1123258

[Difficulty]
HPDrainRate:6.5
CircleSize:2
OverallDifficulty:5.5
ApproachRate:0
SliderMultiplier:1.4
SliderTickRate:1

[Events]
//Background and Video events
0,0,"168603.jpg",0,90
//Break Periods
//Storyboard Layer 0 (Background)
//Storyboard Layer 1 (Fail)
//Storyboard Layer 2 (Pass)
//Storyboard Layer 3 (Foreground)
//Storyboard Layer 4 (Overlay)
//Storyboard Sound Samples

[TimingPoints]
1400,352.941176470588,4,1,0,60,1,0
11282,-100,4,1,0,40,0,0
12694,-100,4,1,0,60,0,0
23988,-100,4,1,0,60,0,1
33870,-100,4,1,0,50,0,0

[HitObjects]
256,192,1400,5,0,0:0:0:0:
256,192,1752,1,8,0:0:0:0:
256,192,1929,1,0,0:0:0:0:
256,192,2017,1,0,0:0:0:0:
256,192,2105,1,8,0:0:0:0:
256,192,2282,1,0,0:0:0:0:
256,192,2458,1,8,0:0:0:0:
256,192,2635,1,8,0:0:0:0:
256,192,2811,1,0,0:0:0:0:
256,192,2988,1,0,0:0:0:0:
256,192,3164,1,8,0:0:0:0:
256,192,3252,1,0,0:0:0:0:
256,192,3341,1,8,0:0:0:0:
256,192,3517,1,8,0:0:0:0:
256,192,3694,1,0,0:0:0:0:
256,192,3782,1,0,0:0:0:0:
256,192,3870,1,8,0:0:0:0:
256,192,4047,1,0,0:0:0:0:
256,192,4223,1,0,0:0:0:0:
256,192,4576,1,8,0:0:0:0:
256,192,4752,1,0,0:0:0:0:
256,192,4841,1,0,0:0:0:0:
256,192,4929,1,8,0:0:0:0:
256,192,5105,1,0,0:0:0:0:
256,192,5282,1,8,0:0:0:0:
256,192,5458,1,8,0:0:0:0:
256,192,5635,1,0,0:0:0:0:
256,192,5988,1,8,0:0:0:0:
256,192,6076,1,8,0:0:0:0:
256,192,6164,1,0,0:0:0:0:
256,192,6341,1,8,0:0:0:0:
256,192,6517,1,8,0:0:0:0:
256,192,6605,1,8,0:0:0:0:
256,192,6694,1,0,0:0:0:0:
256,192,6782,1,8,0:0:0:0:
256,192,6870,1,0,0:0:0:0:
256,192,7047,1,0,0:0:0:0:
256,192,7399,1,8,0:0:0:0:
256,192,7576,1,0,0:0:0:0:
256,192,7664,1,0,0:0:0:0:
256,192,7752,1,8,0:0:0:0:
256,192,7929,1,0,0:0:0:0:
256,192,8105,1,8,0:0:0:0:
256,192,8282,1,8,0:0:0:0:
256,192,8458,1,0,0:0:0:0:
256,192,8635,1,0,0:0:0:0:
256,192,8811,1,8,0:0:0:0:
256,192,8899,1,0,0:0:0:0:
256,192,8988,1,8,0:0:0:0:
256,192,9164,1,8,0:0:0:0:
256,192,9341,1,0,0:0:0:0:
256,192,9429,1,0,0:0:0:0:
256,192,9517,1,8,0:0:0:0:
256,192,9694,1,0,0:0:0:0:
256,192,9870,1,0,0:0:0:0:
256,192,10223,1,8,0:0:0:0:
256,192,10311,1,8,0:0:0:0:
256,192,10399,1,0,0:0:0:0:
256,192,10576,1,8,0:0:0:0:
256,192,10752,1,0,0:0:0:0:
256,192,10841,1,0,0:0:0:0:
256,192,10929,1,8,0:0:0:0:
256,192,11105,1,8,0:0:0:0:
256,192,11282,1,0,0:0:0:0:
256,192,11635,1,0,0:0:0:0:
256,192,11988,1,8,0:0:0:0:
256,192,12694,5,4,0:0:0:0:
256,192,13047,1,8,0:0:0:0:
256,192,13223,1,0,0:0:0:0:
256,192,13399,1,0,0:0:0:0:
256,192,13488,1,8,0:0:0:0:
256,192,13576,1,0,0:0:0:0:
256,192,13752,1,8,0:0:0:0:
256,192,13929,1,0,0:0:0:0:
256,192,14105,1,0,0:0:0:0:
256,192,14194,1,0,0:0:0:0:
256,192,14370,1,8,0:0:0:0:
256,192,14458,1,8,0:0:0:0:
256,192,14547,1,0,0:0:0:0:
256,192,14723,1,0,0:0:0:0:
256,192,14811,1,0,0:0:0:0:
256,192,15076,1,0,0:0:0:0:
256,192,15164,1,8,0:0:0:0:
256,192,15341,1,8,0:0:0:0:
256,192,15517,1,0,0:0:0:0:
256,192,15870,1,8,0:0:0:0:
256,192,16047,1,0,0:0:0:0:
256,192,16223,1,0,0:0:0:0:
256,192,16311,1,8,0:0:0:0:
256,192,16399,1,8,0:0:0:0:
256,192,16576,1,8,0:0:0:0:
256,192,16752,1,0,0:0:0:0:
256,192,16929,1,0,0:0:0:0:
256,192,17017,1,8,0:0:0:0:
256,192,17105,1,8,0:0:0:0:
256,192,17194,1,0,0:0:0:0:
256,192,17282,1,8,0:0:0:0:
256,192,17458,1,0,0:0:0:0:
256,192,17547,1,8,0:0:0:0:
256,192,17635,1,0,0:0:0:0:
256,192,17811,1,0,0:0:0:0:
256,192,17988,1,8,0:0:0:0:
256,192,18076,1,0,0:0:0:0:
256,192,18164,1,8,0:0:0:0:
256,192,18341,1,0,0:0:0:0:
256,192,18694,1,8,0:0:0:0:
256,192,18870,1,0,0:0:0:0:
256,192,19047,1,0,0:0:0:0:
256,192,19135,1,8,0:0:0:0:
256,192,19223,1,8,0:0:0:0:
256,192,19399,1,8,0:0:0:0:
256,192,19576,1,0,0:0:0:0:
256,192,19752,1,0,0:0:0:0:
256,192,19841,1,0,0:0:0:0:
256,192,20017,1,8,0:0:0:0:
256,192,20105,1,8,0:0:0:0:
256,192,20194,1,0,0:0:0:0:
256,192,20370,1,0,0:0:0:0:
256,192,20458,1,0,0:0:0:0:
256,192,20723,1,0,0:0:0:0:
256,192,20811,1,8,0:0:0:0:
256,192,20988,1,0,0:0:0:0:
256,192,21164,1,0,0:0:0:0:
256,192,21517,1,8,0:0:0:0:
256,192,21694,1,0,0:0:0:0:
256,192,21870,1,0,0:0:0:0:
256,192,21958,1,8,0:0:0:0:
256,192,22047,1,8,0:0:0:0:
256,192,22135,1,0,0:0:0:0:
256,192,22223,1,8,0:0:0:0:
256,192,22399,1,0,0:0:0:0:
256,192,22576,1,8,0:0:0:0:
256,192,22752,1,8,0:0:0:0:
256,192,22841,1,0,0:0:0:0:
256,192,23017,1,8,0:0:0:0:
256,192,23194,1,8,0:0:0:0:
256,192,23282,1,8,0:0:0:0:
256,192,23458,1,8,0:0:0:0:
256,192,23547,1,0,0:0:0:0:
256,192,23723,1,8,0:0:0:0:
256,192,23811,1,0,0:0:0:0:
256,192,23988,5,4,0:0:0:0:
256,192,24341,1,8,0:0:0:0:
256,192,24429,1,8,0:0:0:0:
256,192,24517,1,0,0:0:0:0:
256,192,24694,1,0,0:0:0:0:
256,192,24782,1,0,0:0:0:0:
256,192,24870,1,8,0:0:0:0:
256,192,24958,1,0,0:0:0:0:
256,192,25047,1,8,0:0:0:0:
256,192,25223,1,0,0:0:0:0:
256,192,25399,1,0,0:0:0:0:
256,192,25488,1,8,0:0:0:0:
256,192,25576,1,0,0:0:0:0:
256,192,25752,1,8,0:0:0:0:
256,192,25841,1,0,0:0:0:0:
256,192,26017,1,0,0:0:0:0:
256,192,26105,1,8,0:0:0:0:
256,192,26370,1,0,0:0:0:0:
256,192,26458,1,8,0:0:0:0:
256,192,26635,1,8,0:0:0:0:
256,192,26811,1,0,0:0:0:0:
256,192,27164,1,8,0:0:0:0:
256,192,27252,1,8,0:0:0:0:
256,192,27341,1,0,0:0:0:0:
256,192,27517,1,0,0:0:0:0:
256,192,27605,1,8,0:0:0:0:
256,192,27694,1,8,0:0:0:0:
256,192,27782,1,0,0:0:0:0:
256,192,27870,1,8,0:0:0:0:
256,192,28047,1,0,0:0:0:0:
256,192,28223,1,0,0:0:0:0:
256,192,28311,1,0,0:0:0:0:
256,192,28399,1,0,0:0:0:0:
256,192,28576,1,8,0:0:0:0:
256,192,28664,1,0,0:0:0:0:
256,192,28841,1,0,0:0:0:0:
256,192,28929,1,0,0:0:0:0:
256,192,29194,1,0,0:0:0:0:
256,192,29282,1,8,0:0:0:0:
256,192,29370,1,8,0:0:0:0:
256,192,29458,1,0,0:0:0:0:
256,192,29635,1,4,0:0:0:0:
256,192,29988,1,8,0:0:0:0:
256,192,30076,1,0,0:0:0:0:
256,192,30164,1,0,0:0:0:0:
256,192,30341,1,0,0:0:0:0:
256,192,30429,1,8,0:0:0:0:
256,192,30517,1,0,0:0:0:0:
256,192,30605,1,0,0:0:0:0:
256,192,30694,1,8,0:0:0:0:
256,192,30870,1,0,0:0:0:0:
256,192,31047,1,8,0:0:0:0:
256,192,31223,1,0,0:0:0:0:
256,192,31311,1,8,0:0:0:0:
256,192,31399,1,8,0:0:0:0:
256,192,31488,1,0,0:0:0:0:
256,192,31664,1,0,0:0:0:0:
256,192,31752,1,8,0:0:0:0:
256,192,32017,1,0,0:0:0:0:
256,192,32105,1,8,0:0:0:0:
256,192,32282,1,8,0:0:0:0:
256,192,32458,1,0,0:0:0:0:
256,192,32811,1,8,0:0:0:0:
256,192,32899,1,8,0:0:0:0:
256,192,32988,1,0,0:0:0:0:
256,192,33164,1,0,0:0:0:0:
256,192,33252,1,8,0:0:0:0:
256,192,33341,1,8,0:0:0:0:
256,192,33429,1,0,0:0:0:0:
256,192,33517,1,8,0:0:0:0:
256,192,33694,1,0,0:0:0:0:
256,192,33870,1,0,0:0:0:0:
256,192,34047,1,0,0:0:0:0:
256,192,34135,1,8,0:0:0:0:
256,192,34311,1,8,0:0:0:0:
256,192,34399,1,0,0:0:0:0:
256,192,34488,1,0,0:0:0:0:
256,192,34576,1,8,0:0:0:0:
