osu file format v14

[General]
AudioFilename: audio.mp3
AudioLeadIn: 0
PreviewTime: 6079
Countdown: 0
SampleSet: Normal
StackLeniency: 0.7
Mode: 1
LetterboxInBreaks: 0
WidescreenStoryboard: 0

[Editor]
DistanceSpacing: 0.9
BeatDivisor: 4
GridSize: 32
TimelineZoom: 1

[Metadata]
Title:222 - wewewe
TitleUnicode:222 - wewewe
Artist:saradisk
ArtistUnicode:saradisk
Creator:guro
Version:Kantan
Source:
Tags:Ayyri eiri- Tetrix Bass Feat. Veela The Light happy hardcore happycore night sky
BeatmapID:1677019
BeatmapSetID:-1

[Difficulty]
HPDrainRate:7
CircleSize:5
OverallDifficulty:3
ApproachRate:10
SliderMultiplier:1.4
SliderTickRate:1

[Events]
//Background and Video events
0,0,"all ages audience.jpg",0,0
//Break Periods
//Storyboard Layer 0 (Background)
//Storyboard Layer 1 (Fail)
//Storyboard Layer 2 (Pass)
//Storyboard Layer 3 (Foreground)
//Storyboard Sound Samples

[TimingPoints]
6080,333.333333333333,4,1,0,100,1,0

[HitObjects]
224,160,6079,5,0,0:0:0:0:
288,160,7413,1,0,0:0:0:0:
288,224,8079,1,2,0:0:0:0:
224,224,8746,1,0,0:0:0:0:
224,160,10079,1,0,0:0:0:0:
288,160,10746,1,2,0:0:0:0:
288,224,11079,1,2,0:0:0:0:
224,224,11413,1,0,0:0:0:0:
224,160,12746,1,0,0:0:0:0:
288,160,13413,1,2,0:0:0:0:
288,160,14079,1,0,0:0:0:0:
288,224,15413,1,6,0:0:0:0:
224,224,16079,1,2,0:0:0:0:
224,160,16413,1,2,0:0:0:0:
224,160,16746,1,4,0:0:0:0:
288,160,18079,1,2,0:0:0:0:
288,224,18413,1,2,0:0:0:0:
224,224,18746,1,2,0:0:0:0:
224,160,19413,1,0,0:0:0:0:
288,160,20746,1,2,0:0:0:0:
288,224,21079,1,0,0:0:0:0:
224,224,21413,1,2,0:0:0:0:
224,160,22079,1,0,0:0:0:0:
288,160,23413,1,2,0:0:0:0:
288,224,23746,1,2,0:0:0:0:
224,224,24413,1,2,0:0:0:0:
224,160,24746,1,0,0:0:0:0:
288,160,26079,1,2,0:0:0:0:
288,224,26413,1,0,0:0:0:0:
224,224,27079,1,0,0:0:0:0:
224,160,27413,1,6,0:0:0:0:
288,160,28746,1,2,0:0:0:0:
288,224,29079,1,2,0:0:0:0:
224,224,29413,1,0,0:0:0:0:
224,160,30079,1,2,0:0:0:0:
288,160,31413,1,0,0:0:0:0:
288,224,31746,1,0,0:0:0:0:
224,224,32079,1,2,0:0:0:0:
224,160,32746,1,0,0:0:0:0:
288,160,34079,1,2,0:0:0:0:
288,224,34413,1,2,0:0:0:0:
224,224,34746,1,2,0:0:0:0:
224,160,35079,1,2,0:0:0:0:
288,160,35413,1,0,0:0:0:0:
288,224,36746,1,0,0:0:0:0:
224,224,37079,1,2,0:0:0:0:
224,160,37413,1,0,0:0:0:0:
288,160,37746,1,2,0:0:0:0:
288,224,38079,1,4,0:0:0:0:
224,224,39413,1,2,0:0:0:0:
224,160,40079,1,2,0:0:0:0:
288,160,40413,1,2,0:0:0:0:
288,224,40746,1,0,0:0:0:0:
224,224,41413,1,2,0:0:0:0:
224,160,42079,1,0,0:0:0:0:
288,160,42413,1,2,0:0:0:0:
288,224,42746,1,2,0:0:0:0:
224,224,43079,1,2,0:0:0:0:
224,160,43413,1,0,0:0:0:0:
288,160,44746,1,0,0:0:0:0:
288,224,45413,1,0,0:0:0:0:
224,224,45746,1,0,0:0:0:0:
224,160,46079,1,2,0:0:0:0:
288,160,46746,1,0,0:0:0:0:
288,224,47412,1,2,0:0:0:0:
224,224,47746,1,0,0:0:0:0:
224,160,48079,1,2,0:0:0:0:
288,160,48413,1,0,0:0:0:0:
288,224,48746,1,6,0:0:0:0:
