osu file format v14

[General]
AudioFilename: audio.mp3
AudioLeadIn: 0
PreviewTime: 6030
Countdown: 0
SampleSet: Normal
StackLeniency: 0.7
Mode: 0
LetterboxInBreaks: 0
WidescreenStoryboard: 1

[Editor]
DistanceSpacing: 1
BeatDivisor: 8
GridSize: 32
TimelineZoom: 3.099999

[Metadata]
Title:222 - wewewe
TitleUnicode:222 - wewewe
Artist:saradisk
ArtistUnicode:saradisk
Creator:Uta
Version:Fall's Expert
Source:
Tags:waifuiscute fluffy hair shiino fall _tranquility seox oneshotfox hardcore happycore electronic instrumental
BeatmapID:2328396
BeatmapSetID:1114649

[Difficulty]
HPDrainRate:5
CircleSize:3.8
OverallDifficulty:8.7
ApproachRate:9
SliderMultiplier:1.8
SliderTickRate:1

[Events]
//Background and Video events
0,0,"222.jpg",0,0
//Break Periods
//Storyboard Layer 0 (Background)
//Storyboard Layer 1 (Fail)
//Storyboard Layer 2 (Pass)
//Storyboard Layer 3 (Foreground)
//Storyboard Layer 4 (Overlay)
//Storyboard Sound Samples

[TimingPoints]
6031,333.333333333333,4,1,1,100,1,0
19030,-100,4,1,4,100,0,0
19364,-100,4,1,1,100,0,0
21697,-100,4,1,4,100,0,0
22030,-100,4,1,1,100,0,0
24364,-100,4,1,4,100,0,0
24697,-100,4,1,1,100,0,0
29697,-100,4,1,4,100,0,0
30030,-100,4,1,1,100,0,0
32364,-100,4,1,4,100,0,0
32697,-100,4,1,1,100,0,0
34864,-100,4,1,4,100,0,0
35364,-100,4,1,1,100,0,0
38030,-100,4,1,1,90,0,0
48697,-100,4,1,2,90,0,0

[Colours]
Combo1 : 202,164,47
Combo2 : 233,152,221
Combo3 : 38,196,213

[HitObjects]
256,192,3364,12,0,5864,0:0:0:0:
49,83,6030,6,0,B|163:82|145:141|260:143,1,180,0|8,3:0|0:0,0:0:0:0:
359,156,6530,1,0,0:0:0:0:
272,49,6697,1,0,3:0:0:0:
196,246,6864,1,2,0:0:0:0:
196,246,6947,1,2,0:0:0:0:
196,246,7030,2,0,P|266:239|319:251,1,90,8|0,0:0|0:0,0:0:0:0:
377,120,7364,5,2,3:0:0:0:
417,355,7530,1,2,0:0:0:0:
460,132,7697,1,10,0:0:0:0:
320,333,7864,1,2,0:0:0:0:
497,237,8030,5,2,3:0:0:0:
291,242,8197,1,2,0:0:0:0:
393,381,8364,1,10,0:0:0:0:
430,171,8530,1,2,0:0:0:0:
242,317,8697,6,0,P|170:316|132:281,1,90,2|0,3:0|0:0,0:0:0:0:
33,161,9030,2,0,P|105:162|143:197,1,90,8|0,0:0|0:0,0:0:0:0:
205,239,9364,1,0,3:0:0:0:
295,44,9530,1,0,0:0:0:0:
295,44,9614,1,0,0:0:0:0:
295,44,9697,2,0,P|282:120|300:167,1,90,8|0,0:0|0:0,0:0:0:0:
445,177,10030,5,2,3:0:0:0:
229,235,10197,1,2,0:0:0:0:
382,122,10364,1,10,0:0:0:0:
295,307,10530,1,2,0:0:0:0:
224,60,10697,5,2,3:0:0:0:
296,358,10864,1,2,0:0:0:0:
399,98,11030,5,10,0:0:0:0:
297,384,11197,1,2,0:0:0:0:
164,100,11364,6,0,P|141:158|146:217,1,90,0|0,3:0|0:0,0:0:0:0:
357,37,11697,2,0,P|380:95|375:154,1,90,8|0,0:0|0:0,0:0:0:0:
153,272,12030,2,0,P|224:249|264:262,1,90,0|0,3:0|0:0,0:0:0:0:
268,255,12280,1,0,0:0:0:0:
268,255,12364,1,8,0:0:0:0:
122,358,12530,1,0,0:0:0:0:
84,144,12697,5,2,3:0:0:0:
201,341,12864,1,2,0:0:0:0:
194,152,13030,1,10,0:0:0:0:
111,342,13197,1,2,0:0:0:0:
303,255,13364,5,2,3:0:0:0:
57,233,13530,1,2,0:0:0:0:
274,179,13697,1,10,0:0:0:0:
74,208,13864,1,2,0:0:0:0:
146,87,14030,6,0,P|187:71|232:67,1,90,0|0,3:0|0:0,0:0:0:0:
436,90,14364,2,0,P|394:106|349:110,1,90,8|0,0:0|0:0,0:0:0:0:
323,112,14614,1,0,3:0:0:0:
323,112,14697,1,8,0:0:0:0:
455,200,14864,1,0,0:0:0:0:
455,200,14947,1,0,0:0:0:0:
455,200,15030,1,8,0:0:0:0:
315,29,15197,1,0,3:0:0:0:
226,304,15364,5,0,3:0:0:0:
349,110,15530,1,0,3:0:0:0:
383,366,15697,1,0,0:0:0:0:
250,104,15864,1,0,3:0:0:0:
150,352,16030,5,0,3:0:0:0:
248,64,16197,1,2,0:0:0:0:
320,330,16364,5,8,0:0:0:0:
248,24,16530,1,2,0:0:0:0:
143,239,16697,6,0,P|123:152|138:64,2,180,0|8|0,3:0|0:0|3:0,0:0:0:0:
339,46,17530,1,0,0:0:0:0:
227,177,17697,1,8,0:0:0:0:
232,27,17864,1,0,0:0:0:0:
339,213,18030,6,0,P|342:281|330:330,1,90,0|2,3:0|0:0,0:0:0:0:
430,170,18364,2,0,P|424:125|429:80,1,90,8|2,0:0|0:0,0:0:0:0:
491,247,18697,1,0,3:0:0:0:
491,247,18864,1,0,0:0:0:0:
324,328,19030,2,0,P|261:359|189:347,1,135,14|0,0:0|0:0,0:0:0:0:
173,332,19364,6,0,L|176:141,2,180,0|8|0,3:0|0:0|3:0,0:0:0:0:
65,122,20197,1,0,0:0:0:0:
87,333,20364,1,8,0:0:0:0:
158,143,20530,1,2,0:0:0:0:
34,248,20697,5,0,3:0:0:0:
198,351,20864,1,2,0:0:0:0:
99,201,21030,1,8,0:0:0:0:
263,148,21197,1,2,0:0:0:0:
212,60,21364,2,0,P|279:38|335:51,1,90,0|0,3:0|0:0,0:0:0:0:
512,106,21697,2,0,P|445:128|365:107,1,135,14|0,0:0|0:0,0:0:0:0:
360,94,22030,6,0,P|343:159|354:281,2,180,0|8|0,3:0|0:0|3:0,0:0:0:0:
482,195,22864,1,0,0:0:0:0:
437,39,23030,1,8,0:0:0:0:
306,176,23197,1,0,0:0:0:0:
222,29,23364,2,0,L|124:34,1,90,0|2,3:0|0:0,0:0:0:0:
0,152,23697,2,0,L|98:157,1,90,8|2,0:0|0:0,0:0:0:0:
269,183,24030,2,0,P|223:263|231:298,1,90,0|2,3:0|0:0,0:0:0:0:
170,358,24364,2,0,P|124:278|124:218,1,135,14|0,0:0|0:0,0:0:0:0:
144,215,24697,6,0,P|165:167|191:38,2,180,0|8|0,3:0|0:0|3:0,0:0:0:0:
95,72,25530,1,0,0:0:0:0:
300,119,25697,1,8,0:0:0:0:
144,215,25864,1,0,0:0:0:0:
397,255,26030,5,8,0:0:0:0:
316,32,26364,5,8,0:0:0:0:
112,278,26697,6,0,L|113:320,4,22.5,0|0|0|0|0,3:0|0:0|0:0|0:0|0:0,0:0:0:0:
287,230,27030,2,0,L|288:188,4,22.5,12|0|0|0|0,0:0|0:0|0:0|0:0|0:0,0:0:0:0:
429,334,27364,6,0,P|421:259|436:131,2,180,0|8|0,3:0|0:0|3:0,0:0:0:0:
507,185,28197,1,0,0:0:0:0:
404,380,28364,1,8,0:0:0:0:
301,204,28530,1,0,0:0:0:0:
506,272,28697,5,0,3:0:0:0:
273,321,28864,1,2,0:0:0:0:
476,194,29030,5,8,0:0:0:0:
267,94,29197,1,2,0:0:0:0:
138,171,29364,2,0,L|258:172,1,90,0|2,3:0|0:0,0:0:0:0:
137,76,29697,2,0,P|78:96|41:172,1,135,14|0,0:0|0:0,0:0:0:0:
46,187,30030,6,0,P|54:248|48:366,2,180,0|8|0,3:0|0:0|3:0,0:0:0:0:
147,42,30864,1,0,0:0:0:0:
227,212,31030,1,8,0:0:0:0:
310,7,31197,1,0,0:0:0:0:
409,179,31364,6,0,P|359:191|312:169,1,90,0|2,3:0|0:0,0:0:0:0:
202,99,31697,2,0,P|244:86|287:98,1,90,8|2,0:0|0:0,0:0:0:0:
370,285,32030,1,0,3:0:0:0:
370,285,32197,1,2,0:0:0:0:
494,207,32364,2,0,P|492:143|461:74,1,135,14|0,0:0|0:0,0:0:0:0:
433,69,32697,6,0,L|244:67,2,180,0|8|0,3:0|0:0|3:0,0:0:0:0:
285,204,33530,1,0,0:0:0:0:
442,98,33697,1,8,0:0:0:0:
226,67,33864,1,0,0:0:0:0:
329,294,34030,5,0,3:0:0:0:
358,39,34197,1,2,0:0:0:0:
243,303,34364,5,10,0:0:0:0:
147,66,34530,1,2,0:0:0:0:
85,276,34697,2,0,L|85:173,1,90,2|14,3:0|0:0,0:0:0:0:
152,26,35030,2,0,P|214:50|251:132,1,135,14|0,0:0|0:0,0:0:0:0:
244,138,35364,6,0,P|238:232|265:317,2,180,0|8|0,3:0|0:0|3:0,0:0:0:0:
415,49,36197,1,0,0:0:0:0:
336,222,36364,1,8,0:0:0:0:
308,31,36530,1,0,0:0:0:0:
413,282,36697,5,8,0:0:0:0:
493,90,36864,1,8,0:0:0:0:
285,144,37030,1,8,0:0:0:0:
488,233,37197,1,8,0:0:0:0:
327,362,37364,6,0,L|331:328,4,22.5,0|0|0|0|0,3:0|0:0|0:0|0:0|0:0,0:0:0:0:
197,228,37697,2,0,L|193:194,4,22.5,8|0|0|0|0,0:0|0:0|0:0|0:0|0:0,0:0:0:0:
86,360,38030,6,0,P|54:276|49:157,1,180,0|8,3:0|0:0,0:0:0:0:
111,68,38530,1,0,0:0:0:0:
298,115,38697,2,0,P|242:136|204:132,1,90,0|0,3:0|0:0,0:0:0:0:
102,39,39030,1,8,0:0:0:0:
166,227,39197,1,0,0:0:0:0:
301,30,39364,6,0,P|358:58|404:165,2,180,0|8|0,3:0|0:0|3:0,0:0:0:0:
259,234,40197,1,0,0:0:0:0:
303,109,40364,1,8,0:0:0:0:
389,288,40530,1,0,0:0:0:0:
496,185,40697,6,0,L|399:188,1,90,0|0,3:0|0:0,0:0:0:0:
154,164,41030,2,0,P|221:183|262:246,1,135,12|0,0:0|0:0,0:0:0:0:
262,265,41364,6,0,L|151:263,1,90,0|0,3:0|0:0,0:0:0:0:
58,73,41697,2,0,P|37:167|65:220,1,135,12|0,0:0|0:0,0:0:0:0:
67,226,42030,6,0,P|81:298|76:323,1,90,0|0,3:0|0:0,0:0:0:0:
168,200,42364,2,0,P|166:155|179:112,1,90,8|0,0:0|0:0,0:0:0:0:
307,27,42697,1,0,3:0:0:0:
345,174,42864,1,0,0:0:0:0:
216,34,43030,2,0,P|151:26|109:44,1,90,8|0,0:0|0:0,0:0:0:0:
281,235,43364,6,0,P|341:262|454:219,2,180,0|8|0,3:0|0:0|3:0,0:0:0:0:
372,106,44197,1,0,0:0:0:0:
471,255,44364,1,8,0:0:0:0:
301,75,44530,6,0,P|338:36|411:33,1,90,0|0,0:0|3:0,0:0:0:0:
236,157,44864,2,0,P|199:118|126:115,1,90,0|8,0:0|0:0,0:0:0:0:
40,132,45197,1,0,0:0:0:0:
98,38,45364,1,0,3:0:0:0:
142,194,45530,1,0,0:0:0:0:
6,122,45697,2,0,P|-2:187|9:238,1,90,8|0,0:0|0:0,0:0:0:0:
152,365,46030,5,0,3:0:0:0:
237,118,46197,1,8,0:0:0:0:
310,376,46364,5,0,3:0:0:0:
238,79,46530,1,8,0:0:0:0:
412,166,46697,2,0,P|395:232|396:275,1,90,0|8,3:0|0:0,0:0:0:0:
502,179,47030,2,0,P|501:130|417:56,1,135,8|0,0:0|0:0,0:0:0:0:
416,69,47364,6,0,P|328:85|240:30,2,180,0|8|0,3:0|0:0|3:0,0:0:0:0:
250,181,48197,1,0,0:0:0:0:
344,28,48364,1,8,0:0:0:0:
367,213,48530,1,0,0:0:0:0:
223,0,48697,5,4,0:0:0:0:
