osu file format v14

[General]
AudioFilename: audio.mp3
AudioLeadIn: 0
PreviewTime: 6030
Countdown: 0
SampleSet: Normal
StackLeniency: 0.7
Mode: 0
LetterboxInBreaks: 0
WidescreenStoryboard: 0

[Editor]
DistanceSpacing: 1
BeatDivisor: 8
GridSize: 32
TimelineZoom: 2.1

[Metadata]
Title:222 - wewewe
TitleUnicode:222 - wewewe
Artist:saradisk
ArtistUnicode:saradisk
Creator:Uta
Version:Deluxe
Source:
Tags:waifuiscute fluffy hair shiino fall _tranquility seox oneshotfox hardcore happycore electronic instrumental
BeatmapID:2328389
BeatmapSetID:1114649

[Difficulty]
HPDrainRate:6
CircleSize:3.9
OverallDifficulty:8.7
ApproachRate:9.2
SliderMultiplier:1.8
SliderTickRate:1

[Events]
//Background and Video events
0,0,"222.jpg",0,0
//Break Periods
//Storyboard Layer 0 (Background)
//Storyboard Layer 1 (Fail)
//Storyboard Layer 2 (Pass)
//Storyboard Layer 3 (Foreground)
//Storyboard Layer 4 (Overlay)
//Storyboard Sound Samples

[TimingPoints]
6031,333.333333333333,4,1,1,100,1,0
16697,-83.3333333333333,4,1,1,100,0,0
19030,-50,4,1,4,100,0,0
19364,-83.3333333333333,4,1,1,100,0,0
21697,-50,4,1,4,100,0,0
22030,-83.3333333333333,4,1,1,100,0,0
24364,-50,4,1,4,100,0,0
24697,-83.3333333333333,4,1,1,100,0,0
26697,-45.4545454545455,4,1,1,100,0,0
27364,-71.4285714285714,4,1,1,100,0,0
29697,-50,4,1,4,100,0,0
30030,-71.4285714285714,4,1,1,100,0,0
32364,-50,4,1,4,100,0,0
32697,-71.4285714285714,4,1,1,100,0,0
34864,-71.4285714285714,4,1,4,100,0,0
35030,-50,4,1,4,100,0,0
35364,-71.4285714285714,4,1,1,100,0,0
36697,-83.3333333333333,4,1,1,100,0,0
37364,-100,4,1,1,100,0,0
38030,-100,4,1,1,90,0,0
41030,-55.5555555555556,4,1,1,90,0,0
41364,-100,4,1,1,90,0,0
41697,-55.5555555555556,4,1,1,90,0,0
42030,-100,4,1,1,90,0,0
46197,-83.3333333333333,4,1,1,90,0,0
47030,-71.4285714285714,4,1,1,90,0,0
47364,-100,4,1,1,90,0,0
48697,-100,4,1,2,90,0,0

[Colours]
Combo1 : 202,164,47
Combo2 : 233,152,221
Combo3 : 38,196,213

[HitObjects]
93,166,6030,6,0,P|140:148|204:155,1,90,0|0,3:0|3:0,0:0:0:0:
258,94,6280,1,2,0:0:0:0:
258,94,6364,2,0,P|305:112|369:105,1,90,8|0,0:0|0:0,0:0:0:0:
433,80,6697,1,0,3:0:0:0:
340,223,6864,1,0,0:0:0:0:
317,37,7030,1,8,0:0:0:0:
433,174,7197,1,0,0:0:0:0:
474,15,7364,5,2,3:0:0:0:
340,223,7530,1,2,0:0:0:0:
474,15,7697,1,10,0:0:0:0:
340,223,7864,1,2,0:0:0:0:
244,57,8030,5,2,3:0:0:0:
434,187,8197,1,2,0:0:0:0:
244,57,8364,1,10,0:0:0:0:
434,187,8530,1,2,0:0:0:0:
266,282,8697,6,0,P|210:289|170:286,1,90,2|0,3:0|0:0,0:0:0:0:
86,298,8947,1,0,0:0:0:0:
86,298,9030,2,0,P|93:218|89:186,1,90,8|0,0:0|0:0,0:0:0:0:
65,119,9364,1,0,3:0:0:0:
229,203,9530,1,0,0:0:0:0:
229,203,9614,1,0,0:0:0:0:
229,203,9697,1,8,0:0:0:0:
274,37,9864,1,0,0:0:0:0:
135,199,10030,5,2,3:0:0:0:
354,188,10197,1,2,0:0:0:0:
135,199,10364,1,10,0:0:0:0:
354,188,10530,1,2,0:0:0:0:
247,332,10697,5,2,3:0:0:0:
240,123,10864,1,2,0:0:0:0:
247,332,11031,1,10,0:0:0:0:
240,123,11197,1,2,0:0:0:0:
247,332,11364,6,0,L|243:225,1,90,0|0,3:0|0:0,0:0:0:0:
193,169,11614,1,0,0:0:0:0:
193,169,11697,2,0,P|252:155|281:163,1,90,8|0,0:0|0:0,0:0:0:0:
368,268,12030,1,0,3:0:0:0:
219,237,12197,1,0,0:0:0:0:
346,372,12364,1,8,0:0:0:0:
389,182,12530,1,0,0:0:0:0:
255,318,12697,5,2,3:0:0:0:
225,131,12864,1,2,0:0:0:0:
255,318,13030,1,10,0:0:0:0:
225,131,13197,1,2,0:0:0:0:
138,344,13364,5,2,3:0:0:0:
370,296,13530,1,2,0:0:0:0:
138,344,13697,1,10,0:0:0:0:
370,296,13863,1,2,0:0:0:0:
177,253,14030,6,0,P|130:249|80:245,1,90,0|0,3:0|0:0,0:0:0:0:
37,173,14280,1,0,0:0:0:0:
37,173,14364,2,0,P|81:169|126:165,1,90,8|0,0:0|0:0,0:0:0:0:
166,134,14614,2,0,B|210:120|210:120|262:132,1,90,8|0,0:0|0:0,0:0:0:0:
307,137,14864,2,0,B|293:181|293:181|305:233,1,90,0|8,0:0|0:0,0:0:0:0:
373,268,15114,5,0,0:0:0:0:
371,290,15197,1,0,3:0:0:0:
369,312,15280,1,0,3:0:0:0:
367,335,15364,1,0,3:0:0:0:
452,204,15531,5,0,3:0:0:0:
450,181,15614,1,0,3:0:0:0:
345,107,15780,5,0,0:0:0:0:
343,130,15863,1,0,3:0:0:0:
241,220,16030,2,0,B|230:228|230:228|206:223,6,22.5,0|0|0|0|0|0|0,3:0|0:0|0:0|0:0|0:0|0:0|0:0,0:0:0:0:
343,130,16364,2,0,B|351:128|351:128|362:136,6,22.5,8|0|0|0|0|0|0,0:0|0:0|0:0|0:0|0:0|0:0|0:0,0:0:0:0:
260,85,16697,6,0,P|201:81|133:75,1,107.999996704102,0|0,3:0|0:0,0:0:0:0:
41,179,16947,1,0,0:0:0:0:
41,179,17030,2,0,P|92:205|156:188,1,107.999996704102,8|0,0:0|0:0,0:0:0:0:
258,277,17364,2,0,P|268:205|280:161,1,107.999996704102,0|0,3:0|0:0,0:0:0:0:
418,88,17697,2,8,P|430:140|436:194,1,107.999996704102,8|0,0:0|0:0,0:0:0:0:
387,337,18030,5,0,3:0:0:0:
387,337,18114,1,0,0:0:0:0:
387,337,18197,1,2,0:0:0:0:
276,170,18364,1,8,0:0:0:0:
276,170,18447,1,0,0:0:0:0:
276,170,18530,1,2,0:0:0:0:
199,316,18697,2,0,P|134:314|90:279,1,107.999996704102,0|2,3:0|0:0,0:0:0:0:
16,143,19030,6,0,P|78:102|135:260,1,270,14|0,0:0|0:0,0:0:0:0:
100,291,19364,6,0,L|88:177,1,107.999996704102,0|0,3:0|0:0,0:0:0:0:
49,64,19697,1,8,0:0:0:0:
6,217,19864,1,0,0:0:0:0:
201,161,20030,5,0,3:0:0:0:
6,217,20197,1,0,0:0:0:0:
201,161,20364,1,8,0:0:0:0:
6,217,20530,1,2,0:0:0:0:
130,109,20697,6,0,P|149:54|153:2,1,107.999996704102,0|2,3:0|0:0,0:0:0:0:
305,137,21030,2,0,P|251:142|200:160,1,107.999996704102,8|2,0:0|0:0,0:0:0:0:
336,17,21364,1,0,3:0:0:0:
336,17,21447,1,0,0:0:0:0:
336,17,21530,1,2,0:0:0:0:
465,142,21697,6,0,P|405:207|412:83,1,270,14|0,0:0|0:0,0:0:0:0:
488,67,22030,6,0,L|477:188,1,107.999996704102,0|0,3:0|0:0,0:0:0:0:
438,301,22280,1,0,0:0:0:0:
438,301,22364,2,0,P|390:283|324:274,1,107.999996704102,8|0,0:0|0:0,0:0:0:0:
126,335,22697,1,0,3:0:0:0:
240,198,22864,1,0,0:0:0:0:
221,363,23030,1,8,0:0:0:0:
146,175,23197,1,0,0:0:0:0:
290,303,23364,5,0,3:0:0:0:
84,257,23530,1,2,0:0:0:0:
290,303,23697,1,8,0:0:0:0:
84,257,23863,1,2,0:0:0:0:
194,189,24030,6,0,P|201:135|205:81,1,107.999996704102,0|2,3:0|0:0,0:0:0:0:
368,108,24364,6,0,P|397:132|401:16,1,270,14|0,0:0|0:0,0:0:0:0:
280,99,24697,6,0,P|346:96|400:90,1,107.999996704102,0|0,3:0|0:0,0:0:0:0:
199,37,25030,2,0,P|145:31|91:29,1,107.999996704102,8|0,0:0|0:0,0:0:0:0:
310,3,25364,1,0,3:0:0:0:
310,3,25530,1,0,0:0:0:0:
207,180,25697,1,8,0:0:0:0:
175,0,25864,1,0,0:0:0:0:
284,120,26030,5,8,0:0:0:0:
284,120,26114,1,8,0:0:0:0:
284,120,26197,1,8,0:0:0:0:
114,149,26364,1,8,0:0:0:0:
114,149,26447,1,8,0:0:0:0:
114,149,26530,1,8,0:0:0:0:
251,33,26697,6,0,B|275:23|275:23|300:25,6,49.5000015106202,0|0|0|0|0|0|0,3:0|0:0|0:0|0:0|0:0|0:0|0:0,0:0:0:0:
391,67,27030,6,0,B|392:89|392:89|383:116,6,49.5000015106202,12|0|0|0|0|0|0,0:0|0:0|0:0|0:0|0:0|0:0|0:0,0:0:0:0:
301,211,27364,6,0,P|358:199|435:191,1,125.999996154785,0|0,3:0|0:0,0:0:0:0:
512,291,27614,1,0,0:0:0:0:
512,291,27697,2,0,P|455:303|378:311,1,125.999996154785,8|0,0:0|0:0,0:0:0:0:
176,336,28030,1,0,3:0:0:0:
301,211,28197,1,0,0:0:0:0:
261,371,28364,1,8,0:0:0:0:
215,195,28530,1,0,0:0:0:0:
335,320,28697,5,0,3:0:0:0:
366,145,28864,1,2,0:0:0:0:
335,320,29030,1,8,0:0:0:0:
366,145,29197,1,2,0:0:0:0:
248,265,29364,6,0,P|236:207|216:132,1,125.999996154785,0|2,3:0|0:0,0:0:0:0:
198,43,29614,1,0,0:0:0:0:
198,43,29697,2,0,P|230:101|89:120,1,270,14|0,0:0|0:0,0:0:0:0:
39,63,30030,6,0,P|51:119|67:206,1,125.999996154785,0|0,3:0|0:0,0:0:0:0:
26,365,30364,1,8,0:0:0:0:
161,223,30530,1,0,0:0:0:0:
26,365,30697,1,0,3:0:0:0:
63,186,30864,5,0,0:0:0:0:
131,363,31030,1,8,0:0:0:0:
166,209,31197,1,0,0:0:0:0:
26,365,31364,6,0,P|18:299|9:235,1,125.999996154785,0|2,3:0|0:0,0:0:0:0:
18,135,31614,1,0,0:0:0:0:
18,135,31697,2,0,P|113:162|126:148,1,125.999996154785,8|2,0:0|0:0,0:0:0:0:
236,46,32030,2,0,L|106:62,1,125.999996154785,0|2,3:0|0:0,0:0:0:0:
25,34,32280,1,0,0:0:0:0:
25,34,32364,1,14,0:0:0:0:
121,154,32530,2,0,P|165:151|211:147,1,90,0|0,0:0|0:0,0:0:0:0:
367,107,32697,6,0,P|356:169|352:231,1,125.999996154785,0|0,3:0|0:0,0:0:0:0:
487,350,32947,1,0,0:0:0:0:
487,350,33030,2,0,P|482:287|471:225,1,125.999996154785,8|0,0:0|0:0,0:0:0:0:
366,106,33364,1,0,3:0:0:0:
351,317,33530,1,0,0:0:0:0:
464,140,33697,1,8,0:0:0:0:
273,229,33864,1,0,0:0:0:0:
471,225,34030,5,0,3:0:0:0:
230,167,34197,1,2,0:0:0:0:
471,225,34364,1,10,0:0:0:0:
230,167,34531,1,0,0:0:0:0:
444,127,34697,2,0,B|461:63|456:31|456:31|427:49,1,125.999996154785,2|14,3:0|0:0,0:0:0:0:
362,100,34947,5,0,0:0:0:0:
362,100,35030,2,0,P|387:213|515:167,1,270,14|0,0:0|0:0,0:0:0:0:
495,81,35364,6,0,P|504:138|514:222,1,125.999996154785,0|0,3:0|0:0,0:0:0:0:
244,353,35697,1,8,0:0:0:0:
394,93,35864,1,0,0:0:0:0:
456,368,36030,1,0,3:0:0:0:
456,368,36114,1,0,0:0:0:0:
456,368,36197,1,0,0:0:0:0:
249,147,36364,1,8,0:0:0:0:
512,267,36530,1,0,0:0:0:0:
227,345,36697,5,8,0:0:0:0:
474,164,36864,1,8,0:0:0:0:
227,345,37030,1,8,0:0:0:0:
474,164,37197,1,8,0:0:0:0:
337,203,37364,6,0,B|323:205|323:205|307:201,6,22.5,0|0|0|0|0|0|0,3:0|0:0|0:0|0:0|0:0|0:0|0:0,0:0:0:0:
229,144,37697,2,0,B|225:133|225:133|227:114,6,22.5,8|0|0|0|0|0|0,0:0|0:0|0:0|0:0|0:0|0:0|0:0,0:0:0:0:
279,30,38030,6,0,P|342:31|382:42,1,90,0|0,3:0|0:0,0:0:0:0:
185,215,38364,1,8,0:0:0:0:
185,215,38530,2,0,P|191:169|192:124,1,90,0|0,0:0|3:0,0:0:0:0:
28,24,38864,1,0,0:0:0:0:
106,157,39030,1,8,0:0:0:0:
194,41,39197,6,0,P|249:30|302:24,1,90,0|0,0:0|3:0,0:0:0:0:
242,284,39530,2,0,P|204:241|173:198,1,90,0|8,0:0|0:0,0:0:0:0:
429,117,39864,2,0,P|411:170|389:219,1,90,0|0,0:0|3:0,0:0:0:0:
242,284,40197,2,0,P|180:273|117:268,1,90,0|8,0:0|0:0,0:0:0:0:
416,338,40530,1,0,0:0:0:0:
294,208,40697,5,0,3:0:0:0:
292,173,40780,1,0,0:0:0:0:
290,138,40864,1,0,0:0:0:0:
296,291,41030,2,0,P|233:340|130:247,1,242.999992584229,8|0,0:0|0:0,0:0:0:0:
126,163,41364,5,0,3:0:0:0:
126,163,41447,1,0,0:0:0:0:
126,163,41531,1,0,0:0:0:0:
129,247,41697,2,0,P|192:296|295:203,1,242.999992584229,8|0,0:0|0:0,0:0:0:0:
315,120,42030,5,0,3:0:0:0:
315,120,42197,2,0,P|273:114|211:112,1,90,0|8,0:0|0:0,0:0:0:0:
106,76,42530,2,0,P|118:122|121:165,1,90,0|0,0:0|3:0,0:0:0:0:
47,304,42864,1,0,0:0:0:0:
205,285,43030,2,0,P|256:285|341:294,1,135,8|0,0:0|0:0,0:0:0:0:
418,328,43364,6,0,L|425:207,1,90,0|0,3:0|0:0,0:0:0:0:
437,125,43697,1,8,0:0:0:0:
339,283,43864,2,0,B|261:323|261:323|151:297,1,180,0|0,0:0|0:0,0:0:0:0:
33,262,44364,1,8,0:0:0:0:
209,134,44530,6,0,P|202:181|198:234,1,90,0|0,0:0|3:0,0:0:0:0:
43,351,44864,2,0,P|39:306|32:261,1,90,0|8,0:0|0:0,0:0:0:0:
120,78,45197,2,0,P|113:125|109:178,1,90,0|0,0:0|3:0,0:0:0:0:
208,274,45530,2,0,P|275:254|309:253,1,90,0|8,0:0|0:0,0:0:0:0:
424,126,45864,2,0,P|379:120|337:104,1,90,0|0,0:0|3:0,0:0:0:0:
176,49,46197,6,0,L|254:41,1,53.9999983520508,8|0,0:0|0:0,0:0:0:0:
386,27,46364,1,0,3:0:0:0:
208,150,46530,6,0,L|286:142,1,53.9999983520508,8|0,0:0|0:0,0:0:0:0:
418,128,46697,1,0,3:0:0:0:
440,126,46780,1,0,0:0:0:0:
462,124,46864,1,8,0:0:0:0:
335,221,47030,2,0,P|305:290|318:357,1,125.999996154785,8|0,0:0|0:0,0:0:0:0:
262,145,47364,6,0,P|172:119|74:137,1,180,0|8,3:0|0:0,0:0:0:0:
0,338,47864,2,0,P|90:364|188:346,1,180,0|0,0:0|0:0,0:0:0:0:
339,225,48364,1,8,0:0:0:0:
339,225,48447,1,0,0:0:0:0:
339,225,48530,1,0,0:0:0:0:
106,274,48697,1,4,0:0:0:0:
