osu file format v14

[General]
AudioFilename: audio.mp3
AudioLeadIn: 0
PreviewTime: 5996
Countdown: 0
SampleSet: Soft
StackLeniency: 0.5
Mode: 0
LetterboxInBreaks: 0
WidescreenStoryboard: 0

[Editor]
DistanceSpacing: 1.4
BeatDivisor: 4
GridSize: 4
TimelineZoom: 2.5

[Metadata]
Title:222 - wewewe
TitleUnicode:222 - wewewe
Artist:saradisk
ArtistUnicode:saradisk
Creator:Nozhomi
Version:Insane
Source:
Tags:imakuri linada ovoui happy hardcore happycore night sky
BeatmapID:1173114
BeatmapSetID:519986

[Difficulty]
HPDrainRate:6
CircleSize:4
OverallDifficulty:7.5
ApproachRate:9
SliderMultiplier:1.7
SliderTickRate:1

[Events]
//Background and Video events
0,0,"wewewe.jpg",0,0
//Break Periods
//Storyboard Layer 0 (Background)
//Storyboard Layer 1 (Fail)
//Storyboard Layer 2 (Pass)
//Storyboard Layer 3 (Foreground)
//Storyboard Sound Samples

[TimingPoints]
6080,333.333333333333,4,2,1,100,1,0
19079,-83.3333333333333,4,2,1,100,0,0
19413,-100,4,2,1,100,0,0
21746,-83.3333333333333,4,2,1,100,0,0
22079,-100,4,2,1,100,0,0
24413,-83.3333333333333,4,2,1,100,0,0
24746,-100,4,2,1,100,0,0
27413,-83.3333333333333,4,2,1,100,0,0
29746,-66.6666666666667,4,2,1,100,0,0
30079,-83.3333333333333,4,2,1,100,0,0
32413,-66.6666666666667,4,2,1,100,0,0
32746,-83.3333333333333,4,2,1,100,0,0
35079,-66.6666666666667,4,2,1,100,0,0
35413,-83.3333333333333,4,2,1,100,0,0
38079,-100,4,2,1,100,0,0
41079,-83.3333333333333,4,2,1,100,0,0
41413,-100,4,2,1,100,0,0
41746,-83.3333333333333,4,2,1,100,0,0
42079,-100,4,2,1,100,0,0
46246,-83.3333333333333,4,2,1,100,0,0
47413,-100,4,2,1,100,0,0

[Colours]
Combo1 : 202,164,47
Combo2 : 233,152,221
Combo3 : 38,196,213

[HitObjects]
256,192,3413,12,0,5746,0:0:0:0:
292,292,6080,6,0,P|336:304|380:296,1,85,4|0,3:1|0:0,0:0:0:0:
444,252,6413,2,0,P|473:217|484:173,1,85,0|0,1:0|0:0,0:0:0:0:
468,96,6746,1,4,3:0:0:0:
372,144,6913,1,2,0:0:0:0:
372,144,6996,1,2,0:0:0:0:
372,144,7079,2,0,L|264:136,1,85,0|0,1:0|0:0,0:0:0:0:
168,124,7413,5,4,3:0:0:0:
287,137,7579,1,2,0:0:0:0:
176,140,7746,1,0,1:0:0:0:
295,153,7913,1,2,0:0:0:0:
244,260,8079,1,4,3:0:0:0:
184,156,8246,1,2,0:0:0:0:
356,112,8413,2,0,P|368:152|336:216,1,85,0|2,1:0|0:0,0:0:0:0:
244,260,8746,6,0,L|156:256,1,85,4|0,3:0|0:0,0:0:0:0:
102,320,9079,2,0,P|138:340|198:332,1,85,0|0,1:0|0:0,0:0:0:0:
159,256,9413,1,4,3:0:0:0:
52,264,9580,1,2,0:0:0:0:
52,264,9663,1,2,0:0:0:0:
52,264,9746,2,0,P|32:228|40:168,1,85,0|0,1:0|0:0,0:0:0:0:
104,88,10079,5,4,3:0:0:0:
166,195,10246,1,2,0:0:0:0:
166,51,10413,1,0,1:0:0:0:
228,159,10579,1,2,0:0:0:0:
103,159,10746,1,4,3:0:0:0:
228,87,10913,1,2,0:0:0:0:
216,240,11080,2,0,P|219:288|232:348,1,85,0|2,1:0|0:0,0:0:0:0:
320,216,11413,6,0,P|327:174|329:131,1,85,4|0,3:0|0:0,0:0:0:0:
404,172,11746,2,0,P|440:188|500:180,1,85,0|0,1:0|0:0,0:0:0:0:
456,108,12079,1,4,3:0:0:0:
367,60,12246,1,2,0:0:0:0:
367,60,12329,1,2,0:0:0:0:
367,60,12412,2,0,P|320:52|272:72,1,85,0|0,1:0|0:0,0:0:0:0:
236,172,12746,5,4,3:0:0:0:
196,60,12912,1,2,0:0:0:0:
236,172,13079,1,0,1:0:0:0:
128,120,13246,1,2,0:0:0:0:
236,172,13412,1,4,3:0:0:0:
112,228,13579,1,2,0:0:0:0:
236,172,13746,2,0,B|264:168|264:168|340:180,1,85,0|0,1:0|0:0,0:0:0:0:
320,304,14079,6,0,B|263:312|263:312|235:308,1,85,4|0,3:0|0:0,0:0:0:0:
152,284,14413,2,0,P|112:276|52:292,1,85,0|0,1:0|3:0,0:0:0:0:
68,283,14663,1,0,1:0:0:0:
68,283,14745,1,4,3:0:0:0:
156,200,14912,1,0,3:0:0:0:
76,112,15079,1,0,1:0:0:0:
72,96,15163,1,0,3:0:0:0:
68,80,15246,1,0,1:0:0:0:
64,64,15329,1,2,0:0:0:0:
60,48,15412,5,4,3:0:0:0:
188,96,15578,1,0,1:0:0:0:
204,92,15663,1,4,3:0:0:0:
220,88,15745,1,0,0:0:0:0:
236,84,15829,1,0,1:0:0:0:
252,80,15912,1,4,3:0:0:0:
260,216,16079,1,0,1:0:0:0:
168,248,16246,2,0,L|125:245,1,42.5,4|0,3:0|1:0,0:0:0:0:
152,320,16413,2,0,L|194:323,3,42.5,4|4|0|0,3:0|3:0|1:0|1:0,0:0:0:0:
240,260,16746,6,0,P|280:288|332:300,1,85,4|0,3:1|0:0,0:0:0:0:
392,268,17079,1,0,1:0:0:0:
364,188,17246,1,0,0:0:0:0:
392,108,17413,2,0,P|399:66|390:25,1,85,4|0,3:0|0:0,0:0:0:0:
316,68,17746,1,0,1:0:0:0:
276,144,17913,1,2,0:0:0:0:
364,188,18079,2,0,B|477:180,1,85,4|2,3:0|0:0,0:0:0:0:
288,240,18413,2,0,B|175:232,1,85,0|2,1:0|0:0,0:0:0:0:
368,276,18746,1,2,3:2:0:0:
383,277,18829,1,2,0:0:0:0:
399,278,18913,1,2,0:0:0:0:
244,320,19079,6,0,L|68:307,1,152.999995330811,0|0,1:0|0:0,0:0:0:0:
91,308,19413,6,0,P|116:264|124:216,1,85,4|0,3:0|0:0,0:0:0:0:
140,148,19746,2,0,P|130:98|106:56,1,85,0|0,1:0|0:0,0:0:0:0:
48,16,20079,1,4,3:0:0:0:
36,100,20246,1,0,0:0:0:0:
115,68,20413,1,0,1:0:0:0:
192,100,20579,1,2,0:0:0:0:
172,184,20746,2,0,P|159:224|170:264,1,85,4|2,3:0|0:0,0:0:0:0:
341,264,21079,2,0,P|352:224|339:184,1,85,0|0,1:0|0:0,0:0:0:0:
256,80,21413,1,2,3:2:0:0:
256,64,21496,1,2,0:0:0:0:
256,48,21579,1,2,0:0:0:0:
256,212,21746,6,0,B|224:284|288:284|256:360,1,152.999995330811,0|0,1:0|0:0,0:0:0:0:
257,359,22079,6,0,P|298:371|339:361,1,85,4|0,3:0|0:0,0:0:0:0:
400,300,22413,1,0,1:0:0:0:
348,236,22579,1,0,0:0:0:0:
404,172,22746,2,0,L|408:68,1,85,4|0,3:0|0:0,0:0:0:0:
348,236,23079,2,0,P|300:256|248:252,1,85,0|2,1:0|0:0,0:0:0:0:
184,232,23413,1,4,3:0:0:0:
104,256,23579,1,2,0:0:0:0:
124,172,23746,1,0,1:0:0:0:
184,232,23912,1,2,0:0:0:0:
208,132,24079,1,2,3:2:0:0:
204,116,24163,1,2,0:0:0:0:
200,100,24246,1,2,0:0:0:0:
344,92,24413,6,0,P|361:163|320:232,1,152.999995330811,0|0,1:0|0:0,0:0:0:0:
323,229,24746,6,0,L|206:222,1,85,4|0,3:0|0:0,0:0:0:0:
184,304,25079,2,0,L|268:309,1,85,0|0,1:0|0:0,0:0:0:0:
156,220,25413,2,0,L|71:214,1,85,4|0,3:0|0:0,0:0:0:0:
20,292,25746,2,0,L|104:297,1,85,0|0,1:0|0:0,0:0:0:0:
156,220,26079,1,0,1:0:0:0:
184,304,26246,1,2,0:0:0:0:
238,223,26413,1,2,1:2:0:0:
251,228,26496,1,2,0:0:0:0:
264,232,26579,1,2,0:0:0:0:
380,204,26746,1,0,1:0:0:0:
346,318,26913,2,0,L|362:366,2,42.5,0|0|4,0:0|1:0|3:0,0:0:0:0:
264,232,27246,1,0,1:0:0:0:
196,136,27413,6,0,P|196:72|224:40,1,101.999996887207,4|0,3:1|0:0,0:0:0:0:
256,24,27663,1,2,0:0:0:0:
293,44,27746,2,0,P|320:86|316:136,1,101.999996887207,0|0,1:0|0:0,0:0:0:0:
238,223,28079,2,0,L|123:211,1,101.999996887207,4|0,3:0|0:0,0:0:0:0:
201,317,28413,2,0,P|251:324|298:305,1,101.999996887207,0|0,1:0|0:0,0:0:0:0:
340,212,28746,1,4,3:0:0:0:
238,223,28913,1,2,0:0:0:0:
298,305,29079,1,0,1:0:0:0:
340,212,29246,1,2,0:0:0:0:
284,104,29413,1,2,3:2:0:0:
288,84,29496,1,2,0:0:0:0:
292,64,29579,1,2,0:0:0:0:
156,136,29746,6,0,B|91:172|49:136|49:136|68:82|132:93,1,191.250007295609,0|0,1:0|0:0,0:0:0:0:
156,136,30079,5,4,3:0:0:0:
136,236,30246,1,2,0:0:0:0:
232,200,30413,2,0,P|280:186|329:198,1,101.999996887207,0|0,1:0|0:0,0:0:0:0:
248,356,30746,2,0,P|211:321|197:272,1,101.999996887207,4|0,3:0|0:0,0:0:0:0:
376,268,31079,2,0,P|364:316|329:353,1,101.999996887207,0|0,1:0|0:0,0:0:0:0:
282,232,31413,1,4,3:0:0:0:
248,356,31579,1,2,0:0:0:0:
232,148,31746,1,0,1:0:0:0:
198,272,31913,1,2,0:0:0:0:
356,300,32079,1,2,3:2:0:0:
376,296,32163,1,2,0:0:0:0:
396,292,32246,1,2,0:0:0:0:
428,104,32413,6,0,B|396:152|388:190|388:190|380:152|348:104,1,191.250007295609,0|0,1:0|0:0,0:0:0:0:
312,68,32746,5,4,3:0:0:0:
256,152,32913,1,2,0:0:0:0:
200,68,33079,2,0,P|164:108|160:176,1,101.999996887207,0|0,1:0|0:0,0:0:0:0:
160,256,33413,2,0,P|174:304|212:337,1,101.999996887207,4|0,3:0|0:0,0:0:0:0:
256,244,33746,1,0,1:0:0:0:
300,337,33913,1,0,0:0:0:0:
352,220,34079,2,0,L|344:112,1,101.999996887207,4|2,3:0|0:0,0:0:0:0:
167,118,34413,2,0,L|160:220,1,101.999996887207,0|2,1:0|0:0,0:0:0:0:
96,316,34746,1,2,3:2:0:0:
96,316,34829,1,2,0:0:0:0:
96,316,34913,1,2,0:0:0:0:
240,268,35079,6,0,B|280:264|308:248|308:248|368:288|436:260,1,191.250007295609,0|0,1:0|0:0,0:0:0:0:
464,236,35413,5,4,3:0:0:0:
400,156,35579,1,2,0:0:0:0:
452,68,35746,2,0,P|399:53|336:78,1,101.999996887207,0|0,1:0|0:0,0:0:0:0:
256,96,36079,2,0,P|206:107|158:92,1,101.999996887207,4|0,3:0|0:0,0:0:0:0:
120,56,36329,1,0,3:0:0:0:
120,56,36413,2,0,L|120:164,1,101.999996887207,0|0,1:0|0:0,0:0:0:0:
152,256,36746,5,0,1:0:0:0:
204,168,36913,1,2,0:0:0:0:
308,168,37079,1,0,0:0:0:0:
360,256,37246,1,2,0:0:0:0:
220,352,37413,6,0,P|196:280|220:200,1,152.999995330811,2|0,0:0|0:0,0:0:0:0:
296,207,37746,2,0,P|315:280|292:352,1,152.999995330811,2|0,0:0|0:0,0:0:0:0:
220,352,38079,6,0,L|120:340,1,85,4|0,3:1|0:0,0:0:0:0:
92,336,38329,1,2,0:0:0:0:
92,336,38413,2,0,P|68:296|72:248,1,85,0|0,1:0|0:0,0:0:0:0:
88,176,38746,2,0,P|85:130|58:93,1,85,4|0,3:0|0:0,0:0:0:0:
4,160,39079,1,0,1:0:0:0:
88,176,39246,2,0,L|164:172,1,42.5,2|0,0:0|0:0,0:0:0:0:
164,200,39413,6,0,L|282:207,1,85,4|0,3:0|0:0,0:0:0:0:
340,160,39746,1,2,1:2:0:0:
361,158,39829,1,2,0:0:0:0:
382,157,39912,1,2,0:0:0:0:
416,252,40079,2,0,P|371:262|327:256,1,85,4|0,3:0|0:0,0:0:0:0:
248,205,40413,1,0,1:0:0:0:
340,160,40579,2,0,L|344:96,1,42.5,2|0,0:0|0:0,0:0:0:0:
328,76,40746,5,4,3:0:0:0:
256,28,40913,1,2,0:0:0:0:
144,76,41079,2,0,B|92:92|48:72|48:72|72:104|64:152,1,152.999995330811,0|0,1:0|0:0,0:0:0:0:
52,164,41413,5,4,3:0:0:0:
92,240,41579,1,2,0:0:0:0:
40,340,41746,2,0,B|119:378|120:320|216:360,1,152.999995330811,0|0,1:0|0:0,0:0:0:0:
189,350,42079,6,0,P|181:305|196:264,1,85,4|0,3:0|0:0,0:0:0:0:
232,192,42413,2,0,P|257:155|297:136,1,85,0|0,1:0|0:0,0:0:0:0:
376,120,42746,1,4,3:0:0:0:
352,200,42913,1,0,0:0:0:0:
293,137,43079,2,0,L|300:53,1,85,0|0,1:0|0:0,0:0:0:0:
352,200,43413,6,0,L|359:289,1,85,4|0,3:0|0:0,0:0:0:0:
304,348,43746,2,0,P|256:344|221:328,1,85,0|0,1:0|0:0,0:0:0:0:
184,252,44080,2,0,L|191:162,1,85,4|0,3:0|0:0,0:0:0:0:
164,88,44413,1,0,1:0:0:0:
104,148,44579,1,2,0:0:0:0:
190,167,44747,6,0,B|220:174|220:174|296:164,1,85,4|0,3:0|0:0,0:0:0:0:
360,112,45080,1,2,1:2:0:0:
360,112,45163,1,2,0:0:0:0:
360,112,45247,1,2,0:0:0:0:
340,196,45413,2,0,P|330:238|344:284,1,85,4|0,3:0|0:0,0:0:0:0:
376,356,45747,1,0,1:0:0:0:
456,328,45913,1,2,0:0:0:0:
340,277,46079,5,4,3:0:0:0:
220,316,46246,2,0,P|168:300|148:248,1,101.999996887207,2|0,0:0|1:0,0:0:0:0:
292,68,46579,2,0,P|344:84|364:136,1,101.999996887207,2|2,0:0|3:2,0:0:0:0:
370,149,46829,1,2,0:0:0:0:
368,175,46913,1,2,0:0:0:0:
248,300,47079,6,0,P|221:211|268:136,1,152.999995330811,0|0,1:0|0:0,0:0:0:0:
276,132,47413,5,4,3:0:0:0:
368,175,47579,1,0,0:0:0:0:
460,132,47746,2,0,P|472:91|461:51,1,85,0|0,1:0|0:0,0:0:0:0:
440,212,48079,1,4,3:0:0:0:
444,224,48163,1,0,0:0:0:0:
448,236,48246,1,0,0:0:0:0:
380,344,48413,2,0,P|352:316|296:300,1,85,0|0,1:0|0:0,0:0:0:0:
160,332,48746,5,4,0:1:0:0:
