osu file format v14

[General]
AudioFilename: audio.mp3
AudioLeadIn: 0
PreviewTime: 6028
Countdown: 0
SampleSet: Normal
StackLeniency: 0.7
Mode: 1
LetterboxInBreaks: 0
WidescreenStoryboard: 1

[Editor]
DistanceSpacing: 0.9
BeatDivisor: 5
GridSize: 32
TimelineZoom: 2.5

[Metadata]
Title:222 - wewewe
TitleUnicode:222 - wewewe
Artist:saradisk
ArtistUnicode:皿
Creator:Maimaing
Version:Oni
Source:
Tags:cynplytholowazy walozy clockbite electronic instrumental Tetrix Bass Feat. Veela The Light happy hardcore happycore night sky saradisc sara novelty
BeatmapID:3577292
BeatmapSetID:1748836

[Difficulty]
HPDrainRate:6.5
CircleSize:5
OverallDifficulty:5
ApproachRate:5
SliderMultiplier:1.4
SliderTickRate:1

[Events]
//Background and Video events
0,0,"bg.jpg",0,90
//Break Periods
//Storyboard Layer 0 (Background)
//Storyboard Layer 1 (Fail)
//Storyboard Layer 2 (Pass)
//Storyboard Layer 3 (Foreground)
//Storyboard Layer 4 (Overlay)
//Storyboard Sound Samples

[TimingPoints]
6112,333.333333333333,4,1,0,90,1,0

[HitObjects]
256,192,3445,12,0,5945,0:0:0:0:
187,141,6111,5,4,0:0:0:0:
187,141,6278,1,0,0:0:0:0:
187,141,6445,1,8,0:0:0:0:
187,141,6611,1,8,0:0:0:0:
187,141,6778,1,0,0:0:0:0:
190,158,6945,1,8,0:0:0:0:
190,158,7028,1,8,0:0:0:0:
190,158,7111,1,0,0:0:0:0:
190,158,7278,1,8,0:0:0:0:
110,153,7445,1,0,0:0:0:0:
208,124,7611,1,8,0:0:0:0:
208,124,7695,1,8,0:0:0:0:
190,155,7778,1,8,0:0:0:0:
190,153,7945,1,8,0:0:0:0:
190,158,8111,1,0,0:0:0:0:
217,47,8278,1,0,0:0:0:0:
217,47,8445,1,0,0:0:0:0:
159,215,8778,1,0,0:0:0:0:
159,215,8945,1,0,0:0:0:0:
159,215,9111,1,8,0:0:0:0:
159,215,9278,1,0,0:0:0:0:
159,215,9445,1,8,0:0:0:0:
83,142,9611,1,8,0:0:0:0:
83,142,9695,1,8,0:0:0:0:
83,142,9778,1,0,0:0:0:0:
83,142,9945,1,8,0:0:0:0:
130,142,10111,1,0,0:0:0:0:
130,142,10278,1,0,0:0:0:0:
130,142,10361,1,0,0:0:0:0:
142,128,10445,1,8,0:0:0:0:
142,128,10611,1,0,0:0:0:0:
142,128,10778,1,8,0:0:0:0:
215,92,10945,1,8,0:0:0:0:
215,92,11111,1,8,0:0:0:0:
187,141,11445,5,0,0:0:0:0:
187,141,11611,1,0,0:0:0:0:
187,141,11778,1,8,0:0:0:0:
187,141,11945,1,8,0:0:0:0:
187,141,12111,1,0,0:0:0:0:
190,158,12278,1,8,0:0:0:0:
190,158,12361,1,8,0:0:0:0:
190,158,12445,1,0,0:0:0:0:
190,158,12611,1,8,0:0:0:0:
110,153,12778,1,0,0:0:0:0:
208,124,12945,1,8,0:0:0:0:
208,124,13028,1,8,0:0:0:0:
190,155,13111,1,8,0:0:0:0:
190,153,13278,1,8,0:0:0:0:
190,158,13445,1,0,0:0:0:0:
217,47,13611,1,0,0:0:0:0:
217,47,13778,1,0,0:0:0:0:
128,148,14111,1,0,0:0:0:0:
98,166,14278,1,0,0:0:0:0:
98,166,14445,1,8,0:0:0:0:
98,166,14611,1,0,0:0:0:0:
179,97,14695,1,0,0:0:0:0:
179,97,14778,1,8,0:0:0:0:
220,173,14945,1,8,0:0:0:0:
220,173,15111,1,0,0:0:0:0:
220,173,15195,1,8,0:0:0:0:
252,39,15361,1,8,0:0:0:0:
220,173,15445,1,0,0:0:0:0:
136,77,15611,1,8,0:0:0:0:
136,77,15695,1,0,0:0:0:0:
136,77,15861,1,0,0:0:0:0:
136,77,15945,1,8,0:0:0:0:
132,148,16111,1,0,0:0:0:0:
333,69,16195,1,0,0:0:0:0:
132,148,16278,1,8,0:0:0:0:
421,120,16361,1,8,0:0:0:0:
132,148,16445,1,0,0:0:0:0:
333,69,16528,1,0,0:0:0:0:
132,148,16611,1,8,0:0:0:0:
132,148,16778,1,4,0:0:0:0:
165,247,17111,1,8,0:0:0:0:
221,159,17278,1,8,0:0:0:0:
221,159,17445,1,0,0:0:0:0:
116,119,17611,1,0,0:0:0:0:
116,119,17695,1,0,0:0:0:0:
221,148,17778,1,8,0:0:0:0:
221,144,17945,1,0,0:0:0:0:
183,47,18111,1,8,0:0:0:0:
183,47,18278,1,8,0:0:0:0:
183,47,18361,1,8,0:0:0:0:
183,47,18445,1,8,0:0:0:0:
183,47,18611,1,8,0:0:0:0:
183,47,18778,1,0,0:0:0:0:
183,47,19111,1,12,0:0:0:0:
224,192,19445,1,0,0:0:0:0:
197,125,19611,1,0,0:0:0:0:
178,133,19778,1,8,0:0:0:0:
178,133,19945,1,8,0:0:0:0:
78,206,20111,1,0,0:0:0:0:
83,229,20195,1,0,0:0:0:0:
66,206,20278,1,0,0:0:0:0:
66,206,20445,1,8,0:0:0:0:
66,202,20611,1,0,0:0:0:0:
66,202,20778,1,8,0:0:0:0:
196,72,20945,1,0,0:0:0:0:
183,68,21028,1,0,0:0:0:0:
183,67,21111,1,8,0:0:0:0:
183,67,21278,1,8,0:0:0:0:
182,65,21445,1,0,0:0:0:0:
179,57,21778,1,12,0:0:0:0:
40,137,22111,1,0,0:0:0:0:
165,247,22278,1,0,0:0:0:0:
165,247,22445,1,8,0:0:0:0:
221,159,22611,1,8,0:0:0:0:
221,159,22778,1,0,0:0:0:0:
116,119,22945,1,0,0:0:0:0:
116,119,23028,1,0,0:0:0:0:
221,148,23111,1,8,0:0:0:0:
221,144,23278,1,0,0:0:0:0:
183,47,23445,1,8,0:0:0:0:
183,47,23611,1,8,0:0:0:0:
183,47,23695,1,8,0:0:0:0:
183,47,23778,1,8,0:0:0:0:
183,47,23945,1,8,0:0:0:0:
183,47,24111,1,0,0:0:0:0:
183,47,24445,1,12,0:0:0:0:
276,171,24778,1,0,0:0:0:0:
276,171,24945,1,0,0:0:0:0:
276,171,25111,1,8,0:0:0:0:
276,171,25278,1,8,0:0:0:0:
276,171,25445,1,0,0:0:0:0:
276,171,25528,1,0,0:0:0:0:
277,176,25611,1,8,0:0:0:0:
276,171,25695,1,0,0:0:0:0:
277,176,25778,1,8,0:0:0:0:
100,137,25945,1,0,0:0:0:0:
182,150,26111,1,8,0:0:0:0:
182,150,26278,1,0,0:0:0:0:
125,86,26361,1,0,0:0:0:0:
182,150,26445,1,8,0:0:0:0:
182,150,26611,1,0,0:0:0:0:
309,101,26778,1,8,0:0:0:0:
306,109,26861,1,8,0:0:0:0:
306,109,26945,1,0,0:0:0:0:
356,66,27028,1,0,0:0:0:0:
309,101,27111,1,8,0:0:0:0:
231,82,27195,1,0,0:0:0:0:
231,82,27278,1,8,0:0:0:0:
309,101,27445,1,4,0:0:0:0:
218,193,27778,1,8,0:0:0:0:
218,193,27945,1,8,0:0:0:0:
150,60,28111,1,0,0:0:0:0:
151,48,28278,1,0,0:0:0:0:
151,48,28361,1,0,0:0:0:0:
151,46,28445,1,8,0:0:0:0:
151,45,28611,1,0,0:0:0:0:
151,45,28778,1,8,0:0:0:0:
224,184,28861,1,8,0:0:0:0:
151,45,28945,1,0,0:0:0:0:
224,184,29111,1,8,0:0:0:0:
224,184,29195,1,8,0:0:0:0:
224,184,29278,1,0,0:0:0:0:
151,45,29445,1,8,0:0:0:0:
145,131,29778,1,12,0:0:0:0:
312,151,30111,1,0,0:0:0:0:
285,165,30278,1,0,0:0:0:0:
245,194,30445,1,8,0:0:0:0:
285,165,30611,1,8,0:0:0:0:
285,165,30778,1,0,0:0:0:0:
223,91,30861,1,8,0:0:0:0:
204,92,30945,1,0,0:0:0:0:
196,92,31028,1,0,0:0:0:0:
196,92,31111,1,8,0:0:0:0:
196,92,31278,1,0,0:0:0:0:
196,91,31445,1,8,0:0:0:0:
196,91,31611,1,0,0:0:0:0:
196,91,31695,1,0,0:0:0:0:
196,91,31778,1,8,0:0:0:0:
121,196,31945,1,0,0:0:0:0:
121,196,32111,1,8,0:0:0:0:
121,196,32445,1,12,0:0:0:0:
185,165,32778,1,4,0:0:0:0:
242,220,33111,1,8,0:0:0:0:
239,252,33278,1,8,0:0:0:0:
259,111,33445,1,0,0:0:0:0:
260,104,33611,1,0,0:0:0:0:
260,104,33695,1,0,0:0:0:0:
260,104,33778,1,8,0:0:0:0:
260,99,33945,1,0,0:0:0:0:
140,102,34111,1,8,0:0:0:0:
135,94,34195,1,8,0:0:0:0:
126,90,34278,1,0,0:0:0:0:
126,87,34445,1,8,0:0:0:0:
114,184,34611,1,8,0:0:0:0:
114,184,34778,1,0,0:0:0:0:
114,184,35111,1,12,0:0:0:0:
205,307,35445,1,0,0:0:0:0:
205,307,35611,1,0,0:0:0:0:
204,301,35778,1,8,0:0:0:0:
204,299,35945,1,8,0:0:0:0:
155,166,36111,1,0,0:0:0:0:
171,169,36195,1,8,0:0:0:0:
155,166,36278,1,0,0:0:0:0:
231,133,36361,1,0,0:0:0:0:
156,166,36445,1,8,0:0:0:0:
155,166,36611,1,0,0:0:0:0:
152,145,36778,1,8,0:0:0:0:
295,166,36945,1,8,0:0:0:0:
295,166,37028,1,0,0:0:0:0:
295,166,37195,1,0,0:0:0:0:
295,166,37278,1,8,0:0:0:0:
295,166,37445,1,0,0:0:0:0:
401,99,37528,1,0,0:0:0:0:
160,93,37611,1,8,0:0:0:0:
316,213,37695,1,8,0:0:0:0:
160,93,37778,1,0,0:0:0:0:
401,99,37861,1,0,0:0:0:0:
157,223,37945,1,8,0:0:0:0:
157,223,38111,1,4,0:0:0:0:
241,142,38445,1,8,0:0:0:0:
241,142,38611,1,8,0:0:0:0:
241,142,38778,1,0,0:0:0:0:
241,142,38945,1,0,0:0:0:0:
241,142,39028,1,0,0:0:0:0:
237,136,39111,1,0,0:0:0:0:
236,135,39278,1,8,0:0:0:0:
154,140,39445,1,0,0:0:0:0:
143,151,39611,1,8,0:0:0:0:
141,150,39945,1,8,0:0:0:0:
141,150,40028,1,8,0:0:0:0:
141,150,40111,1,0,0:0:0:0:
141,150,40278,1,8,0:0:0:0:
141,150,40445,1,0,0:0:0:0:
161,62,40611,1,8,0:0:0:0:
161,62,40778,1,0,0:0:0:0:
161,62,40945,1,0,0:0:0:0:
161,62,41111,1,8,0:0:0:0:
161,62,41445,1,0,0:0:0:0:
161,62,41611,1,0,0:0:0:0:
161,62,41778,1,8,0:0:0:0:
236,101,41945,1,8,0:0:0:0:
236,101,42028,1,8,0:0:0:0:
258,113,42111,1,0,0:0:0:0:
256,103,42445,1,8,0:0:0:0:
256,103,42611,1,8,0:0:0:0:
256,103,42778,1,0,0:0:0:0:
231,39,42861,1,0,0:0:0:0:
256,103,42945,1,8,0:0:0:0:
111,106,43111,1,0,0:0:0:0:
111,106,43278,1,8,0:0:0:0:
111,106,43445,1,0,0:0:0:0:
133,174,43778,1,8,0:0:0:0:
133,174,43945,1,8,0:0:0:0:
133,174,44111,1,0,0:0:0:0:
170,105,44278,1,8,0:0:0:0:
170,105,44361,1,8,0:0:0:0:
164,102,44445,1,0,0:0:0:0:
162,87,44611,1,8,0:0:0:0:
162,87,44778,1,0,0:0:0:0:
261,127,44945,1,8,0:0:0:0:
108,134,45278,1,8,0:0:0:0:
108,134,45445,1,0,0:0:0:0:
93,82,45611,1,0,0:0:0:0:
93,82,45695,1,0,0:0:0:0:
93,82,45778,1,8,0:0:0:0:
93,82,45945,1,8,0:0:0:0:
93,82,46111,1,0,0:0:0:0:
191,176,46278,1,8,0:0:0:0:
191,176,46361,1,8,0:0:0:0:
191,176,46445,1,0,0:0:0:0:
191,176,46611,1,8,0:0:0:0:
191,176,46695,1,8,0:0:0:0:
191,176,46778,1,0,0:0:0:0:
191,176,46945,1,0,0:0:0:0:
191,176,47111,1,8,0:0:0:0:
240,119,47445,1,0,0:0:0:0:
240,119,47611,1,8,0:0:0:0:
240,119,47695,1,8,0:0:0:0:
240,119,47778,1,0,0:0:0:0:
240,119,47945,1,8,0:0:0:0:
240,119,48111,1,0,0:0:0:0:
240,119,48195,1,0,0:0:0:0:
240,119,48278,1,8,0:0:0:0:
240,119,48445,1,0,0:0:0:0:
240,119,48778,1,12,0:0:0:0:
