osu file format v14

[General]
AudioFilename: audio.mp3
AudioLeadIn: 0
PreviewTime: 6028
Countdown: 0
SampleSet: Normal
StackLeniency: 0.7
Mode: 1
LetterboxInBreaks: 0
WidescreenStoryboard: 1

[Editor]
DistanceSpacing: 0.9
BeatDivisor: 2
GridSize: 32
TimelineZoom: 1.3

[Metadata]
Title:222 - wewewe
TitleUnicode:222 - wewewe
Artist:saradisk
ArtistUnicode:皿
Creator:Maimaing
Version:Futsuu
Source:
Tags:cynplytholowazy walozy clockbite electronic instrumental Tetrix Bass Feat. Veela The Light happy hardcore happycore night sky saradisc sara novelty
BeatmapID:3577281
BeatmapSetID:1748836

[Difficulty]
HPDrainRate:8
CircleSize:5
OverallDifficulty:3
ApproachRate:5
SliderMultiplier:1.4
SliderTickRate:1

[Events]
//Background and Video events
0,0,"bg.jpg",0,90
//Break Periods
//Storyboard Layer 0 (Background)
//Storyboard Layer 1 (Fail)
//Storyboard Layer 2 (Pass)
//Storyboard Layer 3 (Foreground)
//Storyboard Layer 4 (Overlay)
//Storyboard Sound Samples

[TimingPoints]
6112,333.333333333333,4,1,0,90,1,0

[HitObjects]
256,192,3445,12,0,5778,0:0:0:0:
60,241,6111,5,4,0:0:0:0:
184,315,6445,1,0,0:0:0:0:
167,261,6778,1,8,0:0:0:0:
208,239,7445,1,0,0:0:0:0:
208,239,7778,1,8,0:0:0:0:
208,239,8111,1,0,0:0:0:0:
196,314,8278,1,0,0:0:0:0:
254,171,8445,1,8,0:0:0:0:
208,239,8778,1,0,0:0:0:0:
205,310,9111,1,0,0:0:0:0:
171,143,9445,1,8,0:0:0:0:
171,143,10111,1,0,0:0:0:0:
171,143,10445,1,0,0:0:0:0:
171,143,10778,1,8,0:0:0:0:
200,292,10945,1,8,0:0:0:0:
313,171,11111,1,8,0:0:0:0:
171,143,11445,1,0,0:0:0:0:
210,315,11778,1,0,0:0:0:0:
171,143,12111,1,8,0:0:0:0:
171,143,12778,1,0,0:0:0:0:
171,143,13111,1,8,0:0:0:0:
171,143,13445,1,0,0:0:0:0:
196,324,13611,1,0,0:0:0:0:
171,143,13778,1,8,0:0:0:0:
171,143,14111,1,0,0:0:0:0:
171,143,14778,1,0,0:0:0:0:
207,329,15111,1,8,0:0:0:0:
245,157,15445,1,0,0:0:0:0:
171,143,15945,1,0,0:0:0:0:
171,143,16111,1,8,0:0:0:0:
171,143,16445,1,8,0:0:0:0:
171,143,16778,1,4,0:0:0:0:
171,143,17445,1,8,0:0:0:0:
255,156,17778,1,8,0:0:0:0:
171,143,18111,1,0,0:0:0:0:
171,143,18445,1,0,0:0:0:0:
255,156,18611,1,0,0:0:0:0:
171,143,18778,1,8,0:0:0:0:
225,122,19445,1,0,0:0:0:0:
225,122,20111,1,8,0:0:0:0:
280,140,20445,1,0,0:0:0:0:
225,122,20778,1,8,0:0:0:0:
225,122,21111,1,0,0:0:0:0:
134,147,21278,1,0,0:0:0:0:
225,122,21445,1,8,0:0:0:0:
225,122,22111,1,0,0:0:0:0:
225,122,22778,1,8,0:0:0:0:
156,188,23111,1,0,0:0:0:0:
225,122,23445,1,0,0:0:0:0:
225,122,23778,1,0,0:0:0:0:
156,188,23945,1,0,0:0:0:0:
225,122,24111,1,8,0:0:0:0:
225,122,24778,1,0,0:0:0:0:
225,122,25445,1,8,0:0:0:0:
229,249,25778,1,0,0:0:0:0:
225,122,26111,1,8,0:0:0:0:
225,122,26445,1,0,0:0:0:0:
225,122,26778,1,8,0:0:0:0:
152,243,26945,1,8,0:0:0:0:
225,122,27111,1,8,0:0:0:0:
225,122,27445,1,4,0:0:0:0:
336,97,28111,1,8,0:0:0:0:
231,294,28445,1,0,0:0:0:0:
295,105,28778,1,8,0:0:0:0:
295,105,29111,1,8,0:0:0:0:
208,292,29278,1,8,0:0:0:0:
295,105,29445,1,8,0:0:0:0:
214,95,30111,1,0,0:0:0:0:
214,95,30778,1,8,0:0:0:0:
201,254,31111,1,8,0:0:0:0:
214,95,31445,1,8,0:0:0:0:
126,181,31611,1,8,0:0:0:0:
214,95,31778,1,0,0:0:0:0:
214,95,32111,1,8,0:0:0:0:
174,39,32778,1,4,0:0:0:0:
174,39,33445,1,8,0:0:0:0:
115,215,33778,1,0,0:0:0:0:
232,180,34111,1,8,0:0:0:0:
232,180,34445,1,8,0:0:0:0:
151,222,34611,1,8,0:0:0:0:
232,180,34778,1,8,0:0:0:0:
186,110,35445,1,0,0:0:0:0:
186,110,36111,1,8,0:0:0:0:
186,110,36445,1,0,0:0:0:0:
186,110,36778,1,12,0:0:0:0:
186,110,37445,1,8,0:0:0:0:
259,117,37611,1,8,0:0:0:0:
259,117,37778,1,8,0:0:0:0:
186,110,38111,1,4,0:0:0:0:
212,150,38778,1,0,0:0:0:0:
186,153,39111,1,0,0:0:0:0:
212,150,39278,1,8,0:0:0:0:
106,165,39945,1,8,0:0:0:0:
188,92,40278,1,8,0:0:0:0:
186,153,40611,1,0,0:0:0:0:
186,153,41111,1,8,0:0:0:0:
94,107,41445,1,0,0:0:0:0:
186,153,41778,1,8,0:0:0:0:
186,153,42111,1,0,0:0:0:0:
174,93,42611,1,0,0:0:0:0:
85,88,42945,1,0,0:0:0:0:
174,93,43111,1,8,0:0:0:0:
174,93,43445,1,0,0:0:0:0:
174,93,44111,1,0,0:0:0:0:
237,247,44445,1,0,0:0:0:0:
237,247,44611,1,8,0:0:0:0:
237,247,45278,1,0,0:0:0:0:
199,132,45611,1,8,0:0:0:0:
234,150,45778,1,8,0:0:0:0:
234,150,45945,1,0,0:0:0:0:
237,247,46278,1,8,0:0:0:0:
114,146,46611,1,8,0:0:0:0:
237,247,47111,1,8,0:0:0:0:
237,247,47445,1,0,0:0:0:0:
205,119,47778,1,8,0:0:0:0:
237,247,47945,1,0,0:0:0:0:
237,247,48445,1,0,0:0:0:0:
237,247,48778,1,12,0:0:0:0:
