osu file format v14

[General]
AudioFilename: wewewe.mp3
AudioLeadIn: 0
PreviewTime: 5917
Countdown: 0
SampleSet: Normal
StackLeniency: 0.7
Mode: 3
LetterboxInBreaks: 0
SpecialStyle: 0
WidescreenStoryboard: 0

[Editor]
DistanceSpacing: 1
BeatDivisor: 8
GridSize: 4
TimelineZoom: 1.8

[Metadata]
Title:222 - wewewe
TitleUnicode:222 - wewewe
Artist:saradisk
ArtistUnicode:saradisk
Creator:- Ly0572 -
Version:wew
Source:
Tags:happy hardcore happycore Night Sky JesusMD24 Jesuren
BeatmapID:1247939
BeatmapSetID:589583

[Difficulty]
HPDrainRate:8.5
CircleSize:5
OverallDifficulty:8.5
ApproachRate:5
SliderMultiplier:1.4
SliderTickRate:1

[Events]
//Background and Video events
0,0,"wewbg.jpg",0,0
//Break Periods
//Storyboard Layer 0 (Background)
//Storyboard Layer 1 (Fail)
//Storyboard Layer 2 (Pass)
//Storyboard Layer 3 (Foreground)
//Storyboard Sound Samples

[TimingPoints]
3418,333.333333333333,4,1,1,30,1,0
27417,-100,4,1,1,30,0,1
38084,-100,4,1,1,30,0,0

[HitObjects]
256,192,3417,5,2,0:0:0:0:
256,192,3751,5,2,0:0:0:0:
256,192,4084,1,2,0:0:0:0:
256,192,4417,1,2,0:0:0:0:
256,192,4751,1,2,0:0:0:0:
153,192,4917,128,2,5084:0:0:0:0:
358,192,5084,128,2,5251:0:0:0:0:
153,192,5251,128,2,5417:0:0:0:0:
460,192,5417,1,2,0:0:0:0:
358,192,5501,1,2,0:0:0:0:
256,192,5584,1,2,0:0:0:0:
153,192,5667,1,2,0:0:0:0:
51,192,5751,1,2,0:0:0:0:
460,192,5834,1,2,0:0:0:0:
358,192,5917,1,2,0:0:0:0:
256,192,5917,128,0,6084:0:0:0:0:
51,192,6084,1,4,0:0:0:0:
460,192,6084,1,2,0:0:0:0:
153,192,6084,1,8,0:0:0:0:
358,192,6251,1,0,0:0:0:0:
256,192,6417,1,8,0:0:0:0:
153,192,6417,1,2,0:0:0:0:
51,192,6417,1,0,0:0:0:0:
460,192,6584,1,0,0:0:0:0:
358,192,6751,1,2,0:0:0:0:
51,192,6751,1,0,0:0:0:0:
256,192,6917,1,0,0:0:0:0:
358,192,7001,1,0,0:0:0:0:
153,192,7084,1,8,0:0:0:0:
51,192,7084,1,0,0:0:0:0:
460,192,7084,1,2,0:0:0:0:
256,192,7251,1,0,0:0:0:0:
153,192,7417,1,0,0:0:0:0:
460,192,7417,1,2,0:0:0:0:
153,192,7584,1,0,0:0:0:0:
153,192,7751,1,8,0:0:0:0:
358,192,7751,1,0,0:0:0:0:
460,192,7751,1,2,0:0:0:0:
153,192,7917,1,0,0:0:0:0:
358,192,8084,1,2,0:0:0:0:
256,192,8084,1,0,0:0:0:0:
358,192,8251,1,0,0:0:0:0:
358,192,8417,1,8,0:0:0:0:
153,192,8417,1,2,0:0:0:0:
51,192,8417,1,0,0:0:0:0:
256,192,8584,1,0,0:0:0:0:
460,192,8751,5,2,0:0:0:0:
153,192,8751,1,0,0:0:0:0:
256,192,8917,1,0,0:0:0:0:
51,192,9084,1,2,0:0:0:0:
460,192,9084,1,0,0:0:0:0:
358,192,9084,1,8,0:0:0:0:
153,192,9251,1,0,0:0:0:0:
256,192,9417,1,2,0:0:0:0:
460,192,9417,1,0,0:0:0:0:
358,192,9584,1,0,0:0:0:0:
256,192,9667,1,0,0:0:0:0:
153,192,9751,1,8,0:0:0:0:
460,192,9751,1,2,0:0:0:0:
51,192,9751,1,0,0:0:0:0:
256,192,9917,1,0,0:0:0:0:
51,192,10084,1,0,0:0:0:0:
460,192,10084,1,2,0:0:0:0:
460,192,10251,1,0,0:0:0:0:
358,192,10417,1,0,0:0:0:0:
460,192,10417,1,2,0:0:0:0:
153,192,10417,1,8,0:0:0:0:
460,192,10584,1,0,0:0:0:0:
256,192,10751,1,2,0:0:0:0:
51,192,10751,1,0,0:0:0:0:
51,192,10917,1,0,0:0:0:0:
153,192,11084,1,8,0:0:0:0:
51,192,11084,1,0,0:0:0:0:
358,192,11084,1,2,0:0:0:0:
51,192,11251,1,0,0:0:0:0:
256,192,11417,5,0,0:0:0:0:
460,192,11417,1,2,0:0:0:0:
358,192,11584,1,0,0:0:0:0:
256,192,11751,1,2,0:0:0:0:
51,192,11751,1,0,0:0:0:0:
153,192,11751,1,8,0:0:0:0:
460,192,11917,1,0,0:0:0:0:
358,192,12084,1,2,0:0:0:0:
256,192,12084,1,0,0:0:0:0:
153,192,12251,1,0,0:0:0:0:
256,192,12334,1,0,0:0:0:0:
51,192,12417,1,0,0:0:0:0:
460,192,12417,1,2,0:0:0:0:
358,192,12417,1,8,0:0:0:0:
256,192,12584,1,0,0:0:0:0:
358,192,12751,1,0,0:0:0:0:
51,192,12751,1,2,0:0:0:0:
358,192,12917,1,0,0:0:0:0:
153,192,13084,1,0,0:0:0:0:
358,192,13084,1,8,0:0:0:0:
51,192,13084,1,2,0:0:0:0:
358,192,13251,1,0,0:0:0:0:
256,192,13417,1,0,0:0:0:0:
153,192,13417,1,2,0:0:0:0:
153,192,13584,1,0,0:0:0:0:
358,192,13751,1,2,0:0:0:0:
153,192,13751,1,8,0:0:0:0:
460,192,13751,1,0,0:0:0:0:
256,192,13917,1,0,0:0:0:0:
358,192,14084,5,2,0:0:0:0:
51,192,14084,1,0,0:0:0:0:
153,192,14251,1,0,0:0:0:0:
358,192,14417,1,8,0:0:0:0:
460,192,14417,1,0,0:0:0:0:
51,192,14417,1,2,0:0:0:0:
256,192,14584,1,0,0:0:0:0:
51,192,14667,1,0,0:0:0:0:
153,192,14667,1,8,0:0:0:0:
460,192,14751,1,0,0:0:0:0:
358,192,14751,1,2,0:0:0:0:
51,192,14917,1,0,0:0:0:0:
153,192,14917,1,8,0:0:0:0:
460,192,15084,1,2,0:0:0:0:
358,192,15084,1,0,0:0:0:0:
153,192,15167,1,8,0:0:0:0:
256,192,15167,1,0,0:0:0:0:
51,192,15251,1,0,0:0:0:0:
460,192,15334,1,8,0:0:0:0:
358,192,15334,1,0,0:0:0:0:
256,192,15417,1,2,0:0:0:0:
153,192,15417,1,4,0:0:0:0:
51,192,15417,1,8,0:0:0:0:
460,192,15584,1,0,0:0:0:0:
358,192,15667,1,0,0:0:0:0:
51,192,15667,1,4,0:0:0:0:
153,192,15667,1,2,0:0:0:0:
256,192,15834,1,0,0:0:0:0:
153,192,15834,1,8,0:0:0:0:
460,192,15917,1,0,0:0:0:0:
358,192,15917,1,2,0:0:0:0:
256,192,16001,1,2,0:0:0:0:
153,192,16001,1,0,0:0:0:0:
51,192,16084,1,4,0:0:0:0:
460,192,16084,1,8,0:0:0:0:
358,192,16084,1,2,0:0:0:0:
153,192,16167,1,0,0:0:0:0:
256,192,16251,1,8,0:0:0:0:
358,192,16251,1,0,0:0:0:0:
51,192,16334,1,12,0:0:0:0:
153,192,16334,1,2,0:0:0:0:
256,192,16417,1,0,0:0:0:0:
358,192,16501,1,2,0:0:0:0:
460,192,16501,1,0,0:0:0:0:
153,192,16584,1,0,0:0:0:0:
51,192,16584,1,8,0:0:0:0:
256,192,16667,1,0,0:0:0:0:
358,192,16667,1,8,0:0:0:0:
460,192,16751,128,4,16917:0:0:0:0:
51,192,16751,1,2,0:0:0:0:
153,192,16751,1,8,0:0:0:0:
358,192,16917,128,0,17084:0:0:0:0:
256,192,16917,1,0,0:0:0:0:
153,192,17084,128,0,17251:0:0:0:0:
51,192,17084,1,8,0:0:0:0:
460,192,17084,1,2,0:0:0:0:
358,192,17251,128,0,17417:0:0:0:0:
256,192,17417,128,0,17584:0:0:0:0:
153,192,17417,1,2,0:0:0:0:
460,192,17584,128,0,17751:0:0:0:0:
358,192,17751,128,0,17917:0:0:0:0:
256,192,17751,1,2,0:0:0:0:
51,192,17751,1,8,0:0:0:0:
153,192,17917,128,0,18084:0:0:0:0:
256,192,18084,128,0,18251:0:0:0:0:
358,192,18084,1,2,0:0:0:0:
51,192,18251,128,0,18417:0:0:0:0:
153,192,18417,128,0,18584:0:0:0:0:
460,192,18417,1,8,0:0:0:0:
256,192,18417,1,2,0:0:0:0:
358,192,18584,128,0,18751:0:0:0:0:
256,192,18751,128,0,19084:0:0:0:0:
51,192,18751,1,2,0:0:0:0:
460,192,18917,1,0,0:0:0:0:
153,192,19084,128,0,19251:0:0:0:0:
51,192,19084,1,8,0:0:0:0:
358,192,19084,1,2,0:0:0:0:
460,192,19417,128,0,19584:0:0:0:0:
358,192,19417,1,2,0:0:0:0:
256,192,19584,128,0,19751:0:0:0:0:
358,192,19751,128,0,19917:0:0:0:0:
51,192,19751,1,8,0:0:0:0:
153,192,19751,1,2,0:0:0:0:
153,192,19917,128,0,20084:0:0:0:0:
256,192,20084,128,0,20251:0:0:0:0:
460,192,20084,1,2,0:0:0:0:
51,192,20251,128,0,20417:0:0:0:0:
153,192,20417,128,0,20584:0:0:0:0:
256,192,20417,1,2,0:0:0:0:
460,192,20417,1,8,0:0:0:0:
358,192,20584,128,0,20751:0:0:0:0:
256,192,20751,128,0,20917:0:0:0:0:
460,192,20751,1,2,0:0:0:0:
460,192,20917,128,0,21084:0:0:0:0:
358,192,21084,128,0,21251:0:0:0:0:
51,192,21084,1,8,0:0:0:0:
256,192,21084,1,2,0:0:0:0:
153,192,21251,128,0,21417:0:0:0:0:
256,192,21417,128,0,21751:0:0:0:0:
460,192,21417,1,2,0:0:0:0:
153,192,21584,1,0,0:0:0:0:
358,192,21751,128,0,21917:0:0:0:0:
460,192,21751,1,8,0:0:0:0:
51,192,21751,1,2,0:0:0:0:
153,192,22084,1,2,0:0:0:0:
51,192,22084,128,0,22251:0:0:0:0:
256,192,22251,128,0,22417:0:0:0:0:
358,192,22417,1,2,0:0:0:0:
460,192,22417,1,8,0:0:0:0:
153,192,22417,128,0,22584:0:0:0:0:
358,192,22584,128,0,22751:0:0:0:0:
51,192,22751,1,2,0:0:0:0:
256,192,22751,128,0,22917:0:0:0:0:
460,192,22917,128,0,23084:0:0:0:0:
51,192,23084,1,8,0:0:0:0:
256,192,23084,1,2,0:0:0:0:
358,192,23084,128,0,23251:0:0:0:0:
153,192,23251,128,0,23417:0:0:0:0:
460,192,23417,1,2,0:0:0:0:
256,192,23417,128,0,23584:0:0:0:0:
51,192,23584,128,0,23751:0:0:0:0:
256,192,23751,1,2,0:0:0:0:
460,192,23751,1,8,0:0:0:0:
153,192,23751,128,0,23917:0:0:0:0:
358,192,23917,128,0,24084:0:0:0:0:
51,192,24084,1,2,0:0:0:0:
256,192,24084,128,0,24417:0:0:0:0:
358,192,24251,1,0,0:0:0:0:
460,192,24417,1,8,0:0:0:0:
51,192,24417,1,2,0:0:0:0:
153,192,24417,128,0,24584:0:0:0:0:
358,192,24751,1,2,0:0:0:0:
460,192,24751,128,0,24917:0:0:0:0:
256,192,24917,128,0,25084:0:0:0:0:
358,192,25084,128,0,25251:0:0:0:0:
153,192,25084,1,8,0:0:0:0:
51,192,25084,1,2,0:0:0:0:
153,192,25251,128,0,25417:0:0:0:0:
256,192,25417,128,0,25584:0:0:0:0:
460,192,25417,1,2,0:0:0:0:
51,192,25584,128,0,25751:0:0:0:0:
153,192,25751,128,8,25917:0:0:0:0:
358,192,25751,1,2,0:0:0:0:
358,192,25917,128,0,26084:0:0:0:0:
460,192,26084,128,0,26251:0:0:0:0:
51,192,26084,1,8,0:0:0:0:
256,192,26084,1,2,0:0:0:0:
153,192,26251,1,0,0:0:0:0:
256,192,26417,128,0,26584:0:0:0:0:
51,192,26417,1,8,0:0:0:0:
358,192,26417,1,2,0:0:0:0:
460,192,26584,1,0,0:0:0:0:
51,192,26751,5,2,0:0:0:0:
153,192,26751,1,12,0:0:0:0:
256,192,26792,1,0,0:0:0:0:
358,192,26834,1,0,0:0:0:0:
460,192,26876,1,0,0:0:0:0:
51,192,26917,1,0,0:0:0:0:
153,192,26959,1,0,0:0:0:0:
358,192,27001,1,8,0:0:0:0:
256,192,27001,1,0,0:0:0:0:
460,192,27042,1,0,0:0:0:0:
51,192,27084,1,2,0:0:0:0:
153,192,27084,1,0,0:0:0:0:
256,192,27126,1,0,0:0:0:0:
358,192,27167,1,0,0:0:0:0:
460,192,27209,1,0,0:0:0:0:
51,192,27251,1,8,0:0:0:0:
153,192,27251,1,0,0:0:0:0:
256,192,27292,1,0,0:0:0:0:
358,192,27334,1,0,0:0:0:0:
460,192,27376,1,0,0:0:0:0:
51,192,27417,128,4,29417:0:0:0:0:
153,192,27417,1,2,0:0:0:0:
256,192,27417,1,8,0:0:0:0:
358,192,27584,1,0,0:0:0:0:
460,192,27751,1,8,0:0:0:0:
153,192,27751,1,0,0:0:0:0:
358,192,27751,1,2,0:0:0:0:
256,192,27917,1,0,0:0:0:0:
460,192,28084,1,2,0:0:0:0:
153,192,28084,1,0,0:0:0:0:
358,192,28251,1,0,0:0:0:0:
153,192,28417,1,0,0:0:0:0:
460,192,28417,1,2,0:0:0:0:
256,192,28417,1,8,0:0:0:0:
358,192,28584,1,0,0:0:0:0:
256,192,28751,1,0,0:0:0:0:
460,192,28751,128,2,28917:0:0:0:0:
153,192,28917,128,0,29084:0:0:0:0:
256,192,29084,1,8,0:0:0:0:
358,192,29084,1,2,0:0:0:0:
460,192,29084,128,0,29251:0:0:0:0:
153,192,29251,128,0,29417:0:0:0:0:
460,192,29417,128,0,30084:0:0:0:0:
358,192,29417,1,2,0:0:0:0:
153,192,29584,1,0,0:0:0:0:
256,192,29667,1,0,0:0:0:0:
51,192,29751,128,8,29917:0:0:0:0:
358,192,29751,1,2,0:0:0:0:
153,192,29917,1,0,0:0:0:0:
358,192,30084,128,0,31084:0:0:0:0:
256,192,30084,1,2,0:0:0:0:
153,192,30251,1,0,0:0:0:0:
460,192,30417,1,0,0:0:0:0:
256,192,30417,1,8,0:0:0:0:
51,192,30417,1,2,0:0:0:0:
153,192,30584,1,0,0:0:0:0:
51,192,30751,1,0,0:0:0:0:
256,192,30751,1,2,0:0:0:0:
153,192,30917,1,0,0:0:0:0:
256,192,31084,128,0,31251:0:0:0:0:
51,192,31084,1,2,0:0:0:0:
460,192,31084,1,8,0:0:0:0:
153,192,31251,128,0,31417:0:0:0:0:
51,192,31417,128,0,32084:0:0:0:0:
460,192,31417,128,2,31584:0:0:0:0:
153,192,31584,128,0,31751:0:0:0:0:
358,192,31751,1,8,0:0:0:0:
256,192,31751,1,2,0:0:0:0:
460,192,31751,128,0,31917:0:0:0:0:
153,192,31917,128,0,32084:0:0:0:0:
256,192,32084,128,2,32751:0:0:0:0:
460,192,32084,1,0,0:0:0:0:
358,192,32251,1,0,0:0:0:0:
460,192,32334,1,0,0:0:0:0:
153,192,32417,1,2,0:0:0:0:
51,192,32417,128,8,32584:0:0:0:0:
358,192,32584,1,0,0:0:0:0:
460,192,32751,128,8,34751:0:0:0:0:
153,192,32751,1,4,0:0:0:0:
51,192,32751,1,2,0:0:0:0:
358,192,32917,1,0,0:0:0:0:
256,192,33084,1,8,0:0:0:0:
51,192,33084,1,0,0:0:0:0:
153,192,33084,1,2,0:0:0:0:
358,192,33251,1,0,0:0:0:0:
51,192,33417,1,0,0:0:0:0:
256,192,33417,1,2,0:0:0:0:
153,192,33584,1,0,0:0:0:0:
51,192,33751,1,0,0:0:0:0:
256,192,33751,1,2,0:0:0:0:
358,192,33751,1,8,0:0:0:0:
153,192,33917,1,0,0:0:0:0:
256,192,34084,1,0,0:0:0:0:
51,192,34084,128,2,34251:0:0:0:0:
358,192,34251,128,0,34417:0:0:0:0:
256,192,34417,1,2,0:0:0:0:
153,192,34417,1,8,0:0:0:0:
51,192,34417,128,0,34584:0:0:0:0:
358,192,34584,128,0,34751:0:0:0:0:
153,192,34751,128,0,35417:0:0:0:0:
256,192,34751,1,2,0:0:0:0:
358,192,34917,1,0,0:0:0:0:
51,192,35084,1,8,0:0:0:0:
460,192,35084,1,2,0:0:0:0:
256,192,35084,128,0,35251:0:0:0:0:
358,192,35251,1,0,0:0:0:0:
358,192,35417,128,0,36751:0:0:0:0:
460,192,35417,1,2,0:0:0:0:
256,192,35584,1,0,0:0:0:0:
460,192,35751,1,8,0:0:0:0:
153,192,35751,1,2,0:0:0:0:
51,192,35751,1,0,0:0:0:0:
256,192,35917,1,0,0:0:0:0:
153,192,36084,1,0,0:0:0:0:
460,192,36084,1,2,0:0:0:0:
51,192,36251,1,0,0:0:0:0:
153,192,36334,1,0,0:0:0:0:
256,192,36417,1,2,0:0:0:0:
460,192,36417,1,0,0:0:0:0:
51,192,36417,1,8,0:0:0:0:
153,192,36584,1,0,0:0:0:0:
256,192,36584,1,0,0:0:0:0:
153,192,36751,1,2,0:0:0:0:
460,192,36751,1,4,0:0:0:0:
51,192,36751,128,8,36917:0:0:0:0:
256,192,36917,128,0,37084:0:0:0:0:
51,192,37084,128,0,37251:0:0:0:0:
256,192,37251,128,0,37417:0:0:0:0:
460,192,37417,1,0,0:0:0:0:
358,192,37459,1,0,0:0:0:0:
256,192,37501,1,0,0:0:0:0:
153,192,37542,1,0,0:0:0:0:
51,192,37584,1,0,0:0:0:0:
460,192,37626,1,0,0:0:0:0:
358,192,37667,1,0,0:0:0:0:
256,192,37709,1,0,0:0:0:0:
153,192,37751,1,0,0:0:0:0:
51,192,37792,1,0,0:0:0:0:
460,192,37834,1,0,0:0:0:0:
358,192,37876,1,0,0:0:0:0:
256,192,37917,1,0,0:0:0:0:
153,192,37959,1,0,0:0:0:0:
51,192,38001,1,0,0:0:0:0:
460,192,38042,1,0,0:0:0:0:
358,192,38084,1,4,0:0:0:0:
256,192,38084,1,8,0:0:0:0:
153,192,38084,1,2,0:0:0:0:
460,192,38251,1,0,0:0:0:0:
358,192,38417,1,0,0:0:0:0:
153,192,38417,1,2,0:0:0:0:
51,192,38417,128,8,38584:0:0:0:0:
256,192,38584,128,0,38751:0:0:0:0:
460,192,38751,1,0,0:0:0:0:
358,192,38751,1,2,0:0:0:0:
153,192,38917,128,0,39084:0:0:0:0:
358,192,39084,1,2,0:0:0:0:
51,192,39084,1,8,0:0:0:0:
460,192,39084,128,0,39251:0:0:0:0:
256,192,39251,128,0,39417:0:0:0:0:
460,192,39417,1,2,0:0:0:0:
153,192,39417,1,0,0:0:0:0:
358,192,39584,128,0,39751:0:0:0:0:
153,192,39751,1,2,0:0:0:0:
51,192,39751,1,0,0:0:0:0:
460,192,39751,1,8,0:0:0:0:
256,192,39917,128,0,40084:0:0:0:0:
358,192,40084,1,0,0:0:0:0:
51,192,40084,1,2,0:0:0:0:
153,192,40251,128,0,40417:0:0:0:0:
358,192,40417,1,0,0:0:0:0:
460,192,40417,1,2,0:0:0:0:
51,192,40417,1,8,0:0:0:0:
256,192,40584,128,0,40751:0:0:0:0:
358,192,40751,1,2,0:0:0:0:
153,192,40751,1,0,0:0:0:0:
51,192,40917,128,0,41084:0:0:0:0:
153,192,41084,1,2,0:0:0:0:
358,192,41084,1,8,0:0:0:0:
460,192,41084,128,0,41251:0:0:0:0:
256,192,41251,1,0,0:0:0:0:
51,192,41417,1,0,0:0:0:0:
153,192,41417,1,2,0:0:0:0:
256,192,41584,1,0,0:0:0:0:
358,192,41751,1,2,0:0:0:0:
51,192,41751,1,8,0:0:0:0:
460,192,41751,128,0,41917:0:0:0:0:
256,192,41917,128,0,42084:0:0:0:0:
358,192,42084,1,2,0:0:0:0:
153,192,42084,128,0,42251:0:0:0:0:
358,192,42251,128,0,42417:0:0:0:0:
153,192,42417,1,2,0:0:0:0:
51,192,42417,1,8,0:0:0:0:
256,192,42417,128,0,42584:0:0:0:0:
460,192,42584,128,0,42751:0:0:0:0:
358,192,42751,1,0,0:0:0:0:
153,192,42751,1,2,0:0:0:0:
51,192,42917,128,0,43084:0:0:0:0:
460,192,43084,1,8,0:0:0:0:
358,192,43084,1,2,0:0:0:0:
153,192,43084,128,0,43251:0:0:0:0:
256,192,43251,1,0,0:0:0:0:
460,192,43417,1,2,0:0:0:0:
51,192,43417,1,0,0:0:0:0:
256,192,43584,1,0,0:0:0:0:
51,192,43751,1,0,0:0:0:0:
153,192,43751,1,8,0:0:0:0:
358,192,43751,128,2,43917:0:0:0:0:
460,192,43917,128,0,44084:0:0:0:0:
256,192,44084,1,2,0:0:0:0:
153,192,44084,1,0,0:0:0:0:
51,192,44251,128,0,44417:0:0:0:0:
358,192,44417,1,0,0:0:0:0:
460,192,44417,1,2,0:0:0:0:
153,192,44417,128,8,44584:0:0:0:0:
256,192,44584,128,0,44751:0:0:0:0:
51,192,44751,1,0,0:0:0:0:
460,192,44751,1,2,0:0:0:0:
153,192,44917,128,0,45084:0:0:0:0:
358,192,45084,1,0,0:0:0:0:
460,192,45084,1,2,0:0:0:0:
51,192,45084,1,8,0:0:0:0:
256,192,45251,128,0,45417:0:0:0:0:
153,192,45417,1,2,0:0:0:0:
51,192,45417,1,0,0:0:0:0:
460,192,45584,128,0,45751:0:0:0:0:
256,192,45751,1,8,0:0:0:0:
358,192,45751,1,2,0:0:0:0:
153,192,45751,1,0,0:0:0:0:
51,192,45917,128,0,46084:0:0:0:0:
153,192,46084,1,0,0:0:0:0:
256,192,46084,1,2,0:0:0:0:
358,192,46251,128,0,46417:0:0:0:0:
460,192,46417,1,2,0:0:0:0:
153,192,46417,1,8,0:0:0:0:
51,192,46417,1,0,0:0:0:0:
256,192,46584,128,0,46751:0:0:0:0:
153,192,46751,1,0,0:0:0:0:
358,192,46751,1,2,0:0:0:0:
460,192,46917,1,0,0:0:0:0:
153,192,47084,5,2,0:0:0:0:
51,192,47084,128,0,47251:0:0:0:0:
358,192,47084,1,8,0:0:0:0:
256,192,47251,1,0,0:0:0:0:
153,192,47417,1,2,0:0:0:0:
460,192,47417,128,0,47584:0:0:0:0:
256,192,47584,1,0,0:0:0:0:
153,192,47751,1,8,0:0:0:0:
51,192,47751,1,0,0:0:0:0:
358,192,47751,1,2,0:0:0:0:
256,192,47917,128,0,48084:0:0:0:0:
460,192,48084,1,2,0:0:0:0:
51,192,48084,1,0,0:0:0:0:
153,192,48251,1,0,0:0:0:0:
460,192,48417,1,2,0:0:0:0:
358,192,48417,1,8,0:0:0:0:
51,192,48417,128,0,48584:0:0:0:0:
153,192,48584,1,0,0:0:0:0:
358,192,48751,1,0,0:0:0:0:
256,192,48751,128,4,49751:0:0:0:0:
460,192,48751,1,0,0:0:0:0:
