osu file format v14

[General]
AudioFilename: audio.mp3
AudioLeadIn: 0
PreviewTime: 8027
Countdown: 0
SampleSet: Soft
StackLeniency: 0.7
Mode: 0
LetterboxInBreaks: 0
WidescreenStoryboard: 0

[Editor]
Bookmarks: 27227
DistanceSpacing: 1.2
BeatDivisor: 2
GridSize: 4
TimelineZoom: 1

[Metadata]
Title:220 - Kumano
TitleUnicode:220 - Kumano
Artist:saradisk
ArtistUnicode:saradisk
Creator:Nozhomi
Version:Advanced
Source:艦隊これくしょん -艦これ-
Tags:kancolle kantai collection okorin okoratu maruyu yuzu- xinely ascendance
BeatmapID:1007711
BeatmapSetID:471346

[Difficulty]
HPDrainRate:3.5
CircleSize:3.3
OverallDifficulty:4.2
ApproachRate:5.5
SliderMultiplier:1.1
SliderTickRate:1

[Events]
//Background and Video events
0,0,"lewd.jpg",0,0
//Break Periods
//Storyboard Layer 0 (Background)
//Storyboard Layer 1 (Fail)
//Storyboard Layer 2 (Pass)
//Storyboard Layer 3 (Foreground)
//Storyboard Sound Samples

[TimingPoints]
1277,300,4,2,1,40,1,0
8477,-100,4,1,1,70,0,0
12227,-100,4,1,2,50,0,0
12302,-100,4,1,1,40,0,0
12377,-100,4,1,2,30,0,0
12452,-100,4,1,1,40,0,0
12527,-100,4,1,2,70,0,0
12677,-100,4,1,1,90,0,0
12752,-100,4,1,2,60,0,0
12827,-100,4,1,1,90,0,0
12902,-100,4,1,2,70,0,0
13052,-100,4,1,1,70,0,0
21827,-100,4,1,2,50,0,0
21902,-100,4,1,1,40,0,0
21977,-100,4,1,2,30,0,0
22052,-100,4,1,1,40,0,0
22127,-100,4,1,2,70,0,0
22277,-100,4,1,1,90,0,0
22352,-100,4,1,2,60,0,0
22427,-100,4,1,1,90,0,0
22502,-100,4,1,2,70,0,0
23027,-100,4,2,1,70,0,0
24077,-100,4,2,1,75,0,0
26477,-100,4,2,1,80,0,0
27677,-100,4,2,1,85,0,0
28577,-100,4,2,1,40,0,0
28727,-100,4,2,1,70,0,0
28877,-100,4,2,1,70,0,1
33677,-100,4,2,1,75,0,0
38477,-100,4,2,1,80,0,1
42077,-100,4,2,1,80,0,1
42377,-100,4,2,1,80,0,1
42677,-100,4,2,1,80,0,0
42977,-100,4,2,1,70,0,0
43277,-100,4,2,1,40,0,0

[Colours]
Combo1 : 72,183,138
Combo2 : 213,186,36
Combo3 : 71,209,224
Combo4 : 192,52,7

[HitObjects]
256,80,1277,6,0,L|256:24,2,55,6|2|2,0:0|0:0|3:2,0:0:0:0:
180,188,1877,1,2,3:2:0:0:
180,188,2027,2,0,P|172:240|192:296,1,110,2|2,0:0|0:0,0:0:0:0:
322,293,2627,1,2,0:0:0:0:
322,293,2777,2,0,P|340:241|332:188,1,110,2|2,3:2|3:2,0:0:0:0:
296,132,3227,1,2,0:0:0:0:
256,192,3677,12,2,7127,3:2:0:0:
392,32,8477,6,0,P|384:88|403:150,1,110,14|2,0:3|0:2,0:0:0:0:
424,200,8927,2,0,P|437:253|429:307,1,110,14|2,0:3|0:2,0:0:0:0:
396,364,9377,1,14,0:3:0:0:
264,364,9677,6,0,P|252:308|268:252,1,110,14|2,0:3|0:2,0:0:0:0:
296,200,10127,2,0,P|308:144|292:88,1,110,14|2,0:3|0:2,0:0:0:0:
248,48,10577,2,0,L|168:56,1,55,2|2,0:2|0:2,0:0:0:0:
127,63,10877,6,0,P|144:115|131:168,1,110,14|2,0:3|0:2,0:0:0:0:
85,216,11327,2,0,P|145:208|213:248,1,110,14|2,0:3|0:2,0:0:0:0:
244,264,11777,1,2,0:3:0:0:
340,356,12077,6,0,B|384:364|384:364|468:340,1,110,12|0,0:0|0:0,0:0:0:0:
489,295,12527,2,0,B|506:232|506:232|498:188,1,110,14|0,0:3|0:0,0:0:0:0:
464,132,12977,2,0,P|459:104|464:76,1,55,12|12,0:3|0:3,0:0:0:0:
488,16,13277,6,0,L|379:31,1,110,12|2,0:3|0:2,0:0:0:0:
340,84,13727,2,0,L|231:99,1,110,12|2,0:3|0:2,0:0:0:0:
192,152,14177,1,12,0:3:0:0:
68,103,14477,6,0,P|57:157|73:209,1,110,12|2,0:3|0:2,0:0:0:0:
114,260,14927,2,0,L|254:252,1,110,12|2,0:3|0:2,0:0:0:0:
276,296,15377,2,0,L|336:292,1,55,2|2,0:2|0:2,0:0:0:0:
396,284,15677,6,0,P|360:240|364:172,1,110,12|2,0:3|0:2,0:0:0:0:
384,128,16127,2,0,P|380:74|345:32,1,110,12|2,0:3|0:2,0:0:0:0:
280,24,16577,1,0,0:0:0:0:
230,148,16877,6,0,B|226:257,1,110,12|2,0:3|0:2,0:0:0:0:
224,324,17327,2,0,P|188:276|104:248,1,110,12|2,0:3|0:2,0:0:0:0:
80,247,17777,2,0,P|52:252|26:246,1,55,12|2,0:3|0:2,0:0:0:0:
8,184,18077,6,0,L|20:60,1,110,14|2,0:3|0:2,0:0:0:0:
63,28,18527,2,0,P|117:15|170:26,1,110,14|2,0:3|0:2,0:0:0:0:
220,68,18977,1,4,0:3:0:0:
324,148,19277,6,0,B|368:156|368:156|452:132,1,110,12|2,0:3|0:2,0:0:0:0:
492,116,19727,2,0,L|496:52,2,55,0|8|12,0:0|0:3|0:3,0:0:0:0:
508,180,20177,2,0,P|514:209|509:233,1,55,2|2,0:3|0:2,0:0:0:0:
508,300,20477,6,0,B|464:292|464:292|416:324|336:320,1,165,14|2,0:3|0:2,0:0:0:0:
288,300,21077,2,0,P|275:247|289:194,1,110,14|0,0:3|0:0,0:0:0:0:
360,84,21677,6,0,B|250:97,1,110,12|0,0:0|0:0,0:0:0:0:
196,132,22127,2,0,P|175:182|170:240,1,110,14|0,0:3|0:0,0:0:0:0:
176,304,22577,2,0,P|156:324|120:332,1,55,14|14,0:3|0:3,0:0:0:0:
68,316,22877,2,0,P|64:252|80:180,1,110,14|2,0:3|0:0,0:0:0:0:
112,84,23477,1,14,1:3:0:0:
192,188,23777,1,2,1:2:0:0:
256,72,24077,5,14,1:3:0:0:
320,188,24377,2,0,L|376:188,2,55,2|8|10,0:0|1:3|1:2,0:0:0:0:
256,304,24977,1,2,0:3:0:0:
192,188,25277,5,14,1:3:0:0:
92,100,25577,2,0,L|32:100,2,55,2|8|10,0:0|1:3|1:2,0:0:0:0:
216,56,26177,1,2,0:3:0:0:
344,20,26477,5,14,1:3:0:0:
344,20,26627,2,0,P|360:72|344:140,1,110,0|12,0:0|1:3,0:0:0:0:
320,184,27077,1,14,1:3:0:0:
320,184,27227,2,0,P|304:236|320:304,1,110,0|12,0:0|1:3,0:0:0:0:
352,344,27677,6,0,B|304:316|304:316|255:318|255:318|204:280|140:304,1,220,14|14,1:3|1:3,0:0:0:0:
20,340,28577,1,8,0:0:0:0:
40,208,28877,6,0,P|85:173|141:160,1,110,2|2,1:3|1:3,0:0:0:0:
268,176,29477,2,0,P|313:210|369:223,1,110,2|2,1:3|1:3,0:0:0:0:
496,208,30077,1,2,1:3:0:0:
412,104,30377,1,2,1:3:0:0:
364,223,30677,2,0,P|376:283|357:342,1,110,2|0,1:3|1:0,0:0:0:0:
231,330,31277,6,0,P|219:277|232:224,1,110,2|2,1:3|1:3,0:0:0:0:
288,104,31877,2,0,P|234:117|181:104,1,110,2|2,1:3|1:3,0:0:0:0:
56,68,32477,2,0,L|24:16,2,55,2|2|2,1:3|0:0|1:3,0:0:0:0:
24,196,33077,1,2,1:3:0:0:
154,219,33377,1,0,1:0:0:0:
284,240,33677,6,0,P|356:244|368:116,1,220,6|4,1:2|1:3,0:0:0:0:
256,64,34577,1,8,1:1:0:0:
136,122,34877,2,0,P|129:222|227:240,1,220,4|2,1:3|0:3,0:0:0:0:
340,168,35777,1,8,1:0:0:0:
256,64,36077,6,0,L|24:56,1,220,4|4,1:3|1:3,0:0:0:0:
44,188,36977,1,8,1:0:0:0:
132,280,37277,1,2,1:2:0:0:
256,332,37577,1,8,1:0:0:0:
380,280,37877,1,0,0:0:0:0:
468,188,38177,1,8,1:0:0:0:
432,60,38477,6,0,P|373:96|338:166,1,110,2|2,1:3|1:3,0:0:0:0:
280,240,39077,2,0,P|278:170|235:105,1,110,2|2,1:3|1:3,0:0:0:0:
199,18,39677,2,0,P|259:51|337:46,1,110,2|2,1:3|1:3,0:0:0:0:
432,60,40277,1,2,1:3:0:0:
352,164,40577,1,2,1:3:0:0:
432,268,40877,6,0,B|449:323|449:323|432:372,1,110,2|2,1:3|1:3,0:0:0:0:
308,324,41477,2,0,P|256:308|204:323,1,110,2|2,1:3|1:3,0:0:0:0:
81,372,42077,6,0,L|63:321,1,55,2|2,1:3|1:3,0:0:0:0:
96,264,42377,2,0,L|78:213,1,55,2|2,1:3|1:3,0:0:0:0:
104,152,42677,1,2,1:3:0:0:
200,60,42977,5,8,1:2:0:0:
