osu file format v14

[General]
AudioFilename: audio.mp3
AudioLeadIn: 0
PreviewTime: 7890
Countdown: 0
SampleSet: Normal
StackLeniency: 0.7
Mode: 3
LetterboxInBreaks: 0
SpecialStyle: 0
WidescreenStoryboard: 1

[Editor]
DistanceSpacing: 0.8
BeatDivisor: 4
GridSize: 4
TimelineZoom: 2.1

[Metadata]
Title:220 - Kumano
TitleUnicode:220 - Kumano
Artist:saradisk
ArtistUnicode:saradisk
Creator:MapleSyrup-
Version:Normal
Source:艦隊これくしょん -艦これ-
Tags:kancolle kantai collection jztcallmeron
BeatmapID:1530525
BeatmapSetID:724477

[Difficulty]
HPDrainRate:7
CircleSize:7
OverallDifficulty:7
ApproachRate:5
SliderMultiplier:1.4
SliderTickRate:1

[Events]
//Background and Video events
0,0,"Konachan.com - 246987 2girls bikini blush bow breasts brown_eyes brown_hair clouds drink green_eyes green_hair long_hair petals ponytail skirt sky swimsuit yumi_yumi.jpg",0,0
//Break Periods
//Storyboard Layer 0 (Background)
//Storyboard Layer 1 (Fail)
//Storyboard Layer 2 (Pass)
//Storyboard Layer 3 (Foreground)
//Storyboard Sound Samples
Sample,8040,0,"C.wav",40
Sample,8190,0,"C.wav",40
Sample,8340,0,"C.wav",40
Sample,8490,0,"Cym.wav",40
Sample,9540,0,"Fin.wav",40
Sample,10740,0,"Fin.wav",40
Sample,11940,0,"Fin.wav",40
Sample,12090,0,"Fin.wav",40
Sample,12540,0,"Bass.wav",40
Sample,12540,0,"Fin.wav",40
Sample,12990,0,"Bass.wav",40
Sample,12990,0,"Fin.wav",40
Sample,13140,0,"Fin.wav",40
Sample,14340,0,"Fin.wav",40
Sample,15540,0,"Fin.wav",40
Sample,16740,0,"Fin.wav",40
Sample,16890,0,"Bass.wav",40
Sample,16890,0,"Fin.wav",40
Sample,17340,0,"Fin.wav",40
Sample,17790,0,"Fin.wav",40
Sample,17940,0,"W.wav",40
Sample,19140,0,"Fin.wav",40
Sample,19890,0,"Fin.wav",40
Sample,21690,0,"Fin.wav",40
Sample,22140,0,"Fin.wav",40
Sample,22590,0,"Fin.wav",40
Sample,24090,0,"Cym.wav",40
Sample,25140,0,"kick.wav",40
Sample,25290,0,"Fin.wav",40
Sample,25290,0,"Cym.wav",40
Sample,26340,0,"kick.wav",40
Sample,26490,0,"Fin.wav",40
Sample,26490,0,"Cym.wav",40
Sample,26940,0,"kick.wav",40
Sample,27090,0,"Fin.wav",40
Sample,27090,0,"Cym.wav",40
Sample,27540,0,"kick.wav",40
Sample,27690,0,"W.wav",40
Sample,27690,0,"Fin.wav",40
Sample,27690,0,"Cym.wav",40
Sample,27990,0,"W.wav",40
Sample,27990,0,"Fin.wav",40
Sample,27990,0,"Cym.wav",40
Sample,28290,0,"W.wav",40
Sample,28290,0,"Fin.wav",40
Sample,28290,0,"Cym.wav",40
Sample,32190,0,"C.wav",40
Sample,33690,0,"Cym.wav",40
Sample,35790,0,"C.wav",40
Sample,38190,0,"C.wav",40
Sample,38490,0,"Fin.wav",40
Sample,38790,0,"W.wav",40
Sample,38790,0,"Fin.wav",40
Sample,39090,0,"Fin.wav",40
Sample,39390,0,"Fin.wav",40
Sample,39690,0,"Fin.wav",40
Sample,39990,0,"W.wav",40
Sample,39990,0,"Fin.wav",40
Sample,40290,0,"Fin.wav",40
Sample,40590,0,"W.wav",40
Sample,40590,0,"C.wav",40
Sample,40590,0,"Fin.wav",40
Sample,40890,0,"Fin.wav",40
Sample,41190,0,"W.wav",40
Sample,41190,0,"C.wav",40
Sample,41190,0,"Fin.wav",40
Sample,41340,0,"C.wav",40
Sample,41490,0,"Fin.wav",40
Sample,41790,0,"W.wav",40
Sample,41790,0,"C.wav",40
Sample,41790,0,"Fin.wav",40
Sample,41940,0,"C.wav",40
Sample,42090,0,"Fin.wav",40
Sample,42390,0,"Fin.wav",40
Sample,42690,0,"Fin.wav",40

[TimingPoints]
1290,300.0,4,1,1,30,1,0

[HitObjects]
36,192,1290,1,0,0:0:0:40:W.wav
475,192,1290,1,0,0:0:0:40:Cym.wav
256,192,3690,1,0,0:0:0:40:Bass.wav
475,192,3690,128,0,4290:0:0:0:0:
36,192,4290,1,0,0:0:0:40:Bass.wav
182,192,4290,128,0,4890:0:0:0:0:
329,192,4890,1,0,0:0:0:40:Bass.wav
402,192,4890,128,0,5490:0:0:0:0:
109,192,5490,128,0,6090:0:0:0:40:Bass.wav
256,192,5490,1,0,0:0:0:0:
329,192,6090,128,0,6690:0:0:0:40:Bass.wav
475,192,6090,1,0,0:0:0:0:
36,192,6690,128,0,7290:0:0:0:40:Bass.wav
182,192,6690,1,0,0:0:0:0:
256,192,7290,128,0,7890:0:0:0:40:Bass.wav
402,192,7290,1,0,0:0:0:0:
109,192,7890,1,0,0:0:0:40:Bass.wav
475,192,7890,128,0,8490:0:0:0:0:
329,192,8040,1,0,0:0:0:40:W.wav
182,192,8190,1,0,0:0:0:40:W.wav
256,192,8340,1,0,0:0:0:40:W.wav
36,192,8490,1,0,0:0:0:40:W.wav
109,192,8490,1,0,0:0:0:40:Fin.wav
182,192,8640,1,0,0:0:0:40:Hat.wav
329,192,8790,1,0,0:0:0:40:kick.wav
36,192,8940,1,0,0:0:0:40:W.wav
109,192,8940,1,0,0:0:0:40:Fin.wav
256,192,9090,1,0,0:0:0:40:Hat.wav
402,192,9240,1,0,0:0:0:40:kick.wav
36,192,9390,1,0,0:0:0:40:W.wav
109,192,9390,1,0,0:0:0:40:Fin.wav
329,192,9540,1,0,0:0:0:40:W.wav
402,192,9690,1,0,0:0:0:40:W.wav
475,192,9690,1,0,0:0:0:40:Fin.wav
256,192,9840,1,0,0:0:0:40:Hat.wav
109,192,9990,1,0,0:0:0:40:kick.wav
402,192,10140,1,0,0:0:0:40:W.wav
475,192,10140,1,0,0:0:0:40:Fin.wav
182,192,10290,1,0,0:0:0:40:Hat.wav
36,192,10440,1,0,0:0:0:40:kick.wav
402,192,10590,1,0,0:0:0:40:W.wav
475,192,10590,1,0,0:0:0:40:Fin.wav
329,192,10740,1,0,0:0:0:40:W.wav
36,192,10890,1,0,0:0:0:40:W.wav
182,192,10890,1,0,0:0:0:40:Fin.wav
256,192,11040,1,0,0:0:0:40:Hat.wav
402,192,11190,1,0,0:0:0:40:kick.wav
36,192,11340,1,0,0:0:0:40:W.wav
182,192,11340,1,0,0:0:0:40:Fin.wav
329,192,11490,1,0,0:0:0:40:Hat.wav
475,192,11640,1,0,0:0:0:40:kick.wav
36,192,11790,1,0,0:0:0:40:W.wav
182,192,11790,1,0,0:0:0:40:Fin.wav
256,192,11940,1,0,0:0:0:40:W.wav
329,192,12090,1,0,0:0:0:40:W.wav
475,192,12090,128,0,12990:0:0:0:40:Bass.wav
182,192,12240,1,0,0:0:0:40:Hat.wav
36,192,12390,1,0,0:0:0:40:kick.wav
182,192,12540,1,0,0:0:0:40:W.wav
109,192,12840,1,0,0:0:0:40:kick.wav
402,192,12990,1,0,0:0:0:40:W.wav
109,192,13140,1,0,0:0:0:40:W.wav
329,192,13290,1,0,0:0:0:40:W.wav
475,192,13290,1,0,0:0:0:40:Fin.wav
182,192,13440,1,0,0:0:0:40:Hat.wav
109,192,13590,1,0,0:0:0:40:kick.wav
256,192,13740,1,0,0:0:0:40:W.wav
402,192,13740,1,0,0:0:0:40:Fin.wav
109,192,13890,1,0,0:0:0:40:Hat.wav
36,192,14040,1,0,0:0:0:40:kick.wav
182,192,14190,1,0,0:0:0:40:W.wav
329,192,14190,1,0,0:0:0:40:Fin.wav
402,192,14340,1,0,0:0:0:40:W.wav
36,192,14490,1,0,0:0:0:40:W.wav
475,192,14490,1,0,0:0:0:40:Fin.wav
109,192,14640,1,0,0:0:0:40:Hat.wav
182,192,14790,1,0,0:0:0:40:kick.wav
256,192,14940,1,0,0:0:0:40:W.wav
475,192,14940,1,0,0:0:0:40:Fin.wav
329,192,15090,1,0,0:0:0:40:Hat.wav
109,192,15390,1,0,0:0:0:40:W.wav
402,192,15390,1,0,0:0:0:40:Fin.wav
256,192,15540,1,0,0:0:0:40:W.wav
36,192,15690,128,0,15990:0:0:0:40:W.wav
329,192,15690,1,0,0:0:0:40:Fin.wav
182,192,15990,128,0,16290:0:0:0:40:kick.wav
402,192,15990,1,0,0:0:0:0:
475,192,16290,128,0,16590:0:0:0:40:Hat.wav
109,192,16590,128,0,16890:0:0:0:40:W.wav
256,192,16590,1,0,0:0:0:40:Fin.wav
329,192,16740,1,0,0:0:0:40:W.wav
402,192,16890,128,0,17190:0:0:0:40:W.wav
109,192,17190,1,0,0:0:0:40:kick.wav
256,192,17190,1,0,0:0:0:0:
329,192,17340,1,0,0:0:0:40:W.wav
475,192,17340,1,0,0:0:0:40:Bass.wav
329,192,17640,1,0,0:0:0:40:kick.wav
109,192,17790,1,0,0:0:0:40:W.wav
256,192,17790,1,0,0:0:0:40:Bass.wav
402,192,17940,1,0,0:0:0:40:kick.wav
109,192,18090,1,0,0:0:0:40:W.wav
182,192,18090,1,0,0:0:0:40:Fin.wav
36,192,18390,1,0,0:0:0:40:kick.wav
329,192,18540,1,0,0:0:0:40:W.wav
402,192,18540,1,0,0:0:0:40:Fin.wav
475,192,18840,1,0,0:0:0:40:kick.wav
109,192,18990,1,0,0:0:0:40:W.wav
182,192,18990,1,0,0:0:0:40:Fin.wav
256,192,19140,1,0,0:0:0:40:W.wav
329,192,19290,1,0,0:0:0:40:W.wav
402,192,19290,1,0,0:0:0:40:Fin.wav
36,192,19590,1,0,0:0:0:40:kick.wav
182,192,19590,1,0,0:0:0:0:
329,192,19890,1,0,0:0:0:40:W.wav
256,192,20190,1,0,0:0:0:40:W.wav
109,192,20340,1,0,0:0:0:40:kick.wav
329,192,20490,1,0,0:0:0:40:W.wav
475,192,20490,1,0,0:0:0:40:Bass.wav
182,192,20715,1,0,0:0:0:40:W.wav
329,192,20715,1,0,0:0:0:40:Bass.wav
36,192,20940,1,0,0:0:0:40:kick.wav
182,192,20940,1,0,0:0:0:0:
329,192,21090,1,0,0:0:0:40:W.wav
402,192,21090,1,0,0:0:0:40:Bass.wav
109,192,21315,1,0,0:0:0:40:kick.wav
182,192,21315,1,0,0:0:0:0:
256,192,21540,1,0,0:0:0:40:W.wav
402,192,21540,1,0,0:0:0:0:
36,192,21690,1,0,0:0:0:40:W.wav
109,192,21690,128,0,22590:0:0:0:40:Bass.wav
329,192,21990,1,0,0:0:0:40:kick.wav
182,192,22140,1,0,0:0:0:40:W.wav
475,192,22440,1,0,0:0:0:40:kick.wav
329,192,22590,1,0,0:0:0:40:W.wav
182,192,22740,1,0,0:0:0:40:W.wav
329,192,22890,1,0,0:0:0:40:W.wav
475,192,22890,1,0,0:0:0:40:Bass.wav
36,192,23190,1,0,0:0:0:40:Hat.wav
182,192,23340,1,0,0:0:0:40:Hat.wav
329,192,23490,1,0,0:0:0:40:W.wav
475,192,23490,1,0,0:0:0:40:Bass.wav
256,192,23790,1,0,0:0:0:40:kick.wav
402,192,23790,1,0,0:0:0:0:
36,192,24090,1,0,0:0:0:40:W.wav
182,192,24090,128,0,24540:0:0:0:40:Fin.wav
256,192,24540,1,0,0:0:0:40:Hat.wav
402,192,24690,1,0,0:0:0:40:kick.wav
475,192,24690,1,0,0:0:0:40:W.wav
402,192,24990,1,0,0:0:0:40:W.wav
109,192,25140,1,0,0:0:0:40:Hat.wav
329,192,25290,128,0,25740:0:0:0:40:Hat.wav
475,192,25290,1,0,0:0:0:40:W.wav
256,192,25740,1,0,0:0:0:40:Hat.wav
36,192,25890,1,0,0:0:0:40:kick.wav
109,192,25890,1,0,0:0:0:40:W.wav
109,192,26190,1,0,0:0:0:40:W.wav
402,192,26340,1,0,0:0:0:40:Hat.wav
109,192,26490,128,0,26940:0:0:0:40:Hat.wav
256,192,26490,1,0,0:0:0:40:W.wav
329,192,26940,1,0,0:0:0:40:Hat.wav
182,192,27090,1,0,0:0:0:40:Hat.wav
402,192,27090,128,0,27540:0:0:0:40:W.wav
329,192,27540,1,0,0:0:0:40:Hat.wav
36,192,27690,128,0,27990:0:0:0:40:Hat.wav
475,192,27990,128,0,28290:0:0:0:40:Hat.wav
36,192,28290,1,0,0:0:0:40:Hat.wav
256,192,28590,1,0,0:0:0:40:W.wav
36,192,28890,1,0,0:0:0:40:W.wav
182,192,28890,1,0,0:0:0:40:Fin.wav
256,192,29190,1,0,0:0:0:40:W.wav
329,192,29490,1,0,0:0:0:40:W.wav
402,192,29790,1,0,0:0:0:40:W.wav
475,192,29790,128,0,30090:0:0:0:40:C.wav
36,192,30090,1,0,0:0:0:40:W.wav
182,192,30390,1,0,0:0:0:40:W.wav
109,192,30690,1,0,0:0:0:40:W.wav
402,192,30690,1,0,0:0:0:0:
256,192,30990,1,0,0:0:0:40:W.wav
329,192,30990,128,0,31290:0:0:0:40:C.wav
36,192,31290,1,0,0:0:0:40:W.wav
329,192,31590,1,0,0:0:0:40:W.wav
109,192,31890,1,0,0:0:0:40:W.wav
402,192,32190,1,0,0:0:0:40:W.wav
256,192,32340,1,0,0:0:0:40:Hat.wav
36,192,32490,1,0,0:0:0:40:W.wav
182,192,32490,1,0,0:0:0:0:
329,192,32790,1,0,0:0:0:40:W.wav
402,192,32940,1,0,0:0:0:40:Hat.wav
109,192,33090,1,0,0:0:0:40:W.wav
475,192,33090,1,0,0:0:0:0:
182,192,33390,1,0,0:0:0:40:W.wav
329,192,33390,128,0,33690:0:0:0:40:C.wav
36,192,33690,1,0,0:0:0:40:W.wav
109,192,33690,1,0,0:0:0:40:Fin.wav
402,192,33990,1,0,0:0:0:40:Hat.wav
475,192,33990,1,0,0:0:0:40:kick.wav
329,192,34140,1,0,0:0:0:40:W.wav
36,192,34290,1,0,0:0:0:40:W.wav
182,192,34290,1,0,0:0:0:0:
329,192,34590,1,0,0:0:0:40:Hat.wav
475,192,34590,1,0,0:0:0:40:kick.wav
109,192,34890,1,0,0:0:0:40:W.wav
402,192,34890,1,0,0:0:0:0:
182,192,35190,1,0,0:0:0:40:Hat.wav
329,192,35190,1,0,0:0:0:40:kick.wav
475,192,35340,1,0,0:0:0:40:W.wav
182,192,35640,1,0,0:0:0:40:W.wav
36,192,35790,1,0,0:0:0:40:Hat.wav
475,192,35790,1,0,0:0:0:40:kick.wav
109,192,36090,1,0,0:0:0:40:W.wav
182,192,36090,1,0,0:0:0:0:
329,192,36390,1,0,0:0:0:40:Hat.wav
402,192,36390,1,0,0:0:0:40:kick.wav
109,192,36540,1,0,0:0:0:40:W.wav
36,192,36690,1,0,0:0:0:40:W.wav
182,192,36690,1,0,0:0:0:0:
329,192,36990,1,0,0:0:0:40:Hat.wav
475,192,36990,1,0,0:0:0:40:kick.wav
256,192,37290,1,0,0:0:0:40:W.wav
402,192,37290,1,0,0:0:0:0:
182,192,37590,1,0,0:0:0:40:Hat.wav
329,192,37590,1,0,0:0:0:40:kick.wav
256,192,38040,1,0,0:0:0:40:W.wav
402,192,38190,1,0,0:0:0:40:Hat.wav
475,192,38190,1,0,0:0:0:40:kick.wav
36,192,38490,1,0,0:0:0:40:Hat.wav
182,192,38490,1,0,0:0:0:40:W.wav
36,192,38790,1,0,0:0:0:40:Hat.wav
329,192,39090,1,0,0:0:0:40:Hat.wav
475,192,39090,1,0,0:0:0:40:W.wav
329,192,39390,1,0,0:0:0:40:Hat.wav
475,192,39390,1,0,0:0:0:40:W.wav
109,192,39690,1,0,0:0:0:40:Hat.wav
256,192,39690,1,0,0:0:0:40:W.wav
109,192,39990,1,0,0:0:0:40:Hat.wav
256,192,40290,1,0,0:0:0:40:Hat.wav
402,192,40290,1,0,0:0:0:40:W.wav
402,192,40590,1,0,0:0:0:40:Hat.wav
36,192,40890,1,0,0:0:0:40:Hat.wav
475,192,40890,1,0,0:0:0:40:W.wav
182,192,41040,1,0,0:0:0:40:Hat.wav
329,192,41190,1,0,0:0:0:40:Hat.wav
475,192,41340,1,0,0:0:0:40:Hat.wav
36,192,41490,1,0,0:0:0:40:Hat.wav
109,192,41490,1,0,0:0:0:40:W.wav
256,192,41640,1,0,0:0:0:40:Hat.wav
402,192,41790,1,0,0:0:0:40:Hat.wav
182,192,41940,1,0,0:0:0:40:Hat.wav
329,192,42090,1,0,0:0:0:40:Hat.wav
475,192,42090,1,0,0:0:0:40:W.wav
256,192,42390,1,0,0:0:0:40:Hat.wav
402,192,42390,1,0,0:0:0:40:W.wav
182,192,42690,1,0,0:0:0:40:Hat.wav
329,192,42690,1,0,0:0:0:40:W.wav
109,192,42990,1,0,0:0:0:40:C.wav
256,192,42990,1,0,0:0:0:0:
329,192,1440,1,0,0:0:0:0:
182,192,1590,1,0,0:0:0:0:
402,192,1890,1,0,0:0:0:0:
256,192,2040,1,0,0:0:0:0:
475,192,2340,1,0,0:0:0:0:
109,192,2640,1,0,0:0:0:0:
329,192,2790,1,0,0:0:0:0:
36,192,3090,1,0,0:0:0:0:
256,192,3240,1,0,0:0:0:0:
109,192,3990,1,0,0:0:0:0:
256,192,4590,1,0,0:0:0:0:
182,192,5190,1,0,0:0:0:0:
402,192,5790,1,0,0:0:0:0:
256,192,6390,1,0,0:0:0:0:
329,192,6990,1,0,0:0:0:0:
182,192,7590,1,0,0:0:0:0:
256,192,34440,1,0,0:0:0:0:
256,192,35490,1,0,0:0:0:0:
256,192,36840,1,0,0:0:0:0:
109,192,37140,1,0,0:0:0:0:
36,192,37890,1,0,0:0:0:0:
109,192,37890,1,0,0:0:0:0:
