osu file format v14

[General]
AudioFilename: audio.mp3
AudioLeadIn: 0
PreviewTime: 28472
Countdown: 0
SampleSet: Normal
StackLeniency: 0.7
Mode: 1
LetterboxInBreaks: 0
WidescreenStoryboard: 0

[Editor]
DistanceSpacing: 1
BeatDivisor: 4
GridSize: 32
TimelineZoom: 2.1

[Metadata]
Title:220 - Kumano
TitleUnicode:220 - Kumano
Artist:saradisk
ArtistUnicode:saradisk
Creator:Jaltzu
Version:Oni
Source:まんが日本昔ばなし
Tags:japanese electronic novelty saradisc 皿 sara remix mashup 音MAD 艦隊これくしょん -艦これ- kankore kancolle kantai collection 熊野 金剛 kongou まるゆ maruyu 球磨 kuma にんげんっていいな ningen tte ii na 山口あかり yamaguchi akari 小林亜星 kobayashi asei 中島義実 nakajima yoshimi manga nihon nippon mukashi banashi 第2期 dai ni ki folklore tales season two second ending theme ed
BeatmapID:2366906
BeatmapSetID:1133288

[Difficulty]
HPDrainRate:5.5
CircleSize:2
OverallDifficulty:5.5
ApproachRate:0
SliderMultiplier:1.4
SliderTickRate:1

[Events]
//Background and Video events
0,0,"kantai-collection.jpg",0,0
//Break Periods
//Storyboard Layer 0 (Background)
//Storyboard Layer 1 (Fail)
//Storyboard Layer 2 (Pass)
//Storyboard Layer 3 (Foreground)
//Storyboard Layer 4 (Overlay)
//Storyboard Sound Samples

[TimingPoints]
1297,300,4,1,0,50,1,0
1297,-125,4,1,0,50,0,0
3659,-111.111111111111,4,1,0,60,0,0
8009,-108.695652173913,4,1,0,60,0,0
8159,-106.382978723404,4,1,0,60,0,0
8309,-103.092783505155,4,1,0,60,0,0
8459,-100,4,1,0,70,0,0
28559,-96.1538461538461,4,1,0,70,0,0
28709,-93.4579439252336,4,1,0,90,0,0
28897,-90.9090909090909,4,1,0,90,0,1
33697,-100,4,1,0,90,0,1
38497,-90.9090909090909,4,1,0,90,0,1
42809,-90.9090909090909,4,1,0,60,0,1
42997,-95.2380952380952,4,1,0,60,0,0
43259,-100,4,1,0,80,0,0
52859,-100,4,1,0,70,0,0
56309,-100,4,1,0,64,0,0
56459,-100,4,1,0,58,0,0
56609,-100,4,1,0,52,0,0
56684,-100,4,1,0,49,0,0
56759,-100,4,1,0,46,0,0
56909,-100,4,1,0,40,0,0
56984,-100,4,1,0,37,0,0
57059,-100,4,1,0,34,0,0
57134,-100,4,1,0,31,0,0
57209,-100,4,1,0,28,0,0
57359,-100,4,1,0,22,0,0
57434,-100,4,1,0,19,0,0
57509,-100,4,1,0,16,0,0
57584,-100,4,1,0,13,0,0
57659,-100,4,1,0,10,0,0

[HitObjects]
256,192,1297,5,4,0:0:0:0:
256,192,1447,1,8,0:0:0:0:
256,192,1597,1,0,0:0:0:0:
256,192,1897,1,8,0:0:0:0:
256,192,2347,1,8,0:0:0:0:
256,192,2647,1,0,0:0:0:0:
256,192,2797,1,0,0:0:0:0:
256,192,3097,1,8,0:0:0:0:
256,192,3247,1,0,0:0:0:0:
256,192,3697,1,0,0:0:0:0:
256,192,3797,1,0,0:0:0:0:
256,192,3897,1,0,0:0:0:0:
256,192,3997,1,8,0:0:0:0:
256,192,4297,1,8,0:0:0:0:
256,192,4397,1,0,0:0:0:0:
256,192,4497,1,0,0:0:0:0:
256,192,4597,1,8,0:0:0:0:
256,192,4897,1,0,0:0:0:0:
256,192,4997,1,0,0:0:0:0:
256,192,5097,1,0,0:0:0:0:
256,192,5197,1,8,0:0:0:0:
256,192,5497,1,8,0:0:0:0:
256,192,5597,1,0,0:0:0:0:
256,192,5697,1,0,0:0:0:0:
256,192,5797,1,8,0:0:0:0:
256,192,6097,1,0,0:0:0:0:
256,192,6197,1,0,0:0:0:0:
256,192,6297,1,0,0:0:0:0:
256,192,6397,1,8,0:0:0:0:
256,192,6697,1,8,0:0:0:0:
256,192,6797,1,0,0:0:0:0:
256,192,6897,1,0,0:0:0:0:
256,192,6997,1,8,0:0:0:0:
256,192,7297,1,0,0:0:0:0:
256,192,7397,1,0,0:0:0:0:
256,192,7497,1,0,0:0:0:0:
256,192,7597,1,8,0:0:0:0:
256,192,7897,1,0,0:0:0:0:
256,192,8047,1,8,0:0:0:0:
256,192,8197,1,8,0:0:0:0:
256,192,8347,1,8,0:0:0:0:
256,192,8497,5,4,0:0:0:0:
256,192,8722,1,0,0:0:0:0:
256,192,8797,1,8,0:0:0:0:
256,192,8947,1,0,0:0:0:0:
256,192,9097,1,0,0:0:0:0:
256,192,9172,1,0,0:0:0:0:
256,192,9247,1,8,0:0:0:0:
256,192,9397,1,0,0:0:0:0:
256,192,9547,1,8,0:0:0:0:
256,192,9697,1,0,0:0:0:0:
256,192,9922,1,0,0:0:0:0:
256,192,9997,1,8,0:0:0:0:
256,192,10147,1,0,0:0:0:0:
256,192,10297,1,0,0:0:0:0:
256,192,10372,1,0,0:0:0:0:
256,192,10447,1,8,0:0:0:0:
256,192,10597,1,0,0:0:0:0:
256,192,10672,1,0,0:0:0:0:
256,192,10747,1,8,0:0:0:0:
256,192,10822,1,8,0:0:0:0:
256,192,10897,1,0,0:0:0:0:
256,192,11122,1,0,0:0:0:0:
256,192,11197,1,8,0:0:0:0:
256,192,11347,1,0,0:0:0:0:
256,192,11497,1,0,0:0:0:0:
256,192,11572,1,0,0:0:0:0:
256,192,11647,1,8,0:0:0:0:
256,192,11797,1,0,0:0:0:0:
256,192,11947,1,0,0:0:0:0:
256,192,12097,1,8,0:0:0:0:
256,192,12397,1,8,0:0:0:0:
256,192,12547,1,0,0:0:0:0:
256,192,12847,1,8,0:0:0:0:
256,192,12997,1,8,0:0:0:0:
256,192,13072,1,8,0:0:0:0:
256,192,13147,1,8,0:0:0:0:
256,192,13222,1,8,0:0:0:0:
256,192,13297,1,0,0:0:0:0:
256,192,13522,1,8,0:0:0:0:
256,192,13597,1,8,0:0:0:0:
256,192,13747,1,0,0:0:0:0:
256,192,13897,1,8,0:0:0:0:
256,192,13972,1,0,0:0:0:0:
256,192,14047,1,8,0:0:0:0:
256,192,14197,1,0,0:0:0:0:
256,192,14347,1,8,0:0:0:0:
256,192,14497,1,0,0:0:0:0:
256,192,14722,1,8,0:0:0:0:
256,192,14797,1,8,0:0:0:0:
256,192,14947,1,0,0:0:0:0:
256,192,15097,1,8,0:0:0:0:
256,192,15172,1,0,0:0:0:0:
256,192,15247,1,8,0:0:0:0:
256,192,15397,1,0,0:0:0:0:
256,192,15472,1,0,0:0:0:0:
256,192,15547,1,0,0:0:0:0:
256,192,15622,1,0,0:0:0:0:
256,192,15697,1,0,0:0:0:0:
256,192,15922,1,0,0:0:0:0:
256,192,15997,1,8,0:0:0:0:
256,192,16147,1,0,0:0:0:0:
256,192,16372,1,8,0:0:0:0:
256,192,16447,1,8,0:0:0:0:
256,192,16597,1,0,0:0:0:0:
256,192,16747,1,0,0:0:0:0:
256,192,16897,1,0,0:0:0:0:
256,192,17122,1,0,0:0:0:0:
256,192,17197,1,8,0:0:0:0:
256,192,17347,1,0,0:0:0:0:
256,192,17647,1,8,0:0:0:0:
256,192,17797,1,0,0:0:0:0:
256,192,17872,1,0,0:0:0:0:
256,192,17947,1,8,0:0:0:0:
256,192,18022,1,8,0:0:0:0:
256,192,18097,1,0,0:0:0:0:
256,192,18322,1,0,0:0:0:0:
256,192,18397,1,8,0:0:0:0:
256,192,18547,1,0,0:0:0:0:
256,192,18697,1,0,0:0:0:0:
256,192,18772,1,0,0:0:0:0:
256,192,18847,1,8,0:0:0:0:
256,192,18997,1,0,0:0:0:0:
256,192,19147,1,0,0:0:0:0:
256,192,19297,1,0,0:0:0:0:
256,192,19597,1,8,0:0:0:0:
256,192,19747,1,8,0:0:0:0:
256,192,19897,1,0,0:0:0:0:
256,192,19972,1,0,0:0:0:0:
256,192,20047,1,0,0:0:0:0:
256,192,20197,1,8,0:0:0:0:
256,192,20347,1,8,0:0:0:0:
256,192,20497,1,0,0:0:0:0:
256,192,20722,1,0,0:0:0:0:
256,192,20947,1,8,0:0:0:0:
256,192,21097,1,0,0:0:0:0:
256,192,21247,1,0,0:0:0:0:
256,192,21322,1,8,0:0:0:0:
256,192,21547,1,8,0:0:0:0:
256,192,21697,1,0,0:0:0:0:
256,192,21922,1,0,0:0:0:0:
256,192,21997,1,8,0:0:0:0:
256,192,22147,1,0,0:0:0:0:
256,192,22372,1,0,0:0:0:0:
256,192,22447,1,8,0:0:0:0:
256,192,22597,1,8,0:0:0:0:
256,192,22672,1,8,0:0:0:0:
256,192,22747,1,8,0:0:0:0:
256,192,22822,1,8,0:0:0:0:
256,192,22897,1,0,0:0:0:0:
256,192,23197,1,8,0:0:0:0:
256,192,23347,1,8,0:0:0:0:
256,192,23497,1,0,0:0:0:0:
256,192,23797,1,8,0:0:0:0:
256,192,24097,1,0,0:0:0:0:
256,192,24197,1,8,0:0:0:0:
256,192,24297,1,8,0:0:0:0:
256,192,24397,1,0,0:0:0:0:
256,192,24547,1,0,0:0:0:0:
256,192,24697,1,8,0:0:0:0:
256,192,24997,1,8,0:0:0:0:
256,192,25147,1,8,0:0:0:0:
256,192,25297,1,0,0:0:0:0:
256,192,25397,1,8,0:0:0:0:
256,192,25497,1,0,0:0:0:0:
256,192,25597,1,0,0:0:0:0:
256,192,25747,1,0,0:0:0:0:
256,192,25897,1,8,0:0:0:0:
256,192,26197,1,8,0:0:0:0:
256,192,26347,1,8,0:0:0:0:
256,192,26497,1,4,0:0:0:0:
256,192,26797,1,8,0:0:0:0:
256,192,26947,1,8,0:0:0:0:
256,192,27097,1,4,0:0:0:0:
256,192,27397,1,8,0:0:0:0:
256,192,27547,1,8,0:0:0:0:
256,192,27697,1,4,0:0:0:0:
256,192,27897,1,8,0:0:0:0:
256,192,27997,1,4,0:0:0:0:
256,192,28197,1,8,0:0:0:0:
256,192,28297,1,4,0:0:0:0:
256,192,28597,1,12,0:0:0:0:
256,192,28897,5,4,0:0:0:0:
256,192,29047,1,0,0:0:0:0:
256,192,29197,1,8,0:0:0:0:
256,192,29347,1,0,0:0:0:0:
256,192,29497,1,0,0:0:0:0:
256,192,29647,1,8,0:0:0:0:
256,192,29797,1,0,0:0:0:0:
256,192,29947,1,8,0:0:0:0:
256,192,30097,1,0,0:0:0:0:
256,192,30172,1,0,0:0:0:0:
256,192,30247,1,0,0:0:0:0:
256,192,30397,1,0,0:0:0:0:
256,192,30547,1,8,0:0:0:0:
256,192,30697,1,0,0:0:0:0:
256,192,30772,1,0,0:0:0:0:
256,192,30847,1,8,0:0:0:0:
256,192,30922,1,0,0:0:0:0:
256,192,30997,1,8,0:0:0:0:
256,192,31147,1,0,0:0:0:0:
256,192,31297,1,8,0:0:0:0:
256,192,31597,1,0,0:0:0:0:
256,192,31747,1,8,0:0:0:0:
256,192,31897,1,8,0:0:0:0:
256,192,31972,1,8,0:0:0:0:
256,192,32047,1,8,0:0:0:0:
256,192,32197,1,0,0:0:0:0:
256,192,32347,1,8,0:0:0:0:
256,192,32422,1,8,0:0:0:0:
256,192,32497,1,0,0:0:0:0:
256,192,32572,1,0,0:0:0:0:
256,192,32647,1,8,0:0:0:0:
256,192,32797,1,0,0:0:0:0:
256,192,32947,1,8,0:0:0:0:
256,192,33097,1,0,0:0:0:0:
256,192,33247,1,0,0:0:0:0:
256,192,33397,1,12,0:0:0:0:
256,192,33697,1,4,0:0:0:0:
256,192,33997,1,8,0:0:0:0:
256,192,34147,1,0,0:0:0:0:
256,192,34297,1,0,0:0:0:0:
256,192,34372,1,0,0:0:0:0:
256,192,34447,1,8,0:0:0:0:
256,192,34597,1,8,0:0:0:0:
256,192,34747,1,0,0:0:0:0:
256,192,34822,1,0,0:0:0:0:
256,192,34897,1,0,0:0:0:0:
256,192,35047,1,0,0:0:0:0:
256,192,35197,1,8,0:0:0:0:
256,192,35347,1,8,0:0:0:0:
256,192,35497,1,0,0:0:0:0:
256,192,35572,1,8,0:0:0:0:
256,192,35647,1,0,0:0:0:0:
256,192,35797,1,8,0:0:0:0:
256,192,36097,1,0,0:0:0:0:
256,192,36247,1,0,0:0:0:0:
256,192,36397,1,8,0:0:0:0:
256,192,36547,1,0,0:0:0:0:
256,192,36697,1,0,0:0:0:0:
256,192,36772,1,8,0:0:0:0:
256,192,36847,1,0,0:0:0:0:
256,192,36997,1,8,0:0:0:0:
256,192,37147,1,8,0:0:0:0:
256,192,37297,1,0,0:0:0:0:
256,192,37372,1,0,0:0:0:0:
256,192,37447,1,0,0:0:0:0:
256,192,37597,1,8,0:0:0:0:
256,192,37672,1,0,0:0:0:0:
256,192,37747,1,8,0:0:0:0:
256,192,37897,1,8,0:0:0:0:
256,192,38047,1,0,0:0:0:0:
256,192,38197,1,8,0:0:0:0:
256,192,38497,1,4,0:0:0:0:
256,192,38647,1,8,0:0:0:0:
256,192,38797,1,0,0:0:0:0:
256,192,38872,1,0,0:0:0:0:
256,192,38947,1,8,0:0:0:0:
256,192,39097,1,0,0:0:0:0:
256,192,39172,1,0,0:0:0:0:
256,192,39247,1,8,0:0:0:0:
256,192,39322,1,0,0:0:0:0:
256,192,39397,1,8,0:0:0:0:
256,192,39547,1,8,0:0:0:0:
256,192,39622,1,8,0:0:0:0:
256,192,39697,1,0,0:0:0:0:
256,192,39847,1,8,0:0:0:0:
256,192,39997,1,0,0:0:0:0:
256,192,40147,1,8,0:0:0:0:
256,192,40222,1,0,0:0:0:0:
256,192,40297,1,8,0:0:0:0:
256,192,40372,1,8,0:0:0:0:
256,192,40447,1,0,0:0:0:0:
256,192,40597,1,8,0:0:0:0:
256,192,40897,1,8,0:0:0:0:
256,192,40972,1,0,0:0:0:0:
256,192,41047,1,0,0:0:0:0:
256,192,41197,1,8,0:0:0:0:
256,192,41272,1,8,0:0:0:0:
256,192,41347,1,0,0:0:0:0:
256,192,41497,1,8,0:0:0:0:
256,192,41572,1,8,0:0:0:0:
256,192,41647,1,0,0:0:0:0:
256,192,41722,1,8,0:0:0:0:
256,192,41797,1,0,0:0:0:0:
256,192,41947,1,8,0:0:0:0:
256,192,42097,1,0,0:0:0:0:
256,192,42172,1,0,0:0:0:0:
256,192,42247,1,8,0:0:0:0:
256,192,42397,1,0,0:0:0:0:
256,192,42472,1,0,0:0:0:0:
256,192,42547,1,8,0:0:0:0:
256,192,42697,1,8,0:0:0:0:
256,192,42772,1,8,0:0:0:0:
256,192,42847,1,0,0:0:0:0:
256,192,42997,1,8,0:0:0:0:
256,192,43297,5,4,0:0:0:0:
256,192,43447,1,0,0:0:0:0:
256,192,43597,1,8,0:0:0:0:
256,192,43747,1,0,0:0:0:0:
256,192,43897,1,0,0:0:0:0:
256,192,43972,1,8,0:0:0:0:
256,192,44047,1,0,0:0:0:0:
256,192,44197,1,8,0:0:0:0:
256,192,44347,1,0,0:0:0:0:
256,192,44497,1,0,0:0:0:0:
256,192,44647,1,8,0:0:0:0:
256,192,44722,1,8,0:0:0:0:
256,192,44797,1,0,0:0:0:0:
256,192,44947,1,8,0:0:0:0:
256,192,45097,1,0,0:0:0:0:
256,192,45247,1,8,0:0:0:0:
256,192,45322,1,0,0:0:0:0:
256,192,45397,1,8,0:0:0:0:
256,192,45697,1,0,0:0:0:0:
256,192,45847,1,0,0:0:0:0:
256,192,45997,1,8,0:0:0:0:
256,192,46147,1,0,0:0:0:0:
256,192,46297,1,0,0:0:0:0:
256,192,46372,1,0,0:0:0:0:
256,192,46447,1,8,0:0:0:0:
256,192,46597,1,0,0:0:0:0:
256,192,46672,1,0,0:0:0:0:
256,192,46747,1,8,0:0:0:0:
256,192,46897,1,0,0:0:0:0:
256,192,47197,1,8,0:0:0:0:
256,192,47347,1,0,0:0:0:0:
256,192,47497,1,8,0:0:0:0:
256,192,47647,1,0,0:0:0:0:
256,192,47797,1,8,0:0:0:0:
256,192,47872,1,0,0:0:0:0:
256,192,47947,1,8,0:0:0:0:
256,192,48097,1,0,0:0:0:0:
256,192,48247,1,0,0:0:0:0:
256,192,48397,1,8,0:0:0:0:
256,192,48547,1,0,0:0:0:0:
256,192,48697,1,0,0:0:0:0:
256,192,48772,1,8,0:0:0:0:
256,192,48847,1,0,0:0:0:0:
256,192,48997,1,8,0:0:0:0:
256,192,49147,1,8,0:0:0:0:
256,192,49297,1,0,0:0:0:0:
256,192,49597,1,8,0:0:0:0:
256,192,49747,1,0,0:0:0:0:
256,192,49897,1,8,0:0:0:0:
256,192,50047,1,8,0:0:0:0:
256,192,50197,1,0,0:0:0:0:
256,192,50347,1,8,0:0:0:0:
256,192,50497,1,0,0:0:0:0:
256,192,50797,1,0,0:0:0:0:
256,192,50947,1,8,0:0:0:0:
256,192,51097,1,8,0:0:0:0:
256,192,51397,1,0,0:0:0:0:
256,192,51547,1,8,0:0:0:0:
256,192,51697,1,4,0:0:0:0:
256,192,51997,1,0,0:0:0:0:
256,192,52147,1,8,0:0:0:0:
256,192,52297,1,0,0:0:0:0:
256,192,52372,1,8,0:0:0:0:
256,192,52447,1,8,0:0:0:0:
256,192,52597,1,0,0:0:0:0:
256,192,52672,1,0,0:0:0:0:
256,192,52747,1,8,0:0:0:0:
256,192,52897,1,12,0:0:0:0:
256,192,53122,1,0,0:0:0:0:
256,192,53197,1,8,0:0:0:0:
256,192,53347,1,0,0:0:0:0:
256,192,53497,1,0,0:0:0:0:
256,192,53572,1,0,0:0:0:0:
256,192,53647,1,8,0:0:0:0:
256,192,53797,1,0,0:0:0:0:
256,192,53947,1,8,0:0:0:0:
256,192,54097,1,0,0:0:0:0:
256,192,54322,1,0,0:0:0:0:
256,192,54397,1,8,0:0:0:0:
256,192,54547,1,0,0:0:0:0:
256,192,54697,1,0,0:0:0:0:
256,192,54772,1,0,0:0:0:0:
256,192,54847,1,8,0:0:0:0:
256,192,54997,1,0,0:0:0:0:
256,192,55072,1,0,0:0:0:0:
256,192,55147,1,8,0:0:0:0:
256,192,55222,1,8,0:0:0:0:
256,192,55297,1,0,0:0:0:0:
256,192,55597,1,8,0:0:0:0:
256,192,55747,1,0,0:0:0:0:
256,192,55897,1,0,0:0:0:0:
256,192,55972,1,0,0:0:0:0:
256,192,56047,1,8,0:0:0:0:
256,192,56197,1,0,0:0:0:0:
256,192,56497,1,0,0:0:0:0:
256,192,56647,1,8,0:0:0:0:
256,192,56722,1,0,0:0:0:0:
256,192,56797,1,8,0:0:0:0:
256,192,56947,1,8,0:0:0:0:
256,192,57097,1,0,0:0:0:0:
256,192,57172,1,0,0:0:0:0:
256,192,57247,1,8,0:0:0:0:
256,192,57397,1,0,0:0:0:0:
256,192,57472,1,8,0:0:0:0:
256,192,57547,1,0,0:0:0:0:
256,192,57697,1,12,0:0:0:0:
