osu file format v14

[General]
AudioFilename: audio.mp3
AudioLeadIn: 0
PreviewTime: 1277
Countdown: 0
SampleSet: Normal
StackLeniency: 0.7
Mode: 1
LetterboxInBreaks: 0
WidescreenStoryboard: 0

[Editor]
Bookmarks: 3677,8477,12077,13277,24077,28877,30977,33677,38477,42977
DistanceSpacing: 1
BeatDivisor: 4
GridSize: 16
TimelineZoom: 1.8

[Metadata]
Title:220 - Kumano
TitleUnicode:220 - Kumano
Artist:saradisk
ArtistUnicode:saradisk
Creator:Etsu
Version:Muzukashii
Source:艦隊これくしょん -艦これ-
Tags:kancolle kantai collection
BeatmapID:1439677
BeatmapSetID:680923

[Difficulty]
HPDrainRate:7.5
CircleSize:2
OverallDifficulty:4
ApproachRate:10
SliderMultiplier:1.4
SliderTickRate:1

[Events]
//Background and Video events
0,0,"BG_0.jpg",0,100
//Break Periods
//Storyboard Layer 0 (Background)
//Storyboard Layer 1 (Fail)
//Storyboard Layer 2 (Pass)
//Storyboard Layer 3 (Foreground)
//Storyboard Layer 4 (Overlay)
//Storyboard Sound Samples

[TimingPoints]
1277,300,4,1,0,60,1,0
8477,-100,4,1,0,70,0,0
28877,-100,4,1,0,80,0,1
33677,-100,4,1,0,75,0,0
38477,-100,4,1,0,85,0,1
42977,-100,4,1,0,75,0,0

[HitObjects]
256,192,1277,5,4,0:0:0:0:
256,192,1877,1,0,0:0:0:0:
256,192,2327,1,8,0:0:0:0:
256,192,2627,1,8,0:0:0:0:
256,192,2777,1,8,0:0:0:0:
256,192,3077,1,0,0:0:0:0:
256,192,3227,1,0,0:0:0:0:
256,192,3677,8,0,7127,0:0:0:0:
256,192,8477,5,4,0:0:0:0:
256,192,8777,1,8,0:0:0:0:
256,192,8927,1,0,0:0:0:0:
256,192,9227,1,8,0:0:0:0:
256,192,9377,1,0,0:0:0:0:
256,192,9527,1,0,0:0:0:0:
256,192,9677,1,0,0:0:0:0:
256,192,9977,1,8,0:0:0:0:
256,192,10127,1,0,0:0:0:0:
256,192,10577,1,8,0:0:0:0:
256,192,10877,1,0,0:0:0:0:
256,192,11177,1,8,0:0:0:0:
256,192,11327,1,0,0:0:0:0:
256,192,11627,1,8,0:0:0:0:
256,192,11777,1,0,0:0:0:0:
240,192,11927,1,0,0:0:0:0:
240,192,12077,1,0,0:0:0:0:
240,192,12527,1,0,0:0:0:0:
240,192,12977,1,8,0:0:0:0:
240,192,13277,1,0,0:0:0:0:
240,192,13577,1,8,0:0:0:0:
240,192,13727,1,0,0:0:0:0:
240,192,14027,1,8,0:0:0:0:
240,192,14177,1,0,0:0:0:0:
240,192,14327,1,8,0:0:0:0:
240,192,14477,1,0,0:0:0:0:
240,192,14777,1,0,0:0:0:0:
240,192,15077,1,8,0:0:0:0:
256,192,15377,1,0,0:0:0:0:
240,192,15677,1,0,0:0:0:0:
240,192,15977,1,8,0:0:0:0:
240,192,16127,1,0,0:0:0:0:
240,192,16427,1,8,0:0:0:0:
240,192,16577,1,0,0:0:0:0:
240,192,16727,1,0,0:0:0:0:
240,192,16877,1,0,0:0:0:0:
240,192,17177,1,8,0:0:0:0:
240,192,17327,1,0,0:0:0:0:
240,192,17777,1,8,0:0:0:0:
240,192,18077,1,0,0:0:0:0:
240,192,18377,1,8,0:0:0:0:
240,208,18527,1,0,0:0:0:0:
240,192,18827,1,8,0:0:0:0:
240,208,18977,1,0,0:0:0:0:
240,208,19127,1,0,0:0:0:0:
240,208,19277,1,0,0:0:0:0:
240,192,19577,1,8,0:0:0:0:
240,208,19877,1,0,0:0:0:0:
240,208,20177,1,8,0:0:0:0:
240,208,20477,1,0,0:0:0:0:
240,208,20702,1,0,0:0:0:0:
240,208,20927,1,8,0:0:0:0:
256,192,21077,1,0,0:0:0:0:
240,208,21302,1,8,0:0:0:0:
240,208,21677,1,0,0:0:0:0:
240,192,21977,1,8,0:0:0:0:
240,208,22127,1,0,0:0:0:0:
240,192,22577,1,8,0:0:0:0:
240,192,22877,1,0,0:0:0:0:
240,192,23177,1,8,0:0:0:0:
240,224,23327,1,8,0:0:0:0:
240,208,23477,1,0,0:0:0:0:
240,208,23777,1,8,0:0:0:0:
256,192,24077,1,4,0:0:0:0:
240,208,24677,1,8,0:0:0:0:
240,208,24977,1,0,0:0:0:0:
256,192,25277,1,4,0:0:0:0:
240,208,25877,1,8,0:0:0:0:
240,208,26177,1,0,0:0:0:0:
256,192,26477,1,4,0:0:0:0:
256,192,26777,1,8,0:0:0:0:
256,192,27077,1,4,0:0:0:0:
256,192,27377,1,8,0:0:0:0:
256,192,27677,1,4,0:0:0:0:
256,192,27977,1,4,0:0:0:0:
256,192,28277,1,4,0:0:0:0:
256,192,28577,1,8,0:0:0:0:
256,192,28877,1,4,0:0:0:0:
256,192,29177,1,8,0:0:0:0:
256,192,29477,1,0,0:0:0:0:
256,192,29627,1,0,0:0:0:0:
256,192,29777,1,8,0:0:0:0:
256,192,29927,1,8,0:0:0:0:
256,192,30077,1,0,0:0:0:0:
256,192,30152,1,0,0:0:0:0:
256,192,30227,1,0,0:0:0:0:
256,192,30377,1,0,0:0:0:0:
256,192,30677,1,0,0:0:0:0:
256,192,30827,1,0,0:0:0:0:
256,192,30977,1,8,0:0:0:0:
256,192,31277,1,0,0:0:0:0:
256,192,31877,1,8,0:0:0:0:
256,192,32177,1,8,0:0:0:0:
256,208,32327,1,0,0:0:0:0:
256,192,32477,1,8,0:0:0:0:
256,192,32552,1,8,0:0:0:0:
256,192,32627,1,8,0:0:0:0:
256,192,32777,1,0,0:0:0:0:
256,192,32927,1,8,0:0:0:0:
256,192,33077,1,0,0:0:0:0:
256,192,33377,1,8,0:0:0:0:
256,192,33677,1,4,0:0:0:0:
256,192,33977,1,8,0:0:0:0:
256,192,34427,1,0,0:0:0:0:
256,192,34577,1,8,0:0:0:0:
256,192,34877,1,0,0:0:0:0:
256,192,35177,1,8,0:0:0:0:
256,192,35477,1,0,0:0:0:0:
256,192,35627,1,0,0:0:0:0:
256,192,35777,1,8,0:0:0:0:
256,192,36077,1,0,0:0:0:0:
256,192,36377,1,8,0:0:0:0:
256,192,36527,1,0,0:0:0:0:
240,192,36827,1,0,0:0:0:0:
240,192,36977,1,8,0:0:0:0:
256,192,37127,1,0,0:0:0:0:
256,192,37277,1,8,0:0:0:0:
256,192,37577,1,0,0:0:0:0:
256,208,37877,1,8,0:0:0:0:
256,192,38477,1,4,0:0:0:0:
256,192,38777,1,8,0:0:0:0:
256,192,39077,1,0,0:0:0:0:
256,192,39227,1,8,0:0:0:0:
256,192,39377,1,0,0:0:0:0:
256,176,39527,1,8,0:0:0:0:
256,192,39602,1,8,0:0:0:0:
256,192,39677,1,8,0:0:0:0:
256,192,39827,1,0,0:0:0:0:
256,192,39977,1,8,0:0:0:0:
160,192,40277,1,8,0:0:0:0:
256,192,40427,1,0,0:0:0:0:
256,192,40577,1,8,0:0:0:0:
256,192,40877,1,0,0:0:0:0:
256,192,41177,1,8,0:0:0:0:
256,192,41477,1,0,0:0:0:0:
256,192,41627,1,8,0:0:0:0:
256,192,41777,1,0,0:0:0:0:
256,192,42077,1,0,0:0:0:0:
256,192,42227,1,0,0:0:0:0:
256,192,42377,1,8,0:0:0:0:
256,192,42452,1,8,0:0:0:0:
256,192,42527,1,8,0:0:0:0:
256,192,42677,1,0,0:0:0:0:
256,192,42977,1,8,0:0:0:0:
