osu file format v14

[General]
AudioFilename: audio.mp3
AudioLeadIn: 0
PreviewTime: 1277
Countdown: 0
SampleSet: Normal
StackLeniency: 0.7
Mode: 1
LetterboxInBreaks: 0
WidescreenStoryboard: 0

[Editor]
DistanceSpacing: 0.8
BeatDivisor: 2
GridSize: 32
TimelineZoom: 1.8

[Metadata]
Title:220 - Kumano
TitleUnicode:220 - Kumano
Artist:saradisk
ArtistUnicode:saradisk
Creator:Etsu
Version:Kantan
Source:艦隊これくしょん -艦これ-
Tags:kancolle kantai collection
BeatmapID:1439676
BeatmapSetID:680923

[Difficulty]
HPDrainRate:8.5
CircleSize:2
OverallDifficulty:2
ApproachRate:10
SliderMultiplier:1.4
SliderTickRate:1

[Events]
//Background and Video events
0,0,"BG_0.jpg",0,100
//Break Periods
//Storyboard Layer 0 (Background)
//Storyboard Layer 1 (Fail)
//Storyboard Layer 2 (Pass)
//Storyboard Layer 3 (Foreground)
//Storyboard Layer 4 (Overlay)
//Storyboard Sound Samples

[TimingPoints]
1277,300,4,1,0,60,1,0
8477,-100,4,1,0,70,0,0
28877,-100,4,1,0,80,0,1
33677,-100,4,1,0,75,0,0
38477,-100,4,1,0,85,0,1
42977,-100,4,1,0,70,0,0

[HitObjects]
256,192,1277,5,4,0:0:0:0:
256,192,1877,1,0,0:0:0:0:
256,192,2327,1,8,0:0:0:0:
256,192,3077,1,0,0:0:0:0:
256,192,3677,12,0,7127,0:0:0:0:
256,192,8477,5,4,0:0:0:0:
256,192,8927,1,0,0:0:0:0:
256,192,9677,1,0,0:0:0:0:
256,192,10127,1,0,0:0:0:0:
256,192,10877,1,0,0:0:0:0:
256,192,11327,1,0,0:0:0:0:
256,192,12077,1,8,0:0:0:0:
256,192,13277,1,0,0:0:0:0:
224,192,13727,1,0,0:0:0:0:
256,192,14477,1,0,0:0:0:0:
256,192,14777,1,0,0:0:0:0:
256,192,15077,1,8,0:0:0:0:
256,192,15677,1,0,0:0:0:0:
256,192,16127,1,0,0:0:0:0:
256,192,16877,1,8,0:0:0:0:
256,192,18077,1,0,0:0:0:0:
256,192,18527,1,0,0:0:0:0:
256,192,19277,1,0,0:0:0:0:
256,192,19877,1,8,0:0:0:0:
256,192,20477,1,0,0:0:0:0:
256,192,21077,1,8,0:0:0:0:
256,192,21677,1,0,0:0:0:0:
256,192,22877,1,0,0:0:0:0:
256,192,23477,1,8,0:0:0:0:
256,192,24077,1,4,0:0:0:0:
256,192,25277,1,4,0:0:0:0:
256,192,26477,1,4,0:0:0:0:
256,192,27077,1,4,0:0:0:0:
256,192,27677,1,4,0:0:0:0:
256,192,27977,1,4,0:0:0:0:
256,192,28277,1,4,0:0:0:0:
256,192,28877,1,12,0:0:0:0:
256,192,29477,1,0,0:0:0:0:
256,192,30077,1,0,0:0:0:0:
256,192,30377,1,0,0:0:0:0:
256,192,30677,1,8,0:0:0:0:
256,192,31277,1,0,0:0:0:0:
256,192,31877,1,8,0:0:0:0:
256,192,32477,1,0,0:0:0:0:
256,192,33077,1,0,0:0:0:0:
256,192,33377,1,8,0:0:0:0:
256,192,33677,1,4,0:0:0:0:
256,192,34877,1,0,0:0:0:0:
256,192,36077,1,0,0:0:0:0:
256,192,37277,1,0,0:0:0:0:
256,192,37577,1,8,0:0:0:0:
256,192,37877,1,0,0:0:0:0:
256,192,38477,1,4,0:0:0:0:
256,192,39077,1,0,0:0:0:0:
256,192,39377,1,0,0:0:0:0:
256,192,39677,1,0,0:0:0:0:
256,192,40277,1,8,0:0:0:0:
256,192,40877,1,0,0:0:0:0:
256,192,41177,1,8,0:0:0:0:
256,192,41477,1,8,0:0:0:0:
256,192,42077,1,0,0:0:0:0:
256,192,42677,1,0,0:0:0:0:
256,192,42977,1,8,0:0:0:0:
