osu file format v14

[General]
AudioFilename: audio.mp3
AudioLeadIn: 0
PreviewTime: 1277
Countdown: 0
SampleSet: Normal
StackLeniency: 0.7
Mode: 1
LetterboxInBreaks: 0
WidescreenStoryboard: 0

[Editor]
Bookmarks: 3677,8477,12077,13277,24077,28877,33677,38477,42977
DistanceSpacing: 1
BeatDivisor: 4
GridSize: 32
TimelineZoom: 1.8

[Metadata]
Title:220 - Kumano
TitleUnicode:220 - Kumano
Artist:saradisk
ArtistUnicode:saradisk
Creator:Etsu
Version:Inner Oni
Source:艦隊これくしょん -艦これ-
Tags:kancolle kantai collection
BeatmapID:2235735
BeatmapSetID:680923

[Difficulty]
HPDrainRate:6.5
CircleSize:2
OverallDifficulty:6
ApproachRate:10
SliderMultiplier:1.4
SliderTickRate:1

[Events]
//Background and Video events
0,0,"BG_0.jpg",0,100
//Break Periods
//Storyboard Layer 0 (Background)
//Storyboard Layer 1 (Fail)
//Storyboard Layer 2 (Pass)
//Storyboard Layer 3 (Foreground)
//Storyboard Layer 4 (Overlay)
//Storyboard Sound Samples

[TimingPoints]
1277,300,4,1,0,60,1,0
8477,-100,4,1,0,70,0,0
28877,-100,4,1,0,80,0,1
33677,-100,4,1,0,75,0,0
38477,-95.2380952380952,4,1,0,85,0,1
42977,-100,4,1,0,75,0,0

[HitObjects]
256,192,1277,5,4,0:0:0:0:
256,192,1427,1,8,0:0:0:0:
256,192,1577,1,8,0:0:0:0:
256,192,1877,1,8,0:0:0:0:
256,192,2027,1,0,0:0:0:0:
256,192,2327,1,8,0:0:0:0:
256,192,2627,1,8,0:0:0:0:
256,192,2777,1,8,0:0:0:0:
256,192,3077,1,8,0:0:0:0:
256,192,3227,1,0,0:0:0:0:
256,192,3677,8,0,7127,0:0:0:0:
256,192,8027,5,8,0:0:0:0:
224,192,8177,1,8,0:0:0:0:
240,192,8327,1,8,0:0:0:0:
256,192,8477,5,4,0:0:0:0:
256,192,8702,1,0,0:0:0:0:
256,192,8777,1,8,0:0:0:0:
256,192,8927,1,0,0:0:0:0:
256,192,9077,1,0,0:0:0:0:
288,192,9152,1,0,0:0:0:0:
256,192,9227,1,8,0:0:0:0:
256,192,9377,1,0,0:0:0:0:
256,192,9527,1,8,0:0:0:0:
256,192,9677,1,0,0:0:0:0:
256,192,9827,1,0,0:0:0:0:
256,192,9902,1,8,0:0:0:0:
256,192,9977,1,8,0:0:0:0:
256,192,10127,1,0,0:0:0:0:
256,192,10277,1,0,0:0:0:0:
288,192,10352,1,0,0:0:0:0:
256,192,10427,1,8,0:0:0:0:
256,192,10577,1,0,0:0:0:0:
256,192,10652,1,0,0:0:0:0:
256,192,10727,1,0,0:0:0:0:
256,192,10802,1,0,0:0:0:0:
256,192,10877,1,0,0:0:0:0:
256,192,11102,1,0,0:0:0:0:
256,192,11177,1,8,0:0:0:0:
256,192,11327,1,0,0:0:0:0:
256,192,11477,1,0,0:0:0:0:
256,192,11552,1,0,0:0:0:0:
256,192,11627,1,8,0:0:0:0:
240,192,11777,1,0,0:0:0:0:
240,192,11927,1,0,0:0:0:0:
240,192,12077,1,8,0:0:0:0:
256,192,12227,1,0,0:0:0:0:
256,192,12302,1,8,0:0:0:0:
240,192,12377,1,8,0:0:0:0:
240,192,12527,1,0,0:0:0:0:
256,192,12677,1,0,0:0:0:0:
256,192,12752,1,0,0:0:0:0:
240,192,12827,1,8,0:0:0:0:
240,192,12977,1,0,0:0:0:0:
240,192,13052,1,0,0:0:0:0:
240,192,13127,1,0,0:0:0:0:
256,192,13202,1,0,0:0:0:0:
240,192,13277,1,0,0:0:0:0:
256,192,13502,1,0,0:0:0:0:
240,192,13577,1,8,0:0:0:0:
240,192,13727,1,0,0:0:0:0:
256,192,13877,1,0,0:0:0:0:
256,192,13952,1,8,0:0:0:0:
240,192,14027,1,8,0:0:0:0:
240,192,14177,1,0,0:0:0:0:
240,192,14327,1,8,0:0:0:0:
240,192,14477,1,0,0:0:0:0:
256,192,14627,1,8,0:0:0:0:
256,192,14702,1,0,0:0:0:0:
240,192,14777,1,8,0:0:0:0:
240,192,14927,1,0,0:0:0:0:
240,192,15077,1,0,0:0:0:0:
256,192,15152,1,0,0:0:0:0:
256,192,15227,1,8,0:0:0:0:
240,192,15377,1,0,0:0:0:0:
240,192,15452,1,0,0:0:0:0:
240,192,15527,1,0,0:0:0:0:
256,192,15602,1,0,0:0:0:0:
240,192,15677,1,0,0:0:0:0:
256,192,15902,1,0,0:0:0:0:
240,192,15977,1,8,0:0:0:0:
240,192,16127,1,0,0:0:0:0:
240,192,16277,1,0,0:0:0:0:
256,192,16352,1,8,0:0:0:0:
240,192,16427,1,8,0:0:0:0:
160,192,16502,1,8,0:0:0:0:
64,256,16577,1,0,0:0:0:0:
240,192,16727,1,0,0:0:0:0:
240,192,16877,1,0,0:0:0:0:
256,192,17027,1,0,0:0:0:0:
256,192,17102,1,8,0:0:0:0:
240,192,17177,1,8,0:0:0:0:
240,192,17327,1,0,0:0:0:0:
256,192,17477,1,8,0:0:0:0:
256,192,17552,1,8,0:0:0:0:
240,192,17627,1,8,0:0:0:0:
240,192,17777,1,0,0:0:0:0:
240,192,17852,1,0,0:0:0:0:
240,192,17927,1,8,0:0:0:0:
256,192,18002,1,8,0:0:0:0:
240,192,18077,1,0,0:0:0:0:
256,192,18302,1,0,0:0:0:0:
240,192,18377,1,8,0:0:0:0:
240,208,18527,1,0,0:0:0:0:
256,192,18677,1,0,0:0:0:0:
256,192,18752,1,0,0:0:0:0:
240,192,18827,1,8,0:0:0:0:
240,208,18977,1,0,0:0:0:0:
240,208,19127,1,0,0:0:0:0:
240,208,19277,1,0,0:0:0:0:
240,192,19577,1,8,0:0:0:0:
224,160,19727,1,0,0:0:0:0:
240,208,19877,1,8,0:0:0:0:
256,192,19952,1,0,0:0:0:0:
240,208,20027,1,8,0:0:0:0:
240,208,20177,1,0,0:0:0:0:
256,192,20327,1,8,0:0:0:0:
240,208,20477,1,0,0:0:0:0:
240,208,20702,1,8,0:0:0:0:
240,192,20927,1,8,0:0:0:0:
240,208,21077,1,0,0:0:0:0:
224,192,21227,1,0,0:0:0:0:
240,208,21302,1,8,0:0:0:0:
256,192,21377,1,0,0:0:0:0:
240,208,21527,1,8,0:0:0:0:
240,208,21677,1,0,0:0:0:0:
256,192,21827,1,0,0:0:0:0:
256,192,21902,1,8,0:0:0:0:
240,192,21977,1,8,0:0:0:0:
240,208,22127,1,0,0:0:0:0:
256,192,22277,1,0,0:0:0:0:
256,192,22352,1,0,0:0:0:0:
240,192,22427,1,8,0:0:0:0:
256,192,22577,1,8,0:0:0:0:
240,208,22652,1,8,0:0:0:0:
240,208,22727,1,8,0:0:0:0:
256,192,22802,1,8,0:0:0:0:
240,192,22877,1,0,0:0:0:0:
240,192,23177,1,8,0:0:0:0:
240,192,23327,1,8,0:0:0:0:
240,208,23477,1,0,0:0:0:0:
240,208,23627,1,0,0:0:0:0:
240,208,23777,1,8,0:0:0:0:
256,192,24077,1,4,0:0:0:0:
256,192,24302,1,0,0:0:0:0:
256,208,24377,1,8,0:0:0:0:
256,208,24527,1,0,0:0:0:0:
240,208,24677,1,8,0:0:0:0:
240,208,24977,1,0,0:0:0:0:
256,192,25127,1,8,0:0:0:0:
256,192,25277,1,4,0:0:0:0:
256,192,25502,1,0,0:0:0:0:
240,208,25577,1,8,0:0:0:0:
240,208,25727,1,0,0:0:0:0:
240,208,25877,1,8,0:0:0:0:
240,208,26177,1,0,0:0:0:0:
256,192,26327,1,8,0:0:0:0:
256,192,26477,1,4,0:0:0:0:
256,192,26702,1,0,0:0:0:0:
256,192,26777,1,8,0:0:0:0:
256,192,26927,1,8,0:0:0:0:
256,192,27077,1,4,0:0:0:0:
256,192,27302,1,0,0:0:0:0:
256,192,27377,1,8,0:0:0:0:
256,192,27527,1,8,0:0:0:0:
256,192,27677,1,4,0:0:0:0:
256,192,27977,1,4,0:0:0:0:
256,192,28277,1,4,0:0:0:0:
256,192,28577,1,8,0:0:0:0:
256,192,28877,1,4,0:0:0:0:
256,192,29177,1,8,0:0:0:0:
256,192,29327,1,0,0:0:0:0:
256,192,29477,1,8,0:0:0:0:
256,192,29627,1,0,0:0:0:0:
256,192,29702,1,0,0:0:0:0:
256,192,29777,1,8,0:0:0:0:
256,192,29927,1,0,0:0:0:0:
256,192,30077,1,8,0:0:0:0:
256,192,30152,1,0,0:0:0:0:
256,192,30227,1,8,0:0:0:0:
256,192,30377,1,0,0:0:0:0:
256,192,30452,1,0,0:0:0:0:
256,192,30527,1,8,0:0:0:0:
256,192,30602,1,8,0:0:0:0:
256,192,30677,1,0,0:0:0:0:
256,192,30827,1,8,0:0:0:0:
256,192,30902,1,0,0:0:0:0:
256,192,30977,1,8,0:0:0:0:
256,192,31127,1,8,0:0:0:0:
256,192,31277,1,0,0:0:0:0:
256,192,31427,1,8,0:0:0:0:
256,192,31577,1,0,0:0:0:0:
240,192,31727,1,8,0:0:0:0:
256,192,31877,1,0,0:0:0:0:
256,192,31952,1,0,0:0:0:0:
256,192,32027,1,8,0:0:0:0:
256,192,32177,1,0,0:0:0:0:
96,192,32327,1,8,0:0:0:0:
256,192,32402,1,0,0:0:0:0:
288,192,32477,1,8,0:0:0:0:
256,192,32552,1,8,0:0:0:0:
256,192,32627,1,0,0:0:0:0:
256,192,32777,1,0,0:0:0:0:
256,192,32927,1,8,0:0:0:0:
256,192,33077,1,0,0:0:0:0:
256,192,33152,1,0,0:0:0:0:
256,192,33227,1,8,0:0:0:0:
256,192,33302,1,0,0:0:0:0:
256,192,33377,1,8,0:0:0:0:
256,192,33527,1,8,0:0:0:0:
256,192,33677,1,4,0:0:0:0:
256,192,33977,1,8,0:0:0:0:
256,192,34127,1,0,0:0:0:0:
256,192,34277,1,8,0:0:0:0:
256,192,34427,1,0,0:0:0:0:
256,192,34502,1,0,0:0:0:0:
256,192,34577,1,8,0:0:0:0:
256,192,34727,1,8,0:0:0:0:
256,192,34877,1,0,0:0:0:0:
256,192,35027,1,8,0:0:0:0:
256,192,35177,1,0,0:0:0:0:
256,192,35327,1,8,0:0:0:0:
256,192,35402,1,8,0:0:0:0:
256,192,35477,1,0,0:0:0:0:
256,192,35627,1,8,0:0:0:0:
256,192,35777,1,8,0:0:0:0:
256,192,35852,1,0,0:0:0:0:
256,192,35927,1,8,0:0:0:0:
256,192,36077,1,0,0:0:0:0:
256,192,36227,1,8,0:0:0:0:
256,192,36302,1,8,0:0:0:0:
256,192,36377,1,0,0:0:0:0:
160,128,36527,1,8,0:0:0:0:
256,192,36677,1,0,0:0:0:0:
160,128,36827,1,8,0:0:0:0:
256,192,36902,1,0,0:0:0:0:
256,192,36977,1,0,0:0:0:0:
256,192,37052,1,0,0:0:0:0:
256,192,37127,1,8,0:0:0:0:
256,192,37277,1,0,0:0:0:0:
256,192,37427,1,8,0:0:0:0:
256,192,37577,1,0,0:0:0:0:
240,192,37727,1,8,0:0:0:0:
256,208,37877,1,8,0:0:0:0:
240,192,37952,1,0,0:0:0:0:
256,208,38027,1,8,0:0:0:0:
288,192,38102,1,8,0:0:0:0:
256,208,38177,1,0,0:0:0:0:
96,160,38327,1,8,0:0:0:0:
256,192,38477,1,4,0:0:0:0:
256,192,38777,1,0,0:0:0:0:
256,192,38927,1,8,0:0:0:0:
256,192,39077,1,0,0:0:0:0:
256,192,39227,1,8,0:0:0:0:
256,192,39377,1,0,0:0:0:0:
240,192,39452,1,0,0:0:0:0:
256,192,39527,1,8,0:0:0:0:
256,192,39602,1,8,0:0:0:0:
256,192,39677,1,0,0:0:0:0:
256,192,39827,1,8,0:0:0:0:
128,224,39977,1,0,0:0:0:0:
256,192,40052,1,0,0:0:0:0:
256,192,40127,1,8,0:0:0:0:
256,192,40277,1,0,0:0:0:0:
256,192,40352,1,0,0:0:0:0:
256,192,40427,1,8,0:0:0:0:
256,192,40502,1,0,0:0:0:0:
256,192,40577,1,8,0:0:0:0:
256,192,40727,1,8,0:0:0:0:
192,224,40877,1,0,0:0:0:0:
256,192,41027,1,8,0:0:0:0:
256,192,41177,1,0,0:0:0:0:
256,192,41252,1,0,0:0:0:0:
256,192,41327,1,8,0:0:0:0:
256,192,41477,1,0,0:0:0:0:
256,192,41627,1,8,0:0:0:0:
153,190,41702,1,8,0:0:0:0:
256,192,41777,1,0,0:0:0:0:
256,192,41927,1,8,0:0:0:0:
256,192,42077,1,0,0:0:0:0:
256,192,42152,1,8,0:0:0:0:
256,192,42227,1,0,0:0:0:0:
256,192,42302,1,0,0:0:0:0:
256,192,42377,1,8,0:0:0:0:
256,192,42452,1,0,0:0:0:0:
256,192,42527,1,8,0:0:0:0:
256,192,42602,1,8,0:0:0:0:
256,192,42677,1,0,0:0:0:0:
256,192,42977,1,8,0:0:0:0:
