osu file format v14

[General]
AudioFilename: audio.mp3
AudioLeadIn: 0
PreviewTime: 19280
Countdown: 0
SampleSet: Soft
StackLeniency: 0.4
Mode: 0
LetterboxInBreaks: 0
WidescreenStoryboard: 0

[Editor]
DistanceSpacing: 1.3
BeatDivisor: 4
GridSize: 4
TimelineZoom: 1.9

[Metadata]
Title:210 - Maikaze
TitleUnicode:210 - 舞風
Artist:saradisk
ArtistUnicode:saradisk
Creator:Nozhomi
Version:Collab Hyper
Source:艦隊これくしょん -艦これ-
Tags:kancolle kantai collection Sarah Emi Bridcutt ブリドカットセーラ恵美 Maruyu Yuzu-
BeatmapID:1468853
BeatmapSetID:476369

[Difficulty]
HPDrainRate:5
CircleSize:4
OverallDifficulty:6
ApproachRate:8
SliderMultiplier:1.3
SliderTickRate:1

[Events]
//Background and Video events
0,0,"Maikaze.jpg",0,0
//Break Periods
//Storyboard Layer 0 (Background)
//Storyboard Layer 1 (Fail)
//Storyboard Layer 2 (Pass)
//Storyboard Layer 3 (Foreground)
//Storyboard Sound Samples

[TimingPoints]
680,300,4,2,1,60,1,0
680,-133.333333333333,4,2,1,60,0,0
9080,-133.333333333333,4,2,1,70,0,0
9230,-133.333333333333,4,2,1,50,0,0
9305,-133.333333333333,4,2,1,60,0,0
9380,-100,4,2,1,70,0,0
10280,-100,4,2,1,80,0,0
19880,-100,4,2,1,80,0,0
39080,-100,4,2,1,80,0,1
48530,-100,4,2,1,80,0,0
48680,-100,4,2,1,80,0,1
58280,-100,4,2,1,80,0,0
58580,-100,4,2,1,20,0,0
58880,-133.333333333333,4,2,1,60,0,0
59180,-133.333333333333,4,2,1,5,0,0

[Colours]
Combo1 : 225,164,57
Combo2 : 183,165,143
Combo3 : 55,103,165
Combo4 : 224,152,159

[HitObjects]
103,48,680,5,4,0:3:0:0:
53,108,830,2,0,L|61:220,1,97.50000371933,2|2,0:0|0:0,0:0:0:0:
114,261,1280,2,0,P|65:255|19:268,1,97.50000371933,4|2,0:3|0:0,0:0:0:0:
205,327,1880,5,4,0:3:0:0:
255,268,2030,2,0,P|303:261|350:274,1,97.50000371933,2|2,0:0|0:0,0:0:0:0:
422,304,2480,2,0,P|446:307|469:302,1,48.750001859665,4|0,0:3|0:0,0:0:0:0:
445,227,2780,1,2,0:0:0:0:
445,227,3080,5,4,0:3:0:0:
424,151,3230,2,0,L|431:53,1,97.50000371933,2|2,0:0|0:0,0:0:0:0:
355,34,3680,2,0,P|299:25|247:44,1,97.50000371933,4|2,0:3|0:0,0:0:0:0:
135,200,4280,5,4,0:3:0:0:
72,149,4430,2,0,P|113:123|161:125,1,97.50000371933,2|2,0:0|0:0,0:0:0:0:
227,169,4880,2,0,L|224:241,1,48.750001859665,4|0,0:3|0:0,0:0:0:0:
169,273,5180,1,2,0:0:0:0:
169,273,5480,5,4,0:3:0:0:
228,325,5630,2,0,L|325:318,1,97.50000371933,2|2,0:0|0:0,0:0:0:0:
396,351,6080,2,0,P|373:300|388:247,1,97.50000371933,4|2,0:3|0:0,0:0:0:0:
469,86,6680,5,4,0:3:0:0:
419,146,6830,2,0,L|306:135,1,97.50000371933,2|2,0:0|0:0,0:0:0:0:
280,71,7280,2,0,P|255:69|231:73,1,48.750001859665,4|0,0:3|0:0,0:0:0:0:
180,134,7580,1,2,0:0:0:0:
180,134,7880,5,4,0:3:0:0:
227,196,8030,2,0,L|217:308,1,97.50000371933,2|2,0:0|0:0,0:0:0:0:
148,328,8480,2,0,L|143:271,1,48.750001859665,4|0,0:3|0:0,0:0:0:0:
73,241,8780,2,0,L|45:236,2,24.3750009298325,2|0|0,0:0|0:0|0:0,0:0:0:0:
135,192,9080,5,4,0:3:0:0:
125,113,9230,1,0,1:0:0:0:
119,106,9305,1,0,1:0:0:0:
114,99,9380,1,0,1:0:0:0:
56,161,9530,1,4,0:3:0:0:
135,192,9680,2,0,L|209:184,1,65,2|4,0:0|0:3,0:0:0:0:
297,99,9980,1,0,1:0:0:0:
283,182,10130,1,0,1:0:0:0:
286,190,10205,1,0,1:0:0:0:
289,198,10280,5,4,0:3:0:0:
357,248,10430,2,0,L|421:240,1,65,2|0,0:0|1:0,0:0:0:0:
330,328,10730,2,0,L|265:335,1,65,4|2,0:3|0:0,0:0:0:0:
202,278,11030,1,4,0:3:0:0:
139,335,11180,2,0,P|71:336|10:320,1,130,0|4,1:0|0:3,0:0:0:0:
47,243,11630,6,0,P|31:214|8:192,1,65,2|0,0:0|1:0,0:0:0:0:
86,158,11930,2,0,P|85:125|76:95,1,65,4|2,0:3|0:0,0:0:0:0:
14,35,12230,1,4,0:3:0:0:
75,94,12380,2,0,P|139:98|195:67,1,130,0|4,1:0|0:3,0:0:0:0:
276,88,12830,6,0,L|268:24,1,65,2|0,0:0|1:0,0:0:0:0:
351,127,13130,2,0,L|344:191,1,65,4|2,0:3|0:0,0:0:0:0:
328,274,13430,1,4,0:3:0:0:
262,218,13580,2,0,P|199:209|136:225,1,130,0|4,1:0|0:3,0:0:0:0:
74,283,14030,6,0,P|66:315|65:347,1,65,2|0,0:0|1:0,0:0:0:0:
136,225,14330,2,0,P|112:202|84:186,1,65,4|2,0:3|0:0,0:0:0:0:
3,210,14630,1,4,0:3:0:0:
18,126,14780,2,0,P|74:98|136:114,1,130,0|4,1:0|0:3,0:0:0:0:
199,171,15230,6,0,L|264:167,1,65,2|0,0:0|1:0,0:0:0:0:
312,98,15530,2,0,L|376:103,1,65,4|2,0:3|0:0,0:0:0:0:
454,136,15830,1,4,0:3:0:0:
385,185,15980,2,0,L|399:342,1,130,0|4,1:0|0:3,0:0:0:0:
314,290,16430,6,0,P|282:297|255:315,1,65,2|0,0:0|1:0,0:0:0:0:
194,374,16730,2,0,P|166:356|135:348,1,65,4|2,0:3|0:0,0:0:0:0:
52,370,17030,1,4,0:3:0:0:
76,289,17180,2,0,L|62:157,1,130,0|4,1:0|0:3,0:0:0:0:
52,75,17630,6,0,L|45:10,1,65,2|0,0:0|1:0,0:0:0:0:
129,109,17930,2,0,L|135:173,1,65,4|2,0:3|0:0,0:0:0:0:
202,225,18230,1,4,0:3:0:0:
256,159,18380,2,0,P|319:151|379:174,1,130,0|4,1:0|0:3,0:0:0:0:
427,244,18830,5,2,1:2:0:0:
276,294,19130,1,0,1:0:0:0:
272,298,19205,1,4,0:3:0:0:
268,302,19280,2,0,L|276:366,2,65,0|12|0,1:0|0:3|1:0,0:0:0:0:
314,208,19730,1,0,1:0:0:0:
310,204,19805,1,0,1:0:0:0:
306,200,19880,6,0,B|241:180|241:219|179:200,1,130,4|0,0:3|1:0,0:0:0:0:
152,281,20330,2,0,P|102:243|96:180,1,130,2|4,0:0|0:3,0:0:0:0:
178,199,20780,1,0,1:0:0:0:
153,118,20930,1,0,0:0:0:0:
210,56,21080,2,0,L|274:50,1,65,4|0,0:3|0:0,0:0:0:0:
344,97,21380,2,0,L|421:90,1,65,0|2,1:0|0:0,0:0:0:0:
417,175,21680,2,0,L|352:180,1,65,2|4,0:0|0:3,0:0:0:0:
297,244,21980,2,0,L|232:249,1,65,0|2,1:0|0:0,0:0:0:0:
169,191,22280,6,0,P|188:252|188:317,1,130,4|0,0:3|1:0,0:0:0:0:
103,328,22730,2,0,P|83:266|83:201,1,130,2|4,0:0|0:3,0:0:0:0:
118,123,23180,1,0,1:0:0:0:
58,62,23330,1,0,0:0:0:0:
139,40,23480,6,0,P|170:33|206:34,1,65,4|0,0:3|0:0,0:0:0:0:
276,76,23780,2,0,P|282:107|282:143,1,65,0|2,1:0|0:0,0:0:0:0:
227,204,24080,2,0,L|162:196,1,65,2|4,0:0|0:3,0:0:0:0:
284,265,24380,2,0,L|349:257,1,65,0|2,1:0|0:0,0:0:0:0:
255,344,24680,6,0,P|193:328|129:336,1,130,4|0,0:3|1:0,0:0:0:0:
50,365,25130,2,0,L|57:234,1,130,2|4,0:0|0:3,0:0:0:0:
90,157,25580,2,0,P|122:154|153:162,1,65,0|0,1:0|0:0,0:0:0:0:
227,204,25880,5,4,0:3:0:0:
301,164,26030,2,0,L|294:35,1,130,2|2,0:0|0:0,0:0:0:0:
220,78,26480,2,0,P|188:80|156:74,1,65,2|4,0:0|0:3,0:0:0:0:
78,42,26780,2,0,P|80:74|74:106,1,65,0|2,1:0|0:0,0:0:0:0:
38,183,27080,6,0,P|102:178|165:193,1,130,4|0,0:3|1:0,0:0:0:0:
242,229,27530,1,2,0:0:0:0:
277,305,27680,2,0,L|270:369,1,65,2|4,0:0|0:3,0:0:0:0:
242,229,27980,1,0,1:0:0:0:
310,192,28130,1,0,0:0:0:0:
379,227,28280,6,0,P|411:227|443:217,1,65,4|0,0:3|0:0,0:0:0:0:
484,151,28580,1,0,1:0:0:0:
437,88,28730,1,2,0:0:0:0:
305,159,28880,2,0,L|312:204,2,32.5,2|0|4,0:0|0:0|0:3,0:0:0:0:
337,60,29180,1,0,1:0:0:0:
239,95,29330,1,0,1:0:0:0:
236,99,29405,1,0,1:0:0:0:
233,104,29480,6,0,P|204:103|168:91,1,65,4|0,0:3|0:0,0:0:0:0:
109,34,29780,1,0,1:0:0:0:
50,95,29930,2,0,L|60:226,1,130,2|4,0:0|0:3,0:0:0:0:
102,297,30380,2,0,P|135:300|165:291,1,65,0|0,1:0|0:0,0:0:0:0:
241,252,30680,5,4,0:3:0:0:
170,205,30830,1,0,0:0:0:0:
165,290,30980,1,0,1:0:0:0:
241,252,31130,2,0,P|304:239|368:249,1,130,2|4,0:0|0:3,0:0:0:0:
461,310,31580,2,0,P|448:281|445:249,1,65,0|2,1:0|0:0,0:0:0:0:
506,163,31880,6,0,L|373:170,1,130,4|0,0:3|1:0,0:0:0:0:
307,119,32330,1,2,0:0:0:0:
291,205,32480,2,0,L|294:269,2,65,2|4|0,0:0|0:3|1:0,0:0:0:0:
307,119,32930,1,0,0:0:0:0:
227,148,33080,6,0,L|97:141,1,130,4|0,0:3|1:0,0:0:0:0:
14,123,33530,1,2,0:0:0:0:
52,47,33680,2,0,P|83:38|115:40,1,65,2|4,0:0|0:3,0:0:0:0:
195,67,33980,2,0,P|227:77|259:74,1,65,0|2,1:0|0:0,0:0:0:0:
330,28,34280,6,0,P|390:-2|449:20,1,130,4|0,0:3|1:0,0:0:0:0:
454,103,34730,2,0,P|393:132|334:110,1,130,2|4,0:0|0:3,0:0:0:0:
260,75,35180,2,0,L|267:156,1,65,0|0,1:0|0:0,0:0:0:0:
193,184,35480,6,0,L|182:54,1,130,4|0,0:3|1:0,0:0:0:0:
98,61,35930,2,0,L|108:190,1,130,2|4,0:0|0:3,0:0:0:0:
83,271,36380,2,0,P|114:262|146:267,1,65,0|2,1:0|0:0,0:0:0:0:
180,344,36680,5,4,0:3:0:0:
256,309,36830,1,0,0:0:0:0:
331,345,36980,2,0,P|339:314|334:282,1,65,0|2,1:0|0:0,0:0:0:0:
272,224,37280,2,0,L|207:217,2,65,2|4|0,0:0|0:3|1:0,0:0:0:0:
354,201,37730,1,0,0:0:0:0:
274,135,37880,6,0,P|212:114|148:120,1,130,4|0,0:3|1:0,0:0:0:0:
72,160,38330,2,0,P|51:221|57:285,1,130,2|4,0:0|0:3,0:0:0:0:
92,362,38780,1,0,1:0:0:0:
160,283,38930,1,0,1:0:0:0:
164,279,39005,1,0,1:0:0:0:
168,274,39080,6,0,P|231:267|291:290,1,130,4|0,0:3|1:0,0:0:0:0:
359,342,39530,2,0,P|391:345|422:337,1,65,2|0,0:0|0:0,0:0:0:0:
485,281,39830,1,4,0:3:0:0:
417,229,39980,2,0,P|384:225|353:233,1,65,2|0,1:2|0:0,0:0:0:0:
274,300,40280,6,0,L|266:170,1,130,4|0,0:3|1:0,0:0:0:0:
191,129,40730,2,0,P|157:126|127:133,1,65,2|0,0:0|0:0,0:0:0:0:
61,185,41030,1,4,0:3:0:0:
9,118,41180,2,0,L|3:52,1,65,2|0,1:2|0:0,0:0:0:0:
61,185,41480,6,0,L|74:314,1,130,4|0,0:3|1:0,0:0:0:0:
151,354,41930,2,0,L|156:290,1,65,2|0,0:0|0:0,0:0:0:0:
217,228,42230,1,4,0:3:0:0:
296,255,42380,2,0,L|301:324,1,65,2|0,1:2|0:0,0:0:0:0:
217,228,42680,6,0,P|212:164|222:100,1,130,4|0,0:3|1:0,0:0:0:0:
289,47,43130,1,2,0:0:0:0:
349,105,43280,1,2,0:0:0:0:
427,74,43430,2,0,L|433:34,2,32.5,4|0|0,0:3|0:0|1:0,0:0:0:0:
349,105,43730,1,2,0:0:0:0:
425,176,43880,6,0,P|370:206|300:195,1,130,4|0,0:3|1:0,0:0:0:0:
221,183,44330,2,0,P|188:186|158:198,1,65,2|0,0:0|0:0,0:0:0:0:
125,275,44630,1,4,0:3:0:0:
43,256,44780,2,0,P|31:225|28:193,1,65,2|0,1:2|0:0,0:0:0:0:
91,111,45080,5,4,0:3:0:0:
15,72,45230,2,0,L|144:60,1,130,2|2,0:0|0:0,0:0:0:0:
221,95,45680,2,0,L|214:163,1,65,0|4,0:0|0:3,0:0:0:0:
292,192,45980,2,0,L|298:256,1,65,2|0,1:2|0:0,0:0:0:0:
168,274,46280,6,0,P|231:267|291:290,1,130,4|0,0:3|1:0,0:0:0:0:
359,342,46730,2,0,P|391:345|422:337,1,65,2|0,0:0|0:0,0:0:0:0:
485,281,47030,1,4,0:3:0:0:
417,229,47180,2,0,P|384:225|353:233,1,65,2|0,1:2|0:0,0:0:0:0:
217,228,47480,6,0,P|212:160|223:95,1,130,4|0,0:3|1:0,0:0:0:0:
289,47,47930,1,2,0:0:0:0:
349,105,48080,1,2,0:0:0:0:
427,74,48230,2,0,L|433:34,2,32.5,4|0|0,0:3|0:0|1:0,0:0:0:0:
452,184,48530,1,0,1:0:0:0:
452,184,48605,1,0,1:0:0:0:
452,184,48680,6,0,P|440:252|392:292,1,130,4|0,0:3|1:0,0:0:0:0:
316,260,49130,2,0,L|312:184,1,65,2|0,0:0|0:0,0:0:0:0:
256,132,49430,1,4,0:3:0:0:
199,195,49580,2,0,L|196:260,1,65,2|0,1:2|0:0,0:0:0:0:
168,360,49880,6,0,P|109:320|92:259,1,130,4|0,0:3|1:0,0:0:0:0:
112,184,50330,2,0,L|108:104,1,65,2|0,0:0|0:0,0:0:0:0:
76,40,50630,1,4,0:3:0:0:
160,36,50780,2,0,P|184:55|201:90,1,65,2|0,1:2|0:0,0:0:0:0:
312,144,51080,6,0,L|180:136,1,130,4|0,0:3|1:0,0:0:0:0:
212,216,51530,2,0,L|276:220,1,65,2|0,0:0|0:0,0:0:0:0:
344,272,51830,1,4,0:3:0:0:
408,328,51980,2,0,L|472:332,1,65,2|0,1:2|0:0,0:0:0:0:
332,352,52280,6,0,P|264:368|212:340,1,130,4|0,0:3|1:0,0:0:0:0:
180,264,52730,1,2,0:0:0:0:
104,304,52880,1,2,0:0:0:0:
104,220,53030,2,0,L|104:188,2,32.5,4|0|0,0:3|0:0|1:0,0:0:0:0:
104,304,53330,1,2,0:0:0:0:
20,240,53480,6,0,P|12:172|56:104,1,130,4|0,0:3|1:0,0:0:0:0:
104,64,53930,2,0,L|180:68,1,65,2|0,0:0|0:0,0:0:0:0:
236,116,54230,1,4,0:3:0:0:
304,164,54380,2,0,P|344:148|368:112,1,65,2|0,1:2|0:0,0:0:0:0:
408,40,54680,5,4,0:3:0:0:
464,104,54830,2,0,L|460:264,1,130,2|2,0:0|0:0,0:0:0:0:
391,283,55280,2,0,P|383:253|361:229,1,65,0|4,0:0|0:3,0:0:0:0:
308,296,55580,2,0,P|274:279|237:281,1,65,2|0,1:2|0:0,0:0:0:0:
136,334,55880,6,0,P|212:314|252:270,1,130,4|0,0:3|1:0,0:0:0:0:
272,200,56330,2,0,L|264:112,1,65,2|0,0:0|0:0,0:0:0:0:
224,64,56630,1,4,0:3:0:0:
152,112,56780,2,0,P|124:120|88:116,1,65,2|0,1:2|0:0,0:0:0:0:
8,48,57080,6,0,P|31:107|27:172,1,130,4|0,0:3|1:0,0:0:0:0:
0,252,57530,1,2,0:0:0:0:
84,236,57680,1,2,0:0:0:0:
72,320,57830,2,0,L|28:328,2,32.5,4|0|0,0:3|0:0|1:0,0:0:0:0:
180,308,58130,1,0,1:0:0:0:
180,308,58205,1,0,1:0:0:0:
180,308,58280,6,0,P|256:304|204:240,1,195,4|0,0:3|0:0,0:0:0:0:
214,148,58880,6,0,P|176:191|205:240,1,121.875004649162,2|0,0:0|0:0,0:0:0:0:
