osu file format v14

[General]
AudioFilename: audio.mp3
AudioLeadIn: 0
PreviewTime: 19280
Countdown: 0
SampleSet: Soft
StackLeniency: 0.7
Mode: 0
LetterboxInBreaks: 0
WidescreenStoryboard: 0

[Editor]
DistanceSpacing: 1.3
BeatDivisor: 2
GridSize: 4
TimelineZoom: 1.9

[Metadata]
Title:210 - Maikaze
TitleUnicode:210 - 舞風
Artist:saradisk
ArtistUnicode:saradisk
Creator:Nozhomi
Version:Normal
Source:艦隊これくしょん -艦これ-
Tags:kancolle kantai collection Sarah Emi Bridcutt ブリドカットセーラ恵美 Maruyu Yuzu-
BeatmapID:1641332
BeatmapSetID:476369

[Difficulty]
HPDrainRate:3
CircleSize:3
OverallDifficulty:3
ApproachRate:4
SliderMultiplier:0.8
SliderTickRate:1

[Events]
//Background and Video events
0,0,"Maikaze.jpg",0,0
//Break Periods
//Storyboard Layer 0 (Background)
//Storyboard Layer 1 (Fail)
//Storyboard Layer 2 (Pass)
//Storyboard Layer 3 (Foreground)
//Storyboard Sound Samples

[TimingPoints]
680,300,4,2,1,60,1,0
680,-125,4,2,1,60,0,0
9080,-100,4,2,1,70,0,0
9230,-100,4,2,1,50,0,0
9305,-100,4,2,1,60,0,0
9380,-100,4,2,1,70,0,0
10280,-100,4,2,1,80,0,0
19880,-100,4,2,1,80,0,0
39080,-100,4,2,1,80,0,1
48530,-100,4,2,1,80,0,0
48680,-100,4,2,1,80,0,1
58280,-100,4,2,1,80,0,0
58580,-100,4,2,1,20,0,0
58880,-100,4,2,1,60,0,0
59180,-100,4,2,1,5,0,0

[Colours]
Combo1 : 225,164,57
Combo2 : 183,165,143
Combo3 : 55,103,165
Combo4 : 224,152,159

[HitObjects]
84,312,680,6,0,P|160:336|220:320,1,128,4|4,0:3|0:3,0:0:0:0:
256,260,1580,1,2,0:0:0:0:
306,327,1880,2,0,P|334:290|337:242,2,96,4|2|2,0:3|0:0|0:0,0:0:0:0:
256,260,3080,6,0,L|256:124,1,128,4|4,0:3|0:3,0:0:0:0:
256,48,3980,1,2,0:0:0:0:
340,48,4280,2,0,P|396:36|424:4,2,96,4|2|2,0:3|0:0|0:0,0:0:0:0:
256,48,5480,6,0,L|116:44,1,128,4|4,0:3|0:3,0:0:0:0:
54,83,6380,1,2,0:0:0:0:
72,164,6680,2,0,P|80:208|72:272,2,96,4|2|2,0:3|0:0|0:0,0:0:0:0:
144,124,7880,6,0,P|160:183|157:270,1,128,4|4,0:3|0:3,0:0:0:0:
137,329,8780,1,2,0:0:0:0:
219,333,9080,2,0,L|299:329,1,80,4|0,0:3|1:0,0:0:0:0:
367,273,9680,2,0,L|447:269,1,80,2|0,0:0|1:0,0:0:0:0:
501,199,10280,6,0,P|504:139|479:85,2,120,4|4|0,0:3|0:3|1:0,0:0:0:0:
447,269,11480,2,0,L|367:265,1,80,4|0,0:3|1:0,0:0:0:0:
286,231,12080,2,0,L|206:235,1,80,2|0,0:0|1:0,0:0:0:0:
136,288,12680,6,0,P|76:328|12:312,2,120,4|4|0,0:3|0:3|1:0,0:0:0:0:
124,200,13880,2,0,P|116:164|136:108,1,80,4|0,0:3|1:0,0:0:0:0:
172,48,14480,2,0,P|203:28|262:27,1,80,2|0,0:0|1:0,0:0:0:0:
324,64,15080,6,0,L|472:60,2,120,4|4|0,0:3|0:3|1:0,0:0:0:0:
250,113,16280,2,0,P|244:152|252:200,1,80,4|0,0:3|1:0,0:0:0:0:
264,280,16880,2,0,P|270:319|262:367,1,80,2|0,0:0|1:0,0:0:0:0:
176,372,17480,6,0,P|155:316|176:261,2,120,4|4|0,0:3|0:3|1:0,0:0:0:0:
264,359,18680,2,0,P|270:320|264:281,1,80,4|0,0:3|0:0,0:0:0:0:
250,192,19280,1,0,1:0:0:0:
332,224,19580,1,0,1:0:0:0:
380,152,19880,6,0,P|364:44|228:44,1,240,4|0,0:3|1:0,0:0:0:0:
188,88,21080,2,0,L|192:200,1,80,4|0,0:3|1:0,0:0:0:0:
136,236,21680,1,2,0:0:0:0:
80,168,21980,1,0,1:0:0:0:
44,248,22280,6,0,P|56:283|88:316,1,80,4|0,0:3|1:0,0:0:0:0:
168,344,22880,2,0,P|205:348|249:333,1,80,2|0,0:0|1:0,0:0:0:0:
316,284,23480,2,0,P|335:251|340:205,1,80,4|0,0:3|1:0,0:0:0:0:
320,124,24080,1,2,0:0:0:0:
256,184,24380,1,0,1:0:0:0:
192,124,24680,6,0,P|134:108|77:124,2,120,4|2|0,0:3|0:0|1:0,0:0:0:0:
256,184,25880,1,4,0:3:0:0:
320,123,26180,2,0,P|358:116|398:123,1,80,0|2,1:0|0:0,0:0:0:0:
464,184,26780,1,0,1:0:0:0:
484,268,27080,6,0,L|488:368,1,80,4|0,0:3|1:0,0:0:0:0:
400,348,27680,2,0,L|396:268,1,80,2|0,0:0|1:0,0:0:0:0:
348,192,28280,2,0,P|272:168|192:200,1,160,4|2,0:3|0:0,0:0:0:0:
136,256,29180,1,0,1:0:0:0:
67,196,29480,6,0,P|62:307|170:341,1,240,4|0,0:3|1:0,0:0:0:0:
228,276,30680,2,0,L|224:196,1,80,4|0,0:3|1:0,0:0:0:0:
293,142,31280,1,2,0:0:0:0:
376,176,31580,1,0,1:0:0:0:
436,112,31880,6,0,P|408:64|372:44,1,80,4|0,0:3|1:0,0:0:0:0:
304,32,32480,2,0,P|249:41|218:68,1,80,2|0,0:0|1:0,0:0:0:0:
180,128,33080,2,0,P|170:182|185:221,1,80,4|0,0:3|1:0,0:0:0:0:
224,280,33680,1,2,0:0:0:0:
306,310,33980,1,0,1:0:0:0:
390,287,34280,6,0,L|522:291,2,120,4|2|0,0:3|0:0|1:0,0:0:0:0:
306,310,35480,1,4,0:3:0:0:
224,280,35780,2,0,P|192:264|136:280,1,80,0|2,1:0|0:0,0:0:0:0:
96,340,36380,1,0,1:0:0:0:
36,276,36680,6,0,L|32:196,1,80,4|0,0:3|1:0,0:0:0:0:
120,188,37280,2,0,L|116:108,1,80,2|0,0:0|1:0,0:0:0:0:
164,30,37880,2,0,P|221:17|277:36,2,120,4|0|0,0:3|0:0|1:0,0:0:0:0:
116,108,39080,6,0,L|123:246,1,120,4|2,0:3|0:0,0:0:0:0:
104,332,39830,2,0,P|120:324|152:316,1,40,4|2,0:3|1:2,0:0:0:0:
244,308,40280,2,0,L|382:301,1,120,4|2,0:3|0:0,0:0:0:0:
468,320,41030,2,0,P|460:304|452:272,1,40,4|2,0:3|1:2,0:0:0:0:
436,180,41480,6,0,L|429:41,1,120,4|2,0:3|0:0,0:0:0:0:
336,104,42229,2,0,L|337:143,1,40,4|2,0:3|1:2,0:0:0:0:
256,208,42680,1,4,0:3:0:0:
175,143,42980,2,0,P|132:140|72:168,2,80,0|2|0,1:0|0:0|1:0,0:0:0:0:
256,208,43880,6,0,P|259:250|230:310,1,80,4|0,0:3|1:0,0:0:0:0:
204,316,44330,2,0,L|328:312,1,120,2|2,0:0|1:2,0:0:0:0:
424,284,45080,2,0,P|392:260|373:210,1,80,4|0,0:3|1:0,0:0:0:0:
332,128,45680,2,0,P|326:88|348:40,1,80,0|0,0:0|1:0,0:0:0:0:
244,88,46280,6,0,L|140:84,1,80,4|0,0:3|1:0,0:0:0:0:
124,120,46730,2,0,L|20:116,1,80,2|4,0:0|0:3,0:0:0:0:
4,152,47180,1,2,1:2:0:0:
72,228,47480,1,4,0:3:0:0:
140,304,47780,2,0,L|136:384,1,80,0|2,1:0|0:0,0:0:0:0:
232,348,48380,1,0,1:0:0:0:
224,244,48680,6,0,P|264:192|344:172,1,120,4|2,0:3|0:0,0:0:0:0:
416,168,49430,2,0,L|476:172,1,40,4|2,0:3|1:2,0:0:0:0:
484,272,49880,2,0,P|418:280|348:238,1,120,4|2,0:3|0:0,0:0:0:0:
313,172,50630,2,0,L|312:112,1,40,4|2,0:3|1:2,0:0:0:0:
236,64,51080,6,0,P|170:55|100:97,1,120,4|2,0:3|0:0,0:0:0:0:
65,164,51830,2,0,L|64:224,1,40,4|2,0:3|1:2,0:0:0:0:
64,308,52280,1,4,0:3:0:0:
156,256,52580,2,0,P|196:252|260:268,2,80,0|2|0,1:0|0:0|1:0,0:0:0:0:
64,308,53480,6,0,L|56:212,1,80,4|0,0:3|1:0,0:0:0:0:
92,192,53930,2,0,L|101:72,1,120,2|2,0:0|1:2,0:0:0:0:
196,28,54680,2,0,P|224:64|228:120,1,80,4|0,0:3|1:0,0:0:0:0:
228,184,55280,2,0,P|212:221|181:246,1,80,0|2,0:0|1:2,0:0:0:0:
128,336,55880,6,0,P|164:328|212:332,1,80,4|2,0:3|0:0,0:0:0:0:
256,344,56330,2,0,P|295:346|334:338,1,80,2|4,0:0|0:3,0:0:0:0:
380,312,56780,1,2,1:2:0:0:
320,228,57080,1,4,0:3:0:0:
384,144,57380,2,0,P|391:104|384:65,1,80,0|2,1:0|0:0,0:0:0:0:
288,104,57980,1,0,1:0:0:0:
212,32,58280,6,0,P|117:77|201:159,1,260
