osu file format v14

[General]
AudioFilename: audio.mp3
AudioLeadIn: 0
PreviewTime: 19280
Countdown: 0
SampleSet: Soft
StackLeniency: 0.4
Mode: 0
LetterboxInBreaks: 0
WidescreenStoryboard: 0

[Editor]
DistanceSpacing: 1.2
BeatDivisor: 4
GridSize: 4
TimelineZoom: 1.9

[Metadata]
Title:210 - Maikaze
TitleUnicode:210 - 舞風
Artist:saradisk
ArtistUnicode:saradisk
Creator:Nozhomi
Version:Insane
Source:艦隊これくしょん -艦これ-
Tags:kancolle kantai collection Sarah Emi Bridcutt ブリドカットセーラ恵美 Maruyu Yuzu-
BeatmapID:1468817
BeatmapSetID:476369

[Difficulty]
HPDrainRate:6
CircleSize:4.2
OverallDifficulty:8
ApproachRate:9
SliderMultiplier:1.8
SliderTickRate:1

[Events]
//Background and Video events
0,0,"Maikaze.jpg",0,0
//Break Periods
//Storyboard Layer 0 (Background)
//Storyboard Layer 1 (Fail)
//Storyboard Layer 2 (Pass)
//Storyboard Layer 3 (Foreground)
//Storyboard Sound Samples

[TimingPoints]
680,300,4,2,1,60,1,0
680,-133.333333333333,4,2,1,60,0,0
9080,-100,4,2,1,70,0,0
9230,-100,4,2,1,50,0,0
9305,-100,4,2,1,60,0,0
9380,-100,4,2,1,70,0,0
10280,-100,4,2,1,80,0,0
19880,-83.3333333333333,4,2,1,80,0,0
39080,-83.3333333333333,4,2,1,80,0,1
43805,-83.3333333333333,4,2,1,30,0,1
43880,-83.3333333333333,4,2,1,80,0,1
48530,-83.3333333333333,4,2,1,80,0,0
48680,-83.3333333333333,4,2,1,80,0,1
53405,-83.3333333333333,4,2,1,30,0,1
53480,-83.3333333333333,4,2,1,80,0,1
58280,-83.3333333333333,4,2,1,80,0,0
58580,-83.3333333333333,4,2,1,20,0,0
58880,-133.333333333333,4,2,1,60,0,0
59180,-133.333333333333,4,2,1,5,0,0

[Colours]
Combo1 : 225,164,57
Combo2 : 183,165,143
Combo3 : 55,103,165
Combo4 : 224,152,159

[HitObjects]
80,56,680,5,4,0:3:0:0:
80,55,830,2,0,P|64:120|87:182,1,135.000005149842,2|2,0:0|0:0,0:0:0:0:
136,280,1280,2,0,L|132:360,1,67.5000025749208,4|0,0:3|0:0,0:0:0:0:
40,364,1580,2,0,L|43:296,1,67.5000025749208,2|0,0:0|0:0,0:0:0:0:
87,182,1880,5,4,0:3:0:0:
208,240,2030,2,0,P|272:256|344:240,1,135.000005149842,2|2,0:0|0:0,0:0:0:0:
400,140,2480,2,0,L|408:224,1,67.5000025749208,4|0,0:3|0:0,0:0:0:0:
412,304,2780,1,2,0:0:0:0:
488,132,3080,5,4,0:3:0:0:
488,132,3230,2,0,P|457:73|395:50,1,135.000005149842,2|2,0:0|0:0,0:0:0:0:
288,88,3680,2,0,L|200:84,1,67.5000025749208,4|0,0:3|0:0,0:0:0:0:
136,44,3980,1,2,0:0:0:0:
316,160,4280,5,4,0:3:0:0:
181,155,4430,2,0,B|315:160,1,135.000005149842,2|2,0:0|0:0,0:0:0:0:
400,256,4880,2,0,P|372:276|312:280,1,67.5000025749208,4|0,0:3|0:0,0:0:0:0:
248,272,5180,1,2,0:0:0:0:
108,144,5480,5,4,0:3:0:0:
108,144,5630,2,0,L|112:288,1,135.000005149842,2|2,0:0|0:0,0:0:0:0:
24,208,6080,2,0,L|22:140,1,67.5000025749208,4|0,0:3|0:0,0:0:0:0:
64,56,6379,1,2,0:0:0:0:
192,196,6680,5,4,0:3:0:0:
324,196,6830,2,0,P|258:183|192:196,1,135.000005149842,2|2,0:0|0:0,0:0:0:0:
120,256,7280,1,4,0:3:0:0:
136,144,7430,2,0,L|132:72,2,67.5000025749208,0|2|2,0:0|0:0|0:0,0:0:0:0:
192,276,7880,5,4,0:3:0:0:
192,276,8030,2,0,P|257:288|323:276,1,135.000005149842,2|2,0:0|0:0,0:0:0:0:
392,184,8480,2,0,P|406:147|404:117,1,67.5000025749208,4|0,0:3|0:0,0:0:0:0:
484,108,8780,2,0,P|467:71|445:52,1,67.5000025749208,2|0,0:0|0:0,0:0:0:0:
300,28,9080,5,4,0:3:0:0:
256,148,9230,1,0,1:0:0:0:
256,148,9305,1,0,1:0:0:0:
256,148,9380,1,0,1:0:0:0:
336,248,9530,2,0,P|344:288|328:344,1,90,4|2,0:3|0:0,0:0:0:0:
179,335,9830,2,0,P|168:291|176:248,1,90,4|0,0:3|1:0,0:0:0:0:
256,148,10130,1,0,1:0:0:0:
256,148,10205,1,0,1:0:0:0:
256,148,10280,6,0,L|132:144,1,90,4|2,0:3|0:0,0:0:0:0:
276,52,10580,1,0,1:0:0:0:
344,160,10730,2,0,P|348:204|336:248,1,90,4|2,0:3|0:0,0:0:0:0:
256,348,11030,1,4,0:3:0:0:
428,296,11180,1,0,1:0:0:0:
196,192,11480,6,0,L|200:96,1,90,4|2,0:3|0:0,0:0:0:0:
344,160,11780,1,0,1:0:0:0:
256,252,11930,2,0,P|214:275|161:272,1,90,4|2,0:3|0:0,0:0:0:0:
68,200,12230,1,4,0:3:0:0:
200,102,12380,1,0,1:0:0:0:
384,272,12680,6,0,L|492:268,1,90,4|2,0:3|0:0,0:0:0:0:
352,356,12980,1,0,1:0:0:0:
300,240,13130,2,0,P|296:188|312:144,1,90,4|2,0:3|0:0,0:0:0:0:
376,48,13430,1,4,0:3:0:0:
220,92,13580,1,0,1:0:0:0:
472,181,13880,6,0,P|484:224|474:268,1,90,4|2,0:3|0:0,0:0:0:0:
360,368,14180,1,0,1:0:0:0:
324,248,14330,2,0,L|328:136,1,90,4|2,0:3|0:0,0:0:0:0:
332,32,14630,1,4,0:3:0:0:
472,108,14780,1,0,1:0:0:0:
232,184,15080,6,0,P|184:196|120:180,1,90,4|2,0:3|0:0,0:0:0:0:
24,96,15380,1,0,1:0:0:0:
72,212,15530,2,0,L|68:324,1,90,4|2,0:3|0:0,0:0:0:0:
188,260,15830,1,4,0:3:0:0:
96,128,15980,1,0,1:0:0:0:
336,56,16280,6,0,P|381:44|441:72,1,90,4|2,0:3|0:0,0:0:0:0:
380,196,16580,1,0,1:0:0:0:
276,98,16730,2,0,L|280:-6,1,90,4|2,0:3|0:0,0:0:0:0:
164,60,17030,1,4,0:3:0:0:
272,180,17180,1,0,1:0:0:0:
72,336,17480,6,0,P|40:284|44:228,1,90,4|2,0:3|0:0,0:0:0:0:
64,104,17780,1,0,1:0:0:0:
184,140,17930,2,0,P|154:193|104:218,1,90,4|2,0:3|0:0,0:0:0:0:
12,172,18230,1,4,0:3:0:0:
140,64,18380,1,0,1:0:0:0:
312,120,18680,5,4,0:3:0:0:
140,64,18830,1,2,1:2:0:0:
319,127,19130,5,0,1:0:0:0:
319,127,19205,1,4,0:3:0:0:
319,127,19280,1,0,1:0:0:0:
190,209,19430,1,12,0:3:0:0:
140,64,19580,1,0,1:0:0:0:
272,188,19730,1,0,1:0:0:0:
272,188,19805,1,0,1:0:0:0:
273,188,19880,6,0,L|268:316,1,107.999996704102,4|0,0:3|0:0,0:0:0:0:
376,372,20180,2,0,L|380:264,1,107.999996704102,0|2,1:0|0:0,0:0:0:0:
384,136,20480,2,0,P|408:128|436:104,2,53.9999983520508,2|0|4,0:0|0:0|0:3,0:0:0:0:
248,32,20780,2,0,P|298:15|351:37,1,107.999996704102,0|0,1:0|0:0,0:0:0:0:
209,111,21080,6,0,P|169:75|161:19,1,107.999996704102,4|0,0:3|0:0,0:0:0:0:
296,105,21380,1,0,1:0:0:0:
248,224,21530,1,2,0:0:0:0:
140,152,21680,2,0,P|112:148|64:148,2,53.9999983520508,2|0|4,0:0|0:0|0:3,0:0:0:0:
248,224,21980,1,0,1:0:0:0:
132,284,22130,1,2,0:0:0:0:
276,156,22280,6,0,P|284:104|260:40,1,107.999996704102,4|0,0:3|0:0,0:0:0:0:
248,224,22580,2,0,P|240:276|264:340,1,107.999996704102,0|2,1:0|0:0,0:0:0:0:
204,164,22880,1,2,0:0:0:0:
187,166,22955,1,0,0:0:0:0:
171,169,23030,1,4,0:3:0:0:
324,216,23180,2,0,B|379:227|379:227|429:216,1,107.999996704102,0|0,1:0|0:0,0:0:0:0:
361,327,23480,6,0,B|311:315|311:315|255:327,1,107.999996704102,4|0,0:3|0:0,0:0:0:0:
324,216,23780,2,0,P|332:168|296:92,1,107.999996704102,0|2,1:0|0:0,0:0:0:0:
200,44,24080,1,2,0:0:0:0:
200,44,24155,1,0,0:0:0:0:
200,44,24230,1,4,0:3:0:0:
212,196,24380,1,0,1:0:0:0:
100,128,24530,1,2,0:0:0:0:
314,113,24680,5,4,0:3:0:0:
176,120,24830,1,0,0:0:0:0:
300,260,24980,2,0,L|296:376,1,107.999996704102,0|2,1:0|0:0,0:0:0:0:
416,324,25280,1,2,0:0:0:0:
416,324,25355,1,0,0:0:0:0:
416,324,25430,1,4,0:3:0:0:
232,224,25580,2,0,L|228:334,1,107.999996704102,0|0,1:0|0:0,0:0:0:0:
128,264,25880,6,4,P|121:207|144:156,1,107.999996704102,4|0,0:3|0:0,0:0:0:0:
232,68,26180,2,4,P|283:41|338:46,1,107.999996704102,0|2,1:0|0:0,0:0:0:0:
316,172,26480,1,2,0:0:0:0:
316,172,26555,1,0,0:0:0:0:
316,172,26630,1,4,0:3:0:0:
144,76,26780,2,0,P|90:67|37:76,1,107.999996704102,0|2,1:0|0:0,0:0:0:0:
209,172,27080,6,0,P|262:180|316:172,1,107.999996704102,4|0,0:3|0:0,0:0:0:0:
388,280,27380,2,0,P|432:232|441:182,1,107.999996704102,0|2,1:0|0:0,0:0:0:0:
420,64,27680,1,2,0:0:0:0:
420,64,27755,1,0,0:0:0:0:
420,64,27830,1,4,0:3:0:0:
316,172,27980,1,0,1:0:0:0:
256,56,28130,1,0,0:0:0:0:
195,172,28280,6,0,P|143:184|91:171,1,107.999996704102,4|0,0:3|0:0,0:0:0:0:
0,44,28580,1,0,1:0:0:0:
12,172,28730,1,2,0:0:0:0:
100,76,28880,1,2,0:0:0:0:
52,232,29030,1,4,0:3:0:0:
200,104,29180,1,0,1:0:0:0:
100,300,29330,1,0,1:0:0:0:
100,300,29405,1,0,1:0:0:0:
99,299,29480,6,0,P|152:312|204:301,1,107.999996704102,4|0,0:3|0:0,0:0:0:0:
412,299,29780,2,0,P|359:312|307:301,1,107.999996704102,0|2,1:0|0:0,0:0:0:0:
256,184,30080,2,0,B|256:116,2,53.9999983520508,2|0|4,0:0|0:0|0:3,0:0:0:0:
376,136,30380,2,0,P|365:80|320:36,1,107.999996704102,0|0,1:0|0:0,0:0:0:0:
180,42,30680,6,0,P|145:83|136:136,1,107.999996704102,4|0,0:3|0:0,0:0:0:0:
236,288,30980,2,0,P|218:237|177:203,1,107.999996704102,0|2,1:0|0:0,0:0:0:0:
68,272,31280,2,0,L|68:332,2,53.9999983520508,2|0|4,0:0|0:0|0:3,0:0:0:0:
136,136,31580,1,0,1:0:0:0:
0,240,31730,1,2,0:0:0:0:
167,343,31880,6,0,P|213:371|267:371,1,107.999996704102,4|0,0:3|0:0,0:0:0:0:
384,296,32180,2,0,P|384:242|358:196,1,107.999996704102,0|2,1:0|0:0,0:0:0:0:
344,360,32480,1,2,0:0:0:0:
344,360,32555,1,0,0:0:0:0:
344,360,32630,1,4,0:3:0:0:
460,220,32780,2,0,L|456:88,1,107.999996704102,0|0,1:0|0:0,0:0:0:0:
358,196,33080,6,0,L|354:88,1,107.999996704102,4|0,0:3|0:0,0:0:0:0:
200,160,33380,2,0,P|140:172|87:153,1,107.999996704102,0|2,1:0|0:0,0:0:0:0:
264,88,33680,1,2,0:0:0:0:
264,88,33755,1,0,0:0:0:0:
264,88,33830,1,4,0:3:0:0:
205,250,33980,1,0,1:0:0:0:
149,86,34130,1,2,0:0:0:0:
344,168,34280,6,0,L|484:160,1,107.999996704102,4|0,0:3|0:0,0:0:0:0:
380,308,34580,2,0,L|272:314,1,107.999996704102,0|2,1:0|0:0,0:0:0:0:
204,172,34880,1,2,0:0:0:0:
231,170,34955,1,0,0:0:0:0:
258,169,35030,1,4,0:3:0:0:
176,308,35180,2,0,P|116:288|82:229,1,107.999996704102,0|0,1:0|0:0,0:0:0:0:
40,132,35480,5,4,0:3:0:0:
171,115,35630,2,0,P|222:128|257:168,2,107.999996704102,0|0|2,0:0|1:0|0:0,0:0:0:0:
28,208,36080,1,2,0:0:0:0:
28,208,36155,1,0,0:0:0:0:
28,208,36230,1,4,0:3:0:0:
104,72,36380,1,0,1:0:0:0:
176,208,36530,1,2,0:0:0:0:
28,208,36680,5,4,0:3:0:0:
80,328,36830,1,0,0:0:0:0:
176,208,36980,1,0,1:0:0:0:
320,284,37130,1,2,0:0:0:0:
424,144,37280,2,0,P|450:140|477:143,2,53.9999983520508,2|0|4,0:0|0:0|0:3,0:0:0:0:
264,216,37580,2,0,L|268:88,1,107.999996704102,0|0,1:0|0:0,0:0:0:0:
368,28,37880,5,4,0:3:0:0:
196,140,38030,1,2,0:0:0:0:
196,140,38105,1,0,0:0:0:0:
196,140,38180,2,0,L|192:247,1,107.999996704102,0|0,1:0|0:0,0:0:0:0:
348,164,38480,1,2,0:0:0:0:
348,164,38555,1,0,0:0:0:0:
348,164,38630,1,4,0:3:0:0:
272,24,38780,1,0,1:0:0:0:
112,200,38930,1,0,1:0:0:0:
112,200,39005,1,0,1:0:0:0:
112,200,39080,6,0,B|101:252|101:252|111:305,1,107.999996704102,4|0,0:3|0:0,0:0:0:0:
100,120,39380,1,0,1:0:0:0:
100,120,39530,2,0,B|55:148|55:148|24:194,1,107.999996704102,2|0,0:0|0:0,0:0:0:0:
172,154,39830,1,4,0:3:0:0:
172,154,39980,2,0,L|168:22,1,107.999996704102,2|0,1:2|0:0,0:0:0:0:
248,188,40280,6,0,L|244:56,1,107.999996704102,4|0,0:3|0:0,0:0:0:0:
324,228,40580,1,0,1:0:0:0:
324,228,40730,2,0,P|355:179|401:151,1,107.999996704102,2|0,0:0|0:0,0:0:0:0:
384,272,41030,1,4,0:3:0:0:
384,272,41180,2,0,P|440:260|495:271,1,107.999996704102,2|0,1:2|0:0,0:0:0:0:
309,304,41480,6,0,P|256:314|203:303,1,107.999996704102,4|0,0:3|0:0,0:0:0:0:
80,176,41780,1,0,1:0:0:0:
80,176,41930,2,0,L|83:68,1,107.999996704102,2|0,0:0|0:0,0:0:0:0:
152,204,42230,1,4,0:3:0:0:
152,204,42380,2,0,L|155:96,1,107.999996704102,2|0,1:2|0:0,0:0:0:0:
12,40,42680,6,0,L|8:147,1,107.999996704102,4|0,0:3|0:0,0:0:0:0:
44,300,42980,1,0,1:0:0:0:
172,312,43130,1,2,0:0:0:0:
80,176,43280,1,2,0:0:0:0:
44,300,43430,1,4,0:3:0:0:
224,244,43580,2,0,P|296:228|392:256,1,161.999995056153,0|0,1:0|0:0,0:0:0:0:
380,249,43880,6,0,P|360:189|404:129,1,107.999996704102,4|0,0:3|0:0,0:0:0:0:
504,36,44180,1,0,1:0:0:0:
504,36,44330,2,0,P|462:83|388:75,1,107.999996704102,2|0,0:0|0:0,0:0:0:0:
260,36,44630,1,4,0:3:0:0:
260,36,44780,2,0,P|321:48|351:116,1,107.999996704102,2|0,1:2|0:0,0:0:0:0:
380,249,45080,5,4,0:3:0:0:
380,249,45230,2,0,P|360:298|313:322,1,107.999996704102,0|0,0:0|1:0,0:0:0:0:
176,284,45530,2,0,L|144:288,4,26.9999991760254,2|0|0|0|0,0:0|0:0|0:0|0:0|0:0,0:0:0:0:
256,180,45830,1,4,0:3:0:0:
184,72,45980,2,0,P|153:116|174:191,1,107.999996704102,2|0,1:2|0:0,0:0:0:0:
224,352,46280,6,0,P|255:308|234:233,1,107.999996704102,4|0,0:3|0:0,0:0:0:0:
188,76,46580,1,0,1:0:0:0:
188,76,46730,2,0,L|52:72,1,107.999996704102,2|0,0:0|0:0,0:0:0:0:
162,171,47030,1,4,0:3:0:0:
162,171,47179,2,0,L|55:167,1,107.999996704102,2|0,1:2|0:0,0:0:0:0:
4,292,47480,6,0,P|52:305|109:290,1,107.999996704102,4|0,0:3|0:0,0:0:0:0:
162,171,47780,1,0,1:0:0:0:
239,278,47930,1,2,0:0:0:0:
108,291,48080,1,2,0:0:0:0:
230,201,48230,1,0,1:0:0:0:
100,217,48380,1,4,0:3:0:0:
186,331,48530,1,0,1:0:0:0:
186,331,48605,1,0,1:0:0:0:
186,331,48680,6,0,L|319:320,1,107.999996704102,4|0,0:3|0:0,0:0:0:0:
452,192,48980,1,0,1:0:0:0:
451,192,49130,2,0,P|465:140|448:90,1,107.999996704102,2|0,0:0|0:0,0:0:0:0:
380,200,49430,1,4,0:3:0:0:
380,200,49580,2,0,P|352:154|305:130,1,107.999996704102,2|0,1:2|0:0,0:0:0:0:
132,200,49880,6,0,P|159:154|206:130,1,107.999996704102,4|0,0:3|0:0,0:0:0:0:
68,256,50180,1,0,1:0:0:0:
68,256,50330,2,0,L|60:132,1,107.999996704102,2|0,0:0|0:0,0:0:0:0:
199,22,50630,1,4,0:3:0:0:
199,22,50780,2,0,L|205:129,1,107.999996704102,2|0,1:2|0:0,0:0:0:0:
212,316,51080,6,0,P|240:256|300:236,1,107.999996704102,4|0,0:3|0:0,0:0:0:0:
209,133,51380,1,0,1:0:0:0:
209,133,51530,2,0,P|274:113|331:131,1,107.999996704102,2|0,0:0|0:0,0:0:0:0:
384,12,51830,1,4,0:3:0:0:
384,12,51980,2,0,P|429:62|437:121,1,107.999996704102,2|0,1:2|0:0,0:0:0:0:
420,272,52280,6,0,P|404:220|424:156,1,107.999996704102,4|0,0:3|0:0,0:0:0:0:
508,76,52580,1,0,1:0:0:0:
344,124,52730,1,2,0:0:0:0:
488,156,52880,1,2,0:0:0:0:
324,204,53030,1,4,0:3:0:0:
384,12,53180,2,0,P|302:10|246:65,1,161.999995056153,0|0,1:0|0:0,0:0:0:0:
247,62,53480,6,0,P|209:41|113:73,1,107.999996704102,4|0,0:3|0:0,0:0:0:0:
40,180,53780,1,0,1:0:0:0:
40,180,53930,2,0,L|44:288,1,107.999996704102,2|0,0:0|0:0,0:0:0:0:
112,144,54230,1,4,0:3:0:0:
112,144,54380,2,0,L|116:252,1,107.999996704102,2|0,1:2|0:0,0:0:0:0:
184,108,54680,5,4,0:3:0:0:
184,108,54830,2,0,L|188:216,1,107.999996704102,0|0,0:0|1:0,0:0:0:0:
192,348,55130,1,2,0:0:0:0:
192,347,55280,2,0,P|140:358|102:322,1,107.999996704102,0|4,0:0|0:3,0:0:0:0:
228,288,55580,2,0,P|261:326|253:383,1,107.999996704102,2|0,1:2|0:0,0:0:0:0:
188,216,55880,6,0,L|324:220,1,107.999996704102,4|0,0:3|0:0,0:0:0:0:
192,144,56180,1,0,1:0:0:0:
192,144,56330,2,0,L|196:8,1,107.999996704102,2|0,0:0|0:0,0:0:0:0:
120,140,56630,1,4,0:3:0:0:
120,140,56780,2,0,L|-16:136,1,107.999996704102,2|0,1:2|0:0,0:0:0:0:
188,216,57080,6,0,L|324:220,1,107.999996704102,4|0,0:3|0:0,0:0:0:0:
248,100,57380,1,0,1:0:0:0:
120,208,57530,1,2,0:0:0:0:
180,100,57680,1,2,0:0:0:0:
300,223,57830,1,4,0:3:0:0:
300,223,57980,1,0,1:0:0:0:
216,36,58130,1,0,1:0:0:0:
216,36,58205,1,0,1:0:0:0:
216,36,58280,6,0,B|272:16|319:47|331:98|307:140|307:140|375:148|400:217|371:271,1,323.999990112305,4|0,0:3|0:0,0:0:0:0:
251,288,58880,6,0,P|331:301|382:240,1,168.750006437302,2|0,0:0|0:0,0:0:0:0:
