osu file format v14

[General]
AudioFilename: audio.mp3
AudioLeadIn: 0
PreviewTime: 19280
Countdown: 0
SampleSet: Soft
StackLeniency: 0.4
Mode: 0
LetterboxInBreaks: 0
WidescreenStoryboard: 0

[Editor]
DistanceSpacing: 1.2
BeatDivisor: 4
GridSize: 4
TimelineZoom: 1.9

[Metadata]
Title:210 - Maikaze
TitleUnicode:210 - 舞風
Artist:saradisk
ArtistUnicode:saradisk
Creator:Nozhomi
Version:Destroyer
Source:艦隊これくしょん -艦これ-
Tags:kancolle kantai collection Sarah Emi Bridcutt ブリドカットセーラ恵美 Maruyu Yuzu-
BeatmapID:1017530
BeatmapSetID:476369

[Difficulty]
HPDrainRate:6
CircleSize:4.5
OverallDifficulty:8.5
ApproachRate:9.2
SliderMultiplier:1.8
SliderTickRate:1

[Events]
//Background and Video events
0,0,"Maikaze.jpg",0,0
//Break Periods
//Storyboard Layer 0 (Background)
//Storyboard Layer 1 (Fail)
//Storyboard Layer 2 (Pass)
//Storyboard Layer 3 (Foreground)
//Storyboard Sound Samples

[TimingPoints]
680,300,4,2,1,60,1,0
680,-133.333333333333,4,2,1,60,0,0
9080,-100,4,2,1,70,0,0
9230,-100,4,2,1,50,0,0
9305,-100,4,2,1,60,0,0
9380,-100,4,2,1,70,0,0
10280,-100,4,2,1,80,0,0
19880,-80,4,2,1,80,0,0
39080,-80,4,2,1,80,0,1
48530,-80,4,2,1,80,0,0
48680,-80,4,2,1,80,0,1
58280,-80,4,2,1,80,0,0
58580,-80,4,2,1,20,0,0
58880,-133.333333333333,4,2,1,60,0,0
59180,-133.333333333333,4,2,1,5,0,0

[Colours]
Combo1 : 225,164,57
Combo2 : 183,165,143
Combo3 : 55,103,165
Combo4 : 224,152,159

[HitObjects]
412,64,680,5,4,0:3:0:0:
460,172,830,2,0,P|477:236|459:300,1,135.000005149842,2|2,0:0|0:0,0:0:0:0:
356,360,1280,2,0,L|268:364,1,67.5000025749208,4|0,0:3|0:0,0:0:0:0:
304,269,1580,2,0,L|371:265,1,67.5000025749208,2|0,0:0|0:0,0:0:0:0:
459,301,1880,5,4,0:3:0:0:
336,196,2030,2,0,P|320:120|348:56,1,135.000005149842,2|2,0:0|0:0,0:0:0:0:
464,16,2480,2,0,P|440:36|400:48,1,67.5000025749208,4|0,0:3|0:0,0:0:0:0:
288,16,2780,1,2,0:0:0:0:
288,16,3080,5,4,0:3:0:0:
180,64,3230,2,0,L|32:56,1,135.000005149842,2|2,0:0|0:0,0:0:0:0:
104,160,3680,2,0,P|108:193|104:226,1,67.5000025749208,4|0,0:3|0:0,0:0:0:0:
52,328,3980,1,2,0:0:0:0:
104,160,4280,5,4,0:3:0:0:
204,232,4430,2,0,B|272:248|272:248|334:231,1,135.000005149842,2|2,0:0|0:0,0:0:0:0:
452,183,4880,2,0,P|424:203|405:230,1,67.5000025749208,4|0,0:3|0:0,0:0:0:0:
383,349,5180,1,2,0:0:0:0:
405,229,5480,5,4,0:3:0:0:
386,352,5630,2,0,P|373:286|335:231,1,135.000005149842,2|2,0:0|0:0,0:0:0:0:
232,172,6080,2,0,L|164:176,1,67.5000025749208,4|0,0:3|0:0,0:0:0:0:
192,72,6379,1,2,0:0:0:0:
288,344,6680,5,4,0:3:0:0:
216,248,6830,2,0,B|64:237,1,135.000005149842,2|2,0:0|0:0,0:0:0:0:
4,152,7280,1,4,0:3:0:0:
81,238,7430,2,0,P|84:271|78:304,2,67.5000025749208,0|2|2,0:0|0:0|0:0,0:0:0:0:
60,104,7880,5,4,0:3:0:0:
132,188,8030,2,0,P|149:234|140:332,1,135.000005149842,2|2,0:0|0:0,0:0:0:0:
228,236,8480,2,0,P|228:194|238:169,1,67.5000025749208,4|0,0:3|0:0,0:0:0:0:
324,216,8780,2,0,P|353:187|378:175,1,67.5000025749208,2|0,0:0|0:0,0:0:0:0:
292,304,9080,5,4,0:3:0:0:
436,300,9230,1,0,1:0:0:0:
436,300,9305,1,0,1:0:0:0:
436,300,9380,1,0,1:0:0:0:
304,148,9530,2,0,P|304:104|340:36,1,90,4|2,0:3|0:0,0:0:0:0:
192,61,9830,2,0,P|207:103|208:148,1,90,4|0,0:3|1:0,0:0:0:0:
140,256,10130,1,0,1:0:0:0:
140,256,10205,1,0,1:0:0:0:
140,256,10280,6,0,L|32:252,1,90,4|2,0:3|0:0,0:0:0:0:
104,368,10580,1,0,1:0:0:0:
213,235,10730,2,0,P|219:190|207:148,1,90,4|2,0:3|0:0,0:0:0:0:
140,40,11030,1,4,0:3:0:0:
296,88,11180,1,0,1:0:0:0:
107,164,11480,6,0,P|63:172|16:164,1,90,4|2,0:3|0:0,0:0:0:0:
64,48,11780,1,0,1:0:0:0:
184,164,11930,2,0,L|180:268,1,90,4|2,0:3|0:0,0:0:0:0:
256,356,12230,1,4,0:3:0:0:
100,272,12380,1,0,1:0:0:0:
344,200,12680,6,0,L|448:204,1,90,4|2,0:3|0:0,0:0:0:0:
392,320,12980,1,0,1:0:0:0:
276,200,13130,2,0,P|252:156|260:80,1,90,4|2,0:3|0:0,0:0:0:0:
332,24,13430,1,4,0:3:0:0:
168,108,13580,1,0,1:0:0:0:
434,203,13880,6,0,P|429:247|406:286,1,90,4|2,0:3|0:0,0:0:0:0:
312,368,14180,1,0,1:0:0:0:
276,200,14330,2,0,L|280:88,1,90,4|2,0:3|0:0,0:0:0:0:
384,40,14630,1,4,0:3:0:0:
208,152,14780,1,0,1:0:0:0:
20,28,15080,6,0,L|24:117,1,90,4|2,0:3|0:0,0:0:0:0:
36,244,15380,1,0,1:0:0:0:
108,104,15530,2,0,P|140:68|184:52,1,90,4|2,0:3|0:0,0:0:0:0:
304,44,15830,1,4,0:3:0:0:
248,156,15980,1,0,1:0:0:0:
472,272,16280,6,0,P|484:312|472:364,1,90,4|2,0:3|0:0,0:0:0:0:
356,320,16580,1,0,1:0:0:0:
208,360,16730,2,0,P|163:368|120:359,1,90,4|2,0:3|0:0,0:0:0:0:
24,276,17030,1,4,0:3:0:0:
140,228,17180,1,0,1:0:0:0:
356,320,17480,6,0,L|360:208,1,90,4|2,0:3|0:0,0:0:0:0:
372,104,17780,1,0,1:0:0:0:
464,232,17930,2,0,B|474:277|474:277|464:320,1,90,4|2,0:3|0:0,0:0:0:0:
308,272,18230,1,4,0:3:0:0:
428,160,18380,1,0,1:0:0:0:
256,320,18680,5,4,0:3:0:0:
428,160,18830,1,2,1:2:0:0:
263,327,19130,5,0,1:0:0:0:
263,327,19205,1,4,0:3:0:0:
263,327,19280,1,0,1:0:0:0:
220,120,19430,1,12,0:3:0:0:
428,160,19580,1,0,1:0:0:0:
164,268,19730,1,0,1:0:0:0:
164,268,19805,1,0,1:0:0:0:
163,268,19880,6,0,P|104:288|44:252,1,112.5,4|0,0:3|0:0,0:0:0:0:
59,114,20180,2,0,P|111:95|163:116,1,112.5,0|2,1:0|0:0,0:0:0:0:
296,200,20480,2,0,L|356:196,2,56.25,2|0|4,0:0|0:0|0:3,0:0:0:0:
456,144,20780,2,0,P|484:96|468:28,1,112.5,0|0,1:0|0:0,0:0:0:0:
320,12,21080,6,0,P|294:60|304:115,1,112.5,4|0,0:3|0:0,0:0:0:0:
384,252,21380,1,0,1:0:0:0:
388,76,21530,1,2,0:0:0:0:
228,160,21680,2,0,L|148:168,2,56.25,2|0|4,0:0|0:0|0:3,0:0:0:0:
300,300,21980,1,0,1:0:0:0:
384,164,22130,1,2,0:0:0:0:
200,284,22280,6,0,P|147:294|80:244,1,112.5,4|0,0:3|0:0,0:0:0:0:
44,120,22580,2,0,L|36:236,1,112.5,0|2,1:0|0:0,0:0:0:0:
128,96,22880,1,2,0:0:0:0:
132,68,22955,1,0,0:0:0:0:
136,40,23030,1,4,0:3:0:0:
208,192,23180,2,0,P|260:208|313:191,1,112.5,0|0,1:0|0:0,0:0:0:0:
316,32,23480,6,0,P|263:14|210:31,1,112.5,4|0,0:3|0:0,0:0:0:0:
124,188,23780,2,0,L|132:304,1,112.5,0|2,1:0|0:0,0:0:0:0:
300,228,24080,1,2,0:0:0:0:
300,228,24155,1,0,0:0:0:0:
300,228,24230,1,4,0:3:0:0:
124,188,24380,1,0,1:0:0:0:
220,344,24530,1,2,0:0:0:0:
228,124,24680,5,4,0:3:0:0:
256,280,24830,1,0,0:0:0:0:
388,192,24980,2,0,P|452:188|496:224,1,112.5,0|2,1:0|0:0,0:0:0:0:
400,344,25280,1,2,0:0:0:0:
400,344,25355,1,0,0:0:0:0:
400,344,25430,1,4,0:3:0:0:
312,200,25580,2,0,L|316:80,1,112.5,0|0,1:0|0:0,0:0:0:0:
164,12,25880,6,4,P|192:68|244:104,1,112.5,4|0,0:3|0:0,0:3:0:0:
400,104,26180,2,0,P|442:68|466:17,1,112.5,0|2,1:0|0:0,0:0:0:0:
323,95,26480,1,2,0:0:0:0:
323,95,26555,1,0,0:0:0:0:
323,95,26630,1,4,0:3:0:0:
400,232,26780,2,0,P|456:236|511:225,1,112.5,0|2,1:0|0:0,0:0:0:0:
320,208,27080,6,0,P|260:200|208:208,1,112.5,4|0,0:3|0:0,0:0:0:0:
104,360,27380,2,0,P|140:312|160:263,1,112.5,0|2,1:0|0:0,0:0:0:0:
96,100,27680,1,2,0:0:0:0:
96,100,27755,1,0,0:0:0:0:
96,100,27830,1,4,0:3:0:0:
209,208,27980,1,0,1:0:0:0:
232,32,28130,1,0,0:0:0:0:
124,176,28280,6,0,L|4:166,1,112.5,4|0,0:3|0:0,0:0:0:0:
220,120,28580,1,0,1:0:0:0:
136,20,28730,1,2,0:0:0:0:
312,88,28880,1,2,0:0:0:0:
104,96,29030,1,4,0:3:0:0:
296,176,29180,1,0,1:0:0:0:
108,252,29330,1,0,1:0:0:0:
108,252,29405,1,0,1:0:0:0:
108,252,29480,6,0,P|127:303|176:329,1,112.5,4|0,0:3|0:0,0:0:0:0:
403,252,29780,2,0,P|384:303|335:329,1,112.5,0|2,1:0|0:0,0:0:0:0:
256,164,30080,2,0,B|252:136|260:136|256:104,2,56.25,2|0|4,0:0|0:0|0:3,0:0:0:0:
424,100,30380,2,0,P|393:69|328:64,1,112.5,0|0,1:0|0:0,0:0:0:0:
159,128,30680,6,0,P|190:159|255:164,1,112.5,4|0,0:3|0:0,0:0:0:0:
88,72,30980,2,0,L|92:192,1,112.5,0|2,1:0|0:0,0:0:0:0:
100,340,31280,1,2,0:0:0:0:
99,312,31355,1,0,0:0:0:0:
98,284,31430,1,4,0:3:0:0:
12,152,31580,1,0,1:0:0:0:
176,224,31730,1,2,0:0:0:0:
24,332,31880,6,0,L|36:183,1,112.5,4|0,0:3|0:0,0:0:0:0:
88,72,32180,2,0,P|140:48|208:68,1,112.5,0|2,1:0|0:0,0:0:0:0:
263,210,32480,1,2,0:0:0:0:
263,210,32555,1,0,0:0:0:0:
263,210,32630,1,4,0:3:0:0:
319,57,32780,2,0,P|373:48|424:72,1,112.5,0|0,1:0|0:0,0:0:0:0:
464,256,33080,6,0,L|470:143,1,112.5,4|0,0:3|0:0,0:0:0:0:
388,304,33380,2,0,L|381:191,1,112.5,0|2,1:0|0:0,0:0:0:0:
312,360,33680,1,2,0:0:0:0:
312,360,33755,1,0,0:0:0:0:
312,360,33830,1,4,0:3:0:0:
381,191,33980,1,0,1:0:0:0:
232,312,34130,1,2,0:0:0:0:
148,152,34280,6,0,P|144:84|184:40,1,112.5,4|0,0:3|0:0,0:0:0:0:
343,50,34580,2,0,P|371:97|364:152,1,112.5,0|2,1:0|0:0,0:0:0:0:
232,240,34880,1,2,0:0:0:0:
204,236,34955,1,0,0:0:0:0:
176,232,35030,1,4,0:3:0:0:
320,320,35180,2,0,L|456:312,1,112.5,0|0,1:0|0:0,0:0:0:0:
364,151,35480,5,4,0:3:0:0:
232,240,35630,2,0,P|205:292|216:356,2,112.5,0|0|2,0:0|1:0|0:0,0:0:0:0:
364,151,36080,1,2,0:0:0:0:
360,124,36155,1,0,0:0:0:0:
356,96,36230,1,4,0:3:0:0:
204,144,36380,1,0,1:0:0:0:
364,151,36530,1,2,0:0:0:0:
256,8,36680,5,4,0:3:0:0:
284,200,36830,1,0,0:0:0:0:
360,32,36980,1,0,1:0:0:0:
168,72,37130,1,2,0:0:0:0:
364,151,37280,2,0,L|432:155,2,56.25,2|0|4,0:0|0:0|0:3,0:0:0:0:
176,200,37580,2,0,P|121:211|68:160,1,112.5,0|0,1:0|0:0,0:0:0:0:
64,24,37880,5,4,0:3:0:0:
236,148,38030,1,2,0:0:0:0:
236,148,38105,1,0,0:0:0:0:
236,148,38180,2,0,L|232:300,1,112.5,0|0,1:0|0:0,0:0:0:0:
368,344,38480,1,2,0:0:0:0:
368,344,38555,1,0,0:0:0:0:
368,344,38630,1,4,0:3:0:0:
144,320,38780,1,0,1:0:0:0:
344,216,38930,1,0,1:0:0:0:
344,216,39005,1,0,1:0:0:0:
344,216,39080,6,0,L|341:103,1,112.5,4|0,0:3|0:0,0:0:0:0:
488,40,39380,1,0,1:0:0:0:
488,40,39530,2,0,P|506:85|484:176,1,112.5,2|0,0:0|0:0,0:0:0:0:
491,182,39755,1,0,0:0:0:0:
472,212,39830,1,4,0:3:0:0:
288,268,39980,2,0,L|168:264,1,112.5,2|0,1:2|0:0,0:0:0:0:
360,300,40280,6,0,L|480:296,1,112.5,4|0,0:3|0:0,0:0:0:0:
289,377,40580,1,0,1:0:0:0:
289,377,40730,2,0,P|277:321|289:265,1,112.5,2|0,0:0|0:0,0:0:0:0:
396,120,41030,1,4,0:3:0:0:
396,120,41180,2,0,P|344:152|252:160,1,112.5,2|0,1:2|0:0,0:0:0:0:
116,120,41480,6,0,P|168:152|260:160,1,112.5,4|0,0:3|0:0,0:0:0:0:
44,76,41780,1,0,1:0:0:0:
44,76,41930,2,0,L|52:208,1,112.5,2|0,0:0|0:0,0:0:0:0:
56,224,42155,1,0,0:0:0:0:
60,260,42230,1,4,0:3:0:0:
208,360,42380,2,0,P|208:320|176:240,1,112.5,2|0,1:2|0:0,0:0:0:0:
304,360,42680,6,0,P|304:320|336:240,1,112.5,4|0,0:3|0:0,0:0:0:0:
472,184,42980,1,0,1:0:0:0:
238,137,43130,1,2,0:0:0:0:
410,314,43280,1,2,0:0:0:0:
370,75,43430,1,4,0:3:0:0:
256,283,43580,2,0,P|200:304|116:288,1,112.5,0|2,1:0|0:0,0:0:0:0:
72,232,43805,1,0,0:0:0:0:
72,232,43880,6,0,P|71:172|115:98,1,112.5,4|0,0:3|0:0,0:0:0:0:
272,76,44180,1,0,1:0:0:0:
272,76,44330,2,0,P|206:98|146:90,1,112.5,2|0,0:0|0:0,0:0:0:0:
140,72,44555,1,0,0:0:0:0:
116,44,44630,1,4,0:3:0:0:
216,168,44780,2,0,P|282:190|342:182,1,112.5,2|0,1:2|0:0,0:0:0:0:
472,112,45080,5,4,0:3:0:0:
472,112,45230,2,0,L|464:272,1,112.5,0|0,0:0|1:0,0:0:0:0:
372,352,45530,2,0,L|420:356,4,28.125,2|0|0|0|0,0:0|0:0|0:0|0:0|0:0,0:0:0:0:
256,244,45830,1,4,0:3:0:0:
139,352,45980,2,0,P|85:343|47:303,1,112.5,2|0,1:2|0:0,0:0:0:0:
150,142,46280,6,0,P|154:198|133:250,1,112.5,4|0,0:3|0:0,0:0:0:0:
200,88,46580,1,0,1:0:0:0:
200,88,46730,2,0,P|256:100|316:156,1,112.5,2|0,0:0|0:0,0:0:0:0:
321,161,46955,1,0,0:0:0:0:
344,188,47030,1,4,0:3:0:0:
292,356,47180,2,0,P|276:284|300:228,1,112.5,2|0,1:2|0:0,0:0:0:0:
424,132,47480,6,0,L|416:16,1,112.5,4|0,0:3|0:0,0:0:0:0:
299,132,47780,1,0,1:0:0:0:
500,32,47930,1,2,0:0:0:0:
424,244,48080,1,2,0:0:0:0:
344,32,48230,1,4,0:3:0:0:
286,248,48380,1,0,1:0:0:0:
204,48,48530,1,0,1:0:0:0:
204,48,48605,1,0,1:0:0:0:
204,48,48680,6,0,P|162:40|120:120,1,112.5,4|0,0:3|0:0,0:0:0:0:
232,192,48980,1,0,1:0:0:0:
116,298,49130,2,0,P|150:340|203:336,1,112.5,2|0,0:0|0:0,0:0:0:0:
232,316,49355,1,0,0:0:0:0:
260,296,49430,1,4,0:3:0:0:
204,140,49580,2,0,P|152:80|148:24,1,112.5,2|0,1:2|0:0,0:0:0:0:
365,49,49880,6,0,P|349:102|308:140,1,112.5,4|0,0:3|0:0,0:0:0:0:
136,196,50180,1,0,1:0:0:0:
136,196,50330,2,0,L|0:188,1,112.5,2|0,0:0|0:0,0:0:0:0:
208,143,50630,1,4,0:3:0:0:
208,143,50780,2,0,P|224:188|200:260,1,112.5,2|0,1:2|0:0,0:0:0:0:
218,57,51080,6,0,P|261:77|295:145,1,112.5,4|0,0:3|0:0,0:0:0:0:
280,304,51380,1,0,1:0:0:0:
280,304,51530,2,0,P|276:256|318:193,1,112.5,2|0,0:0|0:0,0:0:0:0:
336,179,51755,1,0,0:0:0:0:
368,160,51830,1,4,0:3:0:0:
499,288,51980,2,0,P|444:292|389:278,1,112.5,2|0,1:2|0:0,0:0:0:0:
293,131,52280,6,0,L|297:15,1,112.5,4|0,0:3|0:0,0:0:0:0:
432,86,52580,1,0,1:0:0:0:
264,248,52730,1,2,0:0:0:0:
299,15,52880,1,2,0:0:0:0:
409,223,53030,1,4,0:3:0:0:
91,136,53180,2,0,P|141:113|196:119,1,112.5,0|2,1:0|0:0,0:0:0:0:
313,124,53405,1,0,0:0:0:0:
313,124,53480,6,0,P|315:62|298:12,1,112.5,4|0,0:3|0:0,0:0:0:0:
284,208,53780,1,0,1:0:0:0:
284,208,53930,2,0,P|281:269|298:319,1,112.5,2|0,0:0|0:0,0:0:0:0:
319,348,54155,1,0,0:0:0:0:
344,376,54230,1,4,0:3:0:0:
188,304,54380,2,0,P|124:300|72:312,1,112.5,2|0,1:2|0:0,0:0:0:0:
301,321,54680,5,4,0:3:0:0:
301,321,54830,2,0,P|356:331|411:327,1,112.5,0|0,0:0|1:0,0:0:0:0:
500,196,55130,1,2,0:0:0:0:
348,146,55280,2,0,P|293:151|256:192,1,112.5,0|4,0:0|0:3,0:0:0:0:
163,46,55580,2,0,P|218:51|256:92,1,112.5,2|0,1:2|0:0,0:0:0:0:
212,344,55880,6,0,P|189:293|205:241,1,112.5,4|0,0:3|0:0,0:0:0:0:
352,152,56180,1,0,1:0:0:0:
352,152,56330,2,0,L|464:155,1,112.5,2|0,0:0|0:0,0:0:0:0:
488,184,56555,1,0,0:0:0:0:
512,212,56630,1,4,0:3:0:0:
377,83,56780,2,0,P|305:91|281:163,1,112.5,2|0,1:2|0:0,0:0:0:0:
272,312,57080,6,0,P|284:248|264:192,1,112.5,4|0,0:3|0:0,0:0:0:0:
140,116,57380,1,0,1:0:0:0:
356,176,57530,1,2,0:0:0:0:
156,280,57680,1,2,0:0:0:0:
272,88,57830,1,4,0:3:0:0:
272,88,57980,1,0,1:0:0:0:
272,312,58130,1,0,1:0:0:0:
272,312,58205,1,0,1:0:0:0:
272,312,58280,6,0,P|310:194|219:278,1,337.5,4|0,0:3|0:0,0:0:0:0:
72,274,58880,6,0,P|148:242|221:280,1,168.750006437302,2|0,0:0|0:0,0:0:0:0:
