osu file format v14

[General]
AudioFilename: audio.mp3
AudioLeadIn: 0
PreviewTime: 19280
Countdown: 0
SampleSet: Soft
StackLeniency: 0.7
Mode: 0
LetterboxInBreaks: 0
WidescreenStoryboard: 0

[Editor]
DistanceSpacing: 1.4
BeatDivisor: 4
GridSize: 4
TimelineZoom: 1.9

[Metadata]
Title:210 - Maikaze
TitleUnicode:210 - 舞風
Artist:saradisk
ArtistUnicode:saradisk
Creator:Nozhomi
Version:Advanced
Source:艦隊これくしょん -艦これ-
Tags:kancolle kantai collection Sarah Emi Bridcutt ブリドカットセーラ恵美 Maruyu Yuzu-
BeatmapID:1593162
BeatmapSetID:476369

[Difficulty]
HPDrainRate:4
CircleSize:3.5
OverallDifficulty:5
ApproachRate:6.5
SliderMultiplier:1.1
SliderTickRate:1

[Events]
//Background and Video events
0,0,"Maikaze.jpg",0,0
//Break Periods
//Storyboard Layer 0 (Background)
//Storyboard Layer 1 (Fail)
//Storyboard Layer 2 (Pass)
//Storyboard Layer 3 (Foreground)
//Storyboard Sound Samples

[TimingPoints]
680,300,4,2,1,60,1,0
680,-125,4,2,1,60,0,0
9080,-100,4,2,1,70,0,0
9230,-100,4,2,1,50,0,0
9305,-100,4,2,1,60,0,0
9380,-100,4,2,1,70,0,0
10280,-100,4,2,1,80,0,0
19880,-100,4,2,1,80,0,0
39080,-100,4,2,1,80,0,1
48530,-100,4,2,1,80,0,0
48680,-100,4,2,1,80,0,1
58280,-100,4,2,1,80,0,0
58580,-100,4,2,1,20,0,0
58880,-100,4,2,1,60,0,0
59180,-100,4,2,1,5,0,0

[Colours]
Combo1 : 225,164,57
Combo2 : 183,165,143
Combo3 : 55,103,165
Combo4 : 224,152,159

[HitObjects]
314,79,680,5,4,0:3:0:0:
314,79,830,2,0,P|285:47|190:41,1,132,2|2,0:0|0:0,0:0:0:0:
101,109,1580,1,0,0:0:0:0:
184,200,1880,5,4,0:3:0:0:
144,248,2030,2,0,L|144:356,2,88,2|2|0,0:0|0:0|0:0,0:0:0:0:
184,200,2780,1,2,0:0:0:0:
296,248,3080,5,4,0:3:0:0:
296,248,3230,2,0,P|336:252|419:192,1,132,2|2,0:0|0:0,0:0:0:0:
488,109,3980,1,0,0:0:0:0:
392,32,4280,5,4,0:3:0:0:
332,20,4430,2,0,P|288:21|248:39,2,88,2|2|0,0:0|0:0|0:0,0:0:0:0:
392,32,5180,1,2,0:0:0:0:
344,147,5480,5,4,0:3:0:0:
344,147,5630,2,0,L|193:139,1,132,2|2,0:0|0:0,0:0:0:0:
102,196,6380,1,0,0:0:0:0:
184,288,6680,5,4,0:3:0:0:
220,340,6830,2,0,P|262:352|305:347,2,88,2|2|0,0:0|0:0|0:0,0:0:0:0:
184,288,7580,1,2,0:0:0:0:
68,332,7880,5,4,0:3:0:0:
68,332,8030,2,0,P|76:288|64:228,1,88,2|2,0:0|0:0,0:0:0:0:
36,196,8480,2,0,P|21:179|13:159,2,44,4|0|2,0:3|0:0|0:0,0:0:0:0:
176,132,9080,5,4,0:3:0:0:
240,176,9230,2,0,L|294:173,1,55,0|0,1:0|1:0,0:0:0:0:
364,140,9530,2,0,L|420:138,2,55,4|2|4,0:3|0:0|0:3,0:0:0:0:
360,216,9980,2,0,P|363:243|375:267,1,55,0|0,1:0|1:0,0:0:0:0:
428,324,10280,5,4,0:3:0:0:
428,324,10431,2,0,P|376:312|308:320,1,110,2|4,0:0|0:3,0:0:0:0:
256,360,10880,2,0,P|232:364|201:357,1,55,2|4,0:0|0:3,0:0:0:0:
140,312,11180,1,0,1:0:0:0:
40,196,11480,5,4,0:3:0:0:
72,124,11630,2,0,L|68:8,1,110,2|4,0:0|0:3,0:0:0:0:
144,20,12080,2,0,L|147:129,1,110,2|0,0:0|1:0,0:0:0:0:
224,264,12680,5,4,0:3:0:0:
224,264,12830,2,0,P|284:280|356:256,1,110,2|4,0:0|0:3,0:0:0:0:
376,208,13280,2,0,L|380:132,1,55,2|4,0:0|0:3,0:0:0:0:
416,84,13580,1,0,1:0:0:0:
292,176,13880,5,4,0:3:0:0:
236,124,14030,2,0,L|229:-12,1,110,2|4,0:0|0:3,0:0:0:0:
156,28,14480,2,0,L|161:137,1,110,2|0,0:0|1:0,0:0:0:0:
116,284,15080,5,4,0:3:0:0:
116,284,15230,2,0,P|54:258|26:204,1,110,2|4,0:0|0:3,0:0:0:0:
23,148,15680,2,0,P|33:122|50:101,1,55,2|4,0:0|0:3,0:0:0:0:
120,64,15980,1,0,1:0:0:0:
248,152,16280,5,4,0:3:0:0:
316,189,16430,2,0,P|367:205|419:189,1,110,2|4,0:0|0:3,0:0:0:0:
418,111,16880,2,0,P|366:95|315:112,1,110,2|0,0:0|1:0,0:0:0:0:
248,248,17480,5,4,0:3:0:0:
248,248,17630,2,0,L|248:360,1,110,2|4,0:0|0:3,0:0:0:0:
172,364,18080,2,0,L|117:364,2,55,2|4|0,0:0|0:3|1:0,0:0:0:0:
324,364,18680,5,4,0:3:0:0:
384,316,18830,2,0,P|408:268|404:188,1,110,2|0,1:2|1:0,0:0:0:0:
384,140,19280,2,0,P|355:156|337:202,1,55,0|12,1:0|0:3,0:0:0:0:
276,136,19580,2,0,P|256:116|228:108,1,55,0|0,1:0|1:0,0:0:0:0:
153,105,19880,6,0,P|201:77|213:18,1,110,4|0,0:3|1:0,0:0:0:0:
138,28,20330,1,2,0:0:0:0:
80,79,20480,2,0,P|73:106|79:133,2,55,2|4|0,0:0|0:3|1:0,0:0:0:0:
120,228,21080,6,0,P|128:292|84:364,1,110,4|0,0:3|1:0,0:0:0:0:
44,372,21530,1,2,0:0:0:0:
20,300,21680,2,0,L|20:236,1,55,2|4,0:0|0:3,0:0:0:0:
56,176,21980,2,0,L|56:112,1,55,0|2,1:0|0:0,0:0:0:0:
92,52,22280,6,0,P|148:56|192:112,1,110,4|0,0:3|1:0,0:0:0:0:
212,244,22880,2,0,P|220:216|244:188,1,55,2|4,0:0|0:3,0:0:0:0:
296,148,23180,2,0,P|324:140|360:147,1,55,0|0,1:0|0:0,0:0:0:0:
400,200,23480,6,0,L|404:336,1,110,4|0,0:3|1:0,0:0:0:0:
481,325,23930,1,2,0:0:0:0:
481,325,24080,2,0,L|477:215,1,110,2|0,0:0|1:0,0:0:0:0:
452,140,24530,1,2,0:0:0:0:
400,84,24680,6,0,P|368:68|315:73,1,55,4|0,0:3|0:0,0:0:0:0:
272,56,24980,2,0,P|262:30|262:2,2,55,0|2|2,1:0|0:0|0:0,0:0:0:0:
300,128,25430,2,0,P|308:184|292:248,1,110,4|0,0:3|0:0,0:0:0:0:
256,300,25880,5,4,0:3:0:0:
214,235,26030,2,0,P|203:182|212:128,1,110,2|2,0:0|0:0,0:0:0:0:
220,52,26480,2,0,L|160:60,1,55,2|4,0:0|0:3,0:0:0:0:
96,92,26780,2,0,L|41:84,1,55,0|2,1:0|0:0,0:0:0:0:
36,160,27080,6,0,P|72:224|68:280,1,110,4|0,0:3|1:0,0:0:0:0:
56,336,27530,2,0,L|1:332,2,55,2|2|4,0:0|0:0|0:3,0:0:0:0:
128,312,27980,2,0,L|182:315,1,55,0|0,1:0|0:0,0:0:0:0:
247,355,28280,6,0,P|300:367|350:345,1,110,4|0,0:3|1:0,0:0:0:0:
320,194,28880,1,2,0:0:0:0:
174,213,29180,1,0,1:0:0:0:
174,213,29330,1,0,1:0:0:0:
174,213,29480,6,0,P|162:266|184:316,1,110,4|0,0:3|1:0,0:0:0:0:
247,355,29930,1,2,0:0:0:0:
294,293,30080,2,0,L|294:221,2,55,2|4|0,0:0|0:3|1:0,0:0:0:0:
444,320,30680,6,0,P|456:266|443:213,1,110,4|0,0:3|1:0,0:0:0:0:
400,152,31130,1,2,0:0:0:0:
332,120,31280,2,0,L|260:116,1,55,2|4,0:0|0:3,0:0:0:0:
204,140,31580,2,0,L|149:136,1,55,0|2,1:0|0:0,0:0:0:0:
80,104,31880,6,0,P|108:72|184:68,1,110,4|0,0:3|1:0,0:0:0:0:
262,192,32480,2,0,L|316:195,1,55,2|4,0:0|0:3,0:0:0:0:
384,156,32780,2,0,L|438:159,1,55,0|0,1:0|0:0,0:0:0:0:
495,211,33080,6,0,P|497:266|467:310,1,110,4|0,0:3|1:0,0:0:0:0:
408,356,33530,1,2,0:0:0:0:
408,356,33680,2,0,P|357:376|305:362,1,110,2|0,0:0|1:0,0:0:0:0:
256,304,34130,1,2,0:0:0:0:
294,237,34280,6,0,P|309:185|294:133,1,110,4|0,0:3|1:0,0:0:0:0:
217,133,34730,2,0,P|201:184|217:236,1,110,2|4,0:0|0:3,0:0:0:0:
256,304,35180,2,0,P|231:317|204:316,1,55,0|0,1:0|0:0,0:0:0:0:
140,276,35480,6,0,L|30:276,1,110,4|0,0:3|1:0,0:0:0:0:
28,356,35930,1,2,0:0:0:0:
28,356,36080,2,0,L|138:356,1,110,2|0,0:0|1:0,0:0:0:0:
205,316,36530,2,0,L|264:316,1,55,2|4,0:0|0:3,0:0:0:0:
336,332,36830,6,0,P|376:320|412:244,1,110,2|2,0:0|0:0,0:0:0:0:
408,188,37280,2,0,P|382:140|332:120,1,110,2|0,0:0|1:0,0:0:0:0:
256,140,37730,1,0,0:0:0:0:
189,178,37880,6,0,B|133:186|133:186|81:178,1,110,4|0,0:3|1:0,0:0:0:0:
81,100,38330,2,0,B|133:92|133:92|189:100,1,110,2|4,0:0|0:3,0:0:0:0:
264,148,38780,1,0,1:0:0:0:
264,148,38930,1,0,1:0:0:0:
264,148,39080,6,0,P|268:200|233:246,1,110,4|0,0:3|1:0,0:0:0:0:
204,316,39530,2,0,P|247:286|304:293,1,110,2|4,0:0|0:3,0:0:0:0:
364,340,39980,1,2,1:2:0:0:
436,204,40280,6,0,L|432:60,1,110,4|0,0:3|1:0,0:0:0:0:
356,80,40730,2,0,L|359:189,1,110,2|4,0:0|0:3,0:0:0:0:
284,168,41180,1,2,1:2:0:0:
192,44,41480,6,0,P|136:46|92:78,1,110,4|0,0:3|1:0,0:0:0:0:
60,146,41930,2,0,P|62:201|94:245,1,110,2|4,0:0|0:3,0:0:0:0:
164,280,42380,1,2,1:2:0:0:
256,156,42680,5,4,0:3:0:0:
347,279,42980,2,0,P|374:287|401:283,1,55,0|2,1:0|0:0,0:0:0:0:
456,228,43280,2,0,P|482:220|509:224,1,55,2|4,0:0|0:3,0:0:0:0:
487,300,43580,1,0,1:0:0:0:
372,200,43880,6,0,P|360:144|376:96,1,110,4|0,0:3|1:0,0:0:0:0:
308,60,44330,2,0,P|265:98|215:108,1,110,2|4,0:0|0:3,0:0:0:0:
140,88,44780,1,2,1:2:0:0:
8,8,45080,5,4,0:3:0:0:
12,84,45230,2,0,L|16:220,1,110,2|2,0:0|0:0,0:0:0:0:
52,260,45680,2,0,P|72:267|115:267,1,55,0|4,0:0|0:3,0:0:0:0:
125,344,45980,2,0,P|145:335|175:304,1,55,2|0,1:2|0:0,0:0:0:0:
212,248,46280,6,0,P|197:195|216:145,1,110,4|0,0:3|1:0,0:0:0:0:
295,145,46730,2,0,P|314:195|299:248,1,110,2|4,0:0|0:3,0:0:0:0:
256,312,47180,1,2,1:2:0:0:
105,268,47480,5,4,0:3:0:0:
20,140,47780,2,0,P|32:104|56:84,1,55,0|2,1:0|0:0,0:0:0:0:
104,44,48080,2,0,P|140:32|170:40,1,55,2|4,0:0|0:3,0:0:0:0:
232,80,48380,1,0,1:0:0:0:
232,80,48530,1,0,1:0:0:0:
231,79,48680,6,0,P|283:96|336:84,1,110,4|0,0:3|1:0,0:0:0:0:
412,72,49130,2,0,P|371:108|355:160,1,110,2|4,0:0|0:3,0:0:0:0:
372,236,49580,1,2,1:2:0:0:
288,364,49880,6,0,P|276:310|239:270,1,110,4|0,0:3|1:0,0:0:0:0:
171,236,50330,2,0,P|117:228|66:249,1,110,2|4,0:0|0:3,0:0:0:0:
12,304,50780,1,2,1:2:0:0:
63,160,51080,6,0,L|60:32,1,110,4|0,0:3|1:0,0:0:0:0:
136,32,51530,2,0,L|139:141,1,110,2|4,0:0|0:3,0:0:0:0:
216,128,51980,1,2,1:2:0:0:
332,28,52280,1,4,0:3:0:0:
455,119,52580,6,0,P|457:147|451:174,1,55,0|2,1:0|0:0,0:0:0:0:
411,240,52880,2,0,P|392:260|369:275,1,55,2|4,0:0|0:3,0:0:0:0:
292,276,53180,1,0,1:0:0:0:
208,148,53480,6,0,P|202:78|228:28,1,110,4|0,0:3|1:0,0:0:0:0:
295,42,53930,2,0,P|312:94|304:148,1,110,2|4,0:0|0:3,0:0:0:0:
256,208,54380,1,2,1:2:0:0:
140,308,54680,5,4,0:3:0:0:
140,308,54830,2,0,P|172:344|240:360,1,110,2|2,0:0|0:0,0:0:0:0:
300,332,55280,2,0,L|292:232,1,55,0|4,0:0|0:3,0:0:0:0:
348,220,55580,2,0,L|356:120,1,55,2|0,1:2|0:0,0:0:0:0:
284,128,55880,6,0,P|272:72|216:28,1,110,4|0,0:3|1:0,0:0:0:0:
160,44,56330,2,0,P|121:82|111:135,1,110,2|4,0:0|0:3,0:0:0:0:
140,208,56780,1,2,1:2:0:0:
256,308,57080,5,4,0:3:0:0:
372,208,57380,2,0,P|400:204|436:220,1,55,0|2,1:0|0:0,0:0:0:0:
480,268,57680,2,0,P|484:296|468:332,1,55,2|4,0:0|0:3,0:0:0:0:
408,356,57980,1,0,1:0:0:0:
408,356,58130,1,0,1:0:0:0:
408,356,58280,6,0,B|272:312|193:344|193:344|244:296|232:204,1,357.5
