osu file format v14

[General]
AudioFilename: audio.mp3
AudioLeadIn: 0
PreviewTime: 19253
Countdown: 0
SampleSet: Normal
StackLeniency: 0.7
Mode: 1
LetterboxInBreaks: 0
WidescreenStoryboard: 0

[Editor]
DistanceSpacing: 1.3
BeatDivisor: 4
GridSize: 32
TimelineZoom: 1.8

[Metadata]
Title:210 - Maikaze
TitleUnicode:210 - 舞風
Artist:saradisk
ArtistUnicode:saradisk
Creator:Jaltzu
Version:Inner Oni
Source:
Tags:japanese novelty electronic dance music edm dnb drum and bass video game saradisc sara 皿 艦隊これくしょん -艦これ- kancolle kankore kantai collection ブリドカットセーラ恵美 bridcutt sarah emi zedther
BeatmapID:2397489
BeatmapSetID:1148296

[Difficulty]
HPDrainRate:5
CircleSize:2
OverallDifficulty:6.5
ApproachRate:0
SliderMultiplier:1.4
SliderTickRate:1

[Events]
//Background and Video events
0,0,"1920-718692.jpg",0,40
//Break Periods
//Storyboard Layer 0 (Background)
//Storyboard Layer 1 (Fail)
//Storyboard Layer 2 (Pass)
//Storyboard Layer 3 (Foreground)
//Storyboard Layer 4 (Overlay)
//Storyboard Sound Samples

[TimingPoints]
691,300,4,1,0,60,1,0
9296,-100,4,1,0,65,0,0
9371,-100,4,1,0,70,0,0
9521,-100,4,1,0,60,0,0
9971,-99.009900990099,4,1,0,70,0,0
10141,-97.0873786407767,4,1,0,70,0,0
10216,-96.1538461538461,4,1,0,70,0,0
10291,-95.2380952380952,4,1,0,70,0,0
19591,-94.3396226415094,4,1,0,70,0,0
19741,-92.5925925925926,4,1,0,70,0,0
19816,-91.743119266055,4,1,0,70,0,0
19871,-90.9090909090909,4,1,0,80,0,0
38791,-90.0900900900901,4,1,0,80,0,0
38941,-88.4955752212389,4,1,0,80,0,0
39016,-87.719298245614,4,1,0,80,0,0
39091,-86.9565217391304,4,1,0,80,0,1
58291,-86.9565217391304,4,1,0,70,0,0

[HitObjects]
256,192,691,5,4,0:0:0:0:
256,192,841,1,8,0:0:0:0:
256,192,1141,1,8,0:0:0:0:
256,192,1291,1,0,0:0:0:0:
256,192,1441,1,0,0:0:0:0:
256,192,1591,1,8,0:0:0:0:
256,192,1891,1,0,0:0:0:0:
256,192,2041,1,8,0:0:0:0:
256,192,2341,1,8,0:0:0:0:
256,192,2491,1,0,0:0:0:0:
256,192,2641,1,8,0:0:0:0:
256,192,2791,1,8,0:0:0:0:
256,192,3091,1,0,0:0:0:0:
256,192,3241,1,8,0:0:0:0:
256,192,3541,1,8,0:0:0:0:
256,192,3691,1,0,0:0:0:0:
256,192,3841,1,0,0:0:0:0:
256,192,3991,1,8,0:0:0:0:
256,192,4141,1,0,0:0:0:0:
256,192,4291,1,0,0:0:0:0:
256,192,4441,1,8,0:0:0:0:
256,192,4591,1,8,0:0:0:0:
256,192,4741,1,0,0:0:0:0:
256,192,4891,1,8,0:0:0:0:
256,192,5041,1,0,0:0:0:0:
256,192,5191,1,8,0:0:0:0:
256,192,5491,1,0,0:0:0:0:
256,192,5641,1,8,0:0:0:0:
256,192,5941,1,8,0:0:0:0:
256,192,6091,1,0,0:0:0:0:
256,192,6241,1,0,0:0:0:0:
256,192,6391,1,8,0:0:0:0:
256,192,6541,1,0,0:0:0:0:
256,192,6691,1,0,0:0:0:0:
256,192,6841,1,8,0:0:0:0:
256,192,7141,1,8,0:0:0:0:
256,192,7291,1,0,0:0:0:0:
256,192,7441,1,8,0:0:0:0:
256,192,7591,1,8,0:0:0:0:
256,192,7741,1,0,0:0:0:0:
256,192,7891,1,0,0:0:0:0:
256,192,8041,1,8,0:0:0:0:
256,192,8341,1,8,0:0:0:0:
256,192,8491,1,0,0:0:0:0:
256,192,8641,1,0,0:0:0:0:
256,192,8791,1,8,0:0:0:0:
256,192,8941,1,0,0:0:0:0:
256,192,9091,1,0,0:0:0:0:
256,192,9241,1,0,0:0:0:0:
256,192,9316,1,8,0:0:0:0:
256,192,9391,1,8,0:0:0:0:
256,192,9541,1,8,0:0:0:0:
256,192,9616,1,0,0:0:0:0:
256,192,9691,1,0,0:0:0:0:
256,192,9841,1,0,0:0:0:0:
256,192,9991,1,8,0:0:0:0:
256,192,10141,1,8,0:0:0:0:
256,192,10216,1,8,0:0:0:0:
256,192,10291,5,4,0:0:0:0:
256,192,10591,1,8,0:0:0:0:
256,192,10741,1,0,0:0:0:0:
256,192,10891,1,0,0:0:0:0:
256,192,10966,1,0,0:0:0:0:
256,192,11041,1,0,0:0:0:0:
256,192,11191,1,8,0:0:0:0:
256,192,11341,1,0,0:0:0:0:
256,192,11491,1,8,0:0:0:0:
256,192,11641,1,0,0:0:0:0:
256,192,11716,1,0,0:0:0:0:
256,192,11791,1,8,0:0:0:0:
256,192,11941,1,8,0:0:0:0:
256,192,12241,1,0,0:0:0:0:
256,192,12391,1,8,0:0:0:0:
256,192,12541,1,8,0:0:0:0:
256,192,12691,1,0,0:0:0:0:
256,192,12841,1,0,0:0:0:0:
256,192,12916,1,0,0:0:0:0:
256,192,12991,1,8,0:0:0:0:
256,192,13141,1,0,0:0:0:0:
256,192,13291,1,0,0:0:0:0:
256,192,13366,1,0,0:0:0:0:
256,192,13441,1,0,0:0:0:0:
256,192,13591,1,8,0:0:0:0:
256,192,13816,1,8,0:0:0:0:
256,192,13891,1,0,0:0:0:0:
256,192,14041,1,8,0:0:0:0:
256,192,14116,1,0,0:0:0:0:
256,192,14191,1,8,0:0:0:0:
256,192,14341,1,0,0:0:0:0:
256,192,14416,1,0,0:0:0:0:
256,192,14491,1,8,0:0:0:0:
256,192,14566,1,0,0:0:0:0:
256,192,14641,1,0,0:0:0:0:
256,192,14791,1,8,0:0:0:0:
256,192,15091,1,0,0:0:0:0:
256,192,15241,1,0,0:0:0:0:
256,192,15316,1,8,0:0:0:0:
256,192,15391,1,8,0:0:0:0:
256,192,15541,1,0,0:0:0:0:
256,192,15691,1,0,0:0:0:0:
256,192,15841,1,0,0:0:0:0:
256,192,15916,1,0,0:0:0:0:
256,192,15991,1,8,0:0:0:0:
256,192,16141,1,8,0:0:0:0:
256,192,16291,1,0,0:0:0:0:
256,192,16366,1,0,0:0:0:0:
256,192,16441,1,0,0:0:0:0:
256,192,16591,1,8,0:0:0:0:
256,192,16741,1,0,0:0:0:0:
256,192,17041,1,0,0:0:0:0:
256,192,17191,1,8,0:0:0:0:
256,192,17341,1,0,0:0:0:0:
256,192,17491,1,0,0:0:0:0:
256,192,17566,1,8,0:0:0:0:
256,192,17716,1,0,0:0:0:0:
256,192,17791,1,8,0:0:0:0:
256,192,17941,1,8,0:0:0:0:
256,192,18016,1,0,0:0:0:0:
256,192,18091,1,0,0:0:0:0:
256,192,18241,1,0,0:0:0:0:
256,192,18316,1,8,0:0:0:0:
256,192,18391,1,8,0:0:0:0:
256,192,18691,1,0,0:0:0:0:
256,192,18841,1,8,0:0:0:0:
256,192,19141,1,0,0:0:0:0:
256,192,19191,1,0,0:0:0:0:
256,192,19241,1,0,0:0:0:0:
256,192,19291,1,8,0:0:0:0:
256,192,19441,1,0,0:0:0:0:
256,192,19591,1,8,0:0:0:0:
256,192,19741,1,8,0:0:0:0:
256,192,19816,1,8,0:0:0:0:
256,192,19891,5,4,0:0:0:0:
256,192,20191,1,8,0:0:0:0:
256,192,20341,1,0,0:0:0:0:
256,192,20416,1,0,0:0:0:0:
256,192,20491,1,0,0:0:0:0:
256,192,20566,1,8,0:0:0:0:
256,192,20641,1,0,0:0:0:0:
256,192,20791,1,8,0:0:0:0:
256,192,20866,1,8,0:0:0:0:
256,192,20941,1,0,0:0:0:0:
256,192,21091,1,0,0:0:0:0:
256,192,21241,1,0,0:0:0:0:
256,192,21391,1,8,0:0:0:0:
256,192,21616,1,8,0:0:0:0:
256,192,21691,1,0,0:0:0:0:
256,192,21766,1,0,0:0:0:0:
256,192,21841,1,0,0:0:0:0:
256,192,21991,1,8,0:0:0:0:
256,192,22141,1,0,0:0:0:0:
256,192,22291,1,8,0:0:0:0:
256,192,22591,1,8,0:0:0:0:
256,192,22741,1,8,0:0:0:0:
256,192,22816,1,0,0:0:0:0:
256,192,22891,1,0,0:0:0:0:
256,192,22966,1,8,0:0:0:0:
256,192,23041,1,0,0:0:0:0:
256,192,23191,1,8,0:0:0:0:
256,192,23266,1,8,0:0:0:0:
256,192,23341,1,0,0:0:0:0:
256,192,23491,1,0,0:0:0:0:
256,192,23641,1,0,0:0:0:0:
256,192,23791,1,8,0:0:0:0:
256,192,23941,1,0,0:0:0:0:
256,192,24016,1,8,0:0:0:0:
256,192,24091,1,0,0:0:0:0:
256,192,24166,1,0,0:0:0:0:
256,192,24241,1,8,0:0:0:0:
256,192,24316,1,0,0:0:0:0:
256,192,24391,1,8,0:0:0:0:
256,192,24541,1,8,0:0:0:0:
256,192,24616,1,0,0:0:0:0:
256,192,24691,1,0,0:0:0:0:
256,192,24991,1,8,0:0:0:0:
256,192,25141,1,0,0:0:0:0:
256,192,25216,1,0,0:0:0:0:
256,192,25291,1,8,0:0:0:0:
256,192,25366,1,8,0:0:0:0:
256,192,25441,1,0,0:0:0:0:
256,192,25591,1,8,0:0:0:0:
256,192,25666,1,8,0:0:0:0:
256,192,25741,1,0,0:0:0:0:
256,192,25891,1,0,0:0:0:0:
256,192,26116,1,0,0:0:0:0:
256,192,26191,1,8,0:0:0:0:
256,192,26341,1,0,0:0:0:0:
256,192,26416,1,8,0:0:0:0:
256,192,26491,1,0,0:0:0:0:
256,192,26566,1,8,0:0:0:0:
256,192,26641,1,0,0:0:0:0:
256,192,26716,1,0,0:0:0:0:
256,192,26791,1,8,0:0:0:0:
256,192,26866,1,8,0:0:0:0:
256,192,26941,1,0,0:0:0:0:
256,192,27091,1,0,0:0:0:0:
256,192,27391,1,8,0:0:0:0:
256,192,27466,1,8,0:0:0:0:
256,192,27541,1,0,0:0:0:0:
256,192,27616,1,0,0:0:0:0:
256,192,27691,1,8,0:0:0:0:
256,192,27766,1,0,0:0:0:0:
256,192,27841,1,0,0:0:0:0:
256,192,27991,1,8,0:0:0:0:
256,192,28141,1,0,0:0:0:0:
256,192,28291,1,0,0:0:0:0:
256,192,28516,1,0,0:0:0:0:
256,192,28591,1,8,0:0:0:0:
256,192,28741,1,8,0:0:0:0:
256,192,28816,1,0,0:0:0:0:
256,192,28891,1,8,0:0:0:0:
256,192,28966,1,8,0:0:0:0:
256,192,29041,1,0,0:0:0:0:
256,192,29116,1,0,0:0:0:0:
256,192,29191,1,8,0:0:0:0:
256,192,29341,1,8,0:0:0:0:
256,192,29416,1,8,0:0:0:0:
256,192,29491,5,4,0:0:0:0:
256,192,29791,1,8,0:0:0:0:
256,192,29941,1,0,0:0:0:0:
256,192,30016,1,0,0:0:0:0:
256,192,30091,1,0,0:0:0:0:
256,192,30166,1,8,0:0:0:0:
256,192,30241,1,0,0:0:0:0:
256,192,30391,1,8,0:0:0:0:
256,192,30466,1,8,0:0:0:0:
256,192,30541,1,0,0:0:0:0:
256,192,30691,1,0,0:0:0:0:
256,192,30841,1,0,0:0:0:0:
256,192,30991,1,8,0:0:0:0:
256,192,31216,1,0,0:0:0:0:
256,192,31291,1,8,0:0:0:0:
256,192,31366,1,0,0:0:0:0:
256,192,31441,1,0,0:0:0:0:
256,192,31591,1,8,0:0:0:0:
256,192,31741,1,0,0:0:0:0:
256,192,31891,1,8,0:0:0:0:
256,192,32191,1,8,0:0:0:0:
256,192,32341,1,8,0:0:0:0:
256,192,32416,1,0,0:0:0:0:
256,192,32491,1,0,0:0:0:0:
256,192,32566,1,8,0:0:0:0:
256,192,32641,1,0,0:0:0:0:
256,192,32791,1,8,0:0:0:0:
256,192,32941,1,0,0:0:0:0:
256,192,33016,1,8,0:0:0:0:
256,192,33091,1,0,0:0:0:0:
256,192,33241,1,0,0:0:0:0:
256,192,33391,1,8,0:0:0:0:
256,192,33541,1,0,0:0:0:0:
256,192,33616,1,8,0:0:0:0:
256,192,33691,1,8,0:0:0:0:
256,192,33766,1,8,0:0:0:0:
256,192,33841,1,0,0:0:0:0:
256,192,33916,1,0,0:0:0:0:
256,192,33991,1,8,0:0:0:0:
256,192,34141,1,0,0:0:0:0:
256,192,34216,1,8,0:0:0:0:
256,192,34291,1,0,0:0:0:0:
256,192,34591,1,8,0:0:0:0:
256,192,34741,1,8,0:0:0:0:
256,192,34816,1,0,0:0:0:0:
256,192,34891,1,8,0:0:0:0:
256,192,34966,1,8,0:0:0:0:
256,192,35041,1,0,0:0:0:0:
256,192,35191,1,8,0:0:0:0:
256,192,35266,1,8,0:0:0:0:
256,192,35341,1,0,0:0:0:0:
256,192,35491,1,0,0:0:0:0:
256,192,35716,1,0,0:0:0:0:
256,192,35791,1,8,0:0:0:0:
256,192,35941,1,0,0:0:0:0:
256,192,36091,1,0,0:0:0:0:
256,192,36166,1,8,0:0:0:0:
256,192,36241,1,0,0:0:0:0:
256,192,36316,1,0,0:0:0:0:
256,192,36391,1,8,0:0:0:0:
256,192,36466,1,0,0:0:0:0:
256,192,36541,1,8,0:0:0:0:
256,192,36616,1,8,0:0:0:0:
256,192,36691,1,0,0:0:0:0:
256,192,36841,1,0,0:0:0:0:
256,192,36991,1,8,0:0:0:0:
256,192,37141,1,0,0:0:0:0:
256,192,37216,1,8,0:0:0:0:
256,192,37291,1,0,0:0:0:0:
256,192,37366,1,8,0:0:0:0:
256,192,37441,1,8,0:0:0:0:
256,192,37516,1,0,0:0:0:0:
256,192,37591,1,8,0:0:0:0:
256,192,37741,1,0,0:0:0:0:
256,192,37891,1,0,0:0:0:0:
256,192,37966,1,0,0:0:0:0:
256,192,38041,1,8,0:0:0:0:
256,192,38116,1,0,0:0:0:0:
256,192,38191,1,8,0:0:0:0:
256,192,38266,1,8,0:0:0:0:
256,192,38341,1,0,0:0:0:0:
256,192,38416,1,0,0:0:0:0:
256,192,38491,1,8,0:0:0:0:
256,192,38566,1,8,0:0:0:0:
256,192,38641,1,0,0:0:0:0:
256,192,38791,1,8,0:0:0:0:
256,192,38941,1,8,0:0:0:0:
256,192,39016,1,8,0:0:0:0:
256,192,39091,5,4,0:0:0:0:
256,192,39391,1,8,0:0:0:0:
256,192,39541,1,0,0:0:0:0:
256,192,39616,1,8,0:0:0:0:
256,192,39766,1,8,0:0:0:0:
256,192,39841,1,0,0:0:0:0:
256,192,39991,1,8,0:0:0:0:
256,192,40066,1,8,0:0:0:0:
256,192,40141,1,0,0:0:0:0:
256,192,40291,1,0,0:0:0:0:
256,192,40441,1,0,0:0:0:0:
256,192,40516,1,0,0:0:0:0:
256,192,40591,1,8,0:0:0:0:
256,192,40741,1,0,0:0:0:0:
256,192,40816,1,8,0:0:0:0:
256,192,40966,1,8,0:0:0:0:
256,192,41041,1,0,0:0:0:0:
256,192,41116,1,0,0:0:0:0:
256,192,41191,1,8,0:0:0:0:
256,192,41266,1,8,0:0:0:0:
256,192,41341,1,0,0:0:0:0:
256,192,41491,1,0,0:0:0:0:
256,192,41641,1,0,0:0:0:0:
256,192,41716,1,0,0:0:0:0:
256,192,41791,1,8,0:0:0:0:
256,192,41941,1,0,0:0:0:0:
256,192,42016,1,8,0:0:0:0:
256,192,42091,1,8,0:0:0:0:
256,192,42166,1,8,0:0:0:0:
256,192,42241,1,0,0:0:0:0:
256,192,42316,1,0,0:0:0:0:
256,192,42391,1,8,0:0:0:0:
256,192,42541,1,0,0:0:0:0:
256,192,42691,1,0,0:0:0:0:
256,192,42916,1,0,0:0:0:0:
256,192,42991,1,8,0:0:0:0:
256,192,43141,1,0,0:0:0:0:
256,192,43216,1,8,0:0:0:0:
256,192,43291,1,0,0:0:0:0:
256,192,43366,1,0,0:0:0:0:
256,192,43441,1,8,0:0:0:0:
256,192,43516,1,0,0:0:0:0:
256,192,43591,1,8,0:0:0:0:
256,192,43666,1,8,0:0:0:0:
256,192,43741,1,0,0:0:0:0:
256,192,43816,1,8,0:0:0:0:
256,192,43891,1,0,0:0:0:0:
256,192,44191,1,8,0:0:0:0:
256,192,44341,1,8,0:0:0:0:
256,192,44416,1,0,0:0:0:0:
256,192,44566,1,8,0:0:0:0:
256,192,44641,1,0,0:0:0:0:
256,192,44716,1,0,0:0:0:0:
256,192,44791,1,8,0:0:0:0:
256,192,44941,1,0,0:0:0:0:
256,192,45091,1,0,0:0:0:0:
256,192,45241,1,0,0:0:0:0:
256,192,45316,1,0,0:0:0:0:
256,192,45391,1,8,0:0:0:0:
256,192,45541,1,0,0:0:0:0:
256,192,45591,1,0,0:0:0:0:
256,192,45641,1,0,0:0:0:0:
256,192,45691,1,8,0:0:0:0:
256,192,45766,1,0,0:0:0:0:
256,192,45841,1,0,0:0:0:0:
256,192,45991,1,8,0:0:0:0:
256,192,46141,1,0,0:0:0:0:
256,192,46291,1,0,0:0:0:0:
256,192,46441,1,0,0:0:0:0:
256,192,46516,1,0,0:0:0:0:
256,192,46591,1,8,0:0:0:0:
256,192,46741,1,0,0:0:0:0:
256,192,46816,1,8,0:0:0:0:
256,192,46891,1,8,0:0:0:0:
256,192,46966,1,8,0:0:0:0:
256,192,47041,1,0,0:0:0:0:
256,192,47116,1,0,0:0:0:0:
256,192,47191,1,8,0:0:0:0:
256,192,47341,1,0,0:0:0:0:
256,192,47491,1,0,0:0:0:0:
256,192,47641,1,0,0:0:0:0:
256,192,47716,1,0,0:0:0:0:
256,192,47791,1,8,0:0:0:0:
256,192,47866,1,0,0:0:0:0:
256,192,47941,1,8,0:0:0:0:
256,192,48016,1,8,0:0:0:0:
256,192,48091,1,0,0:0:0:0:
256,192,48166,1,8,0:0:0:0:
256,192,48241,1,0,0:0:0:0:
256,192,48316,1,0,0:0:0:0:
256,192,48391,1,8,0:0:0:0:
256,192,48541,1,8,0:0:0:0:
256,192,48616,1,8,0:0:0:0:
256,192,48691,5,4,0:0:0:0:
256,192,48991,1,8,0:0:0:0:
256,192,49141,1,0,0:0:0:0:
256,192,49216,1,8,0:0:0:0:
256,192,49366,1,8,0:0:0:0:
256,192,49441,1,0,0:0:0:0:
256,192,49591,1,8,0:0:0:0:
256,192,49666,1,8,0:0:0:0:
256,192,49741,1,0,0:0:0:0:
256,192,49891,1,0,0:0:0:0:
256,192,50041,1,0,0:0:0:0:
256,192,50116,1,0,0:0:0:0:
256,192,50191,1,8,0:0:0:0:
256,192,50341,1,0,0:0:0:0:
256,192,50416,1,8,0:0:0:0:
256,192,50566,1,8,0:0:0:0:
256,192,50641,1,0,0:0:0:0:
256,192,50716,1,0,0:0:0:0:
256,192,50791,1,8,0:0:0:0:
256,192,50866,1,8,0:0:0:0:
256,192,50941,1,0,0:0:0:0:
256,192,51091,1,8,0:0:0:0:
256,192,51241,1,0,0:0:0:0:
256,192,51316,1,0,0:0:0:0:
256,192,51391,1,8,0:0:0:0:
256,192,51541,1,8,0:0:0:0:
256,192,51616,1,8,0:0:0:0:
256,192,51691,1,0,0:0:0:0:
256,192,51766,1,8,0:0:0:0:
256,192,51841,1,0,0:0:0:0:
256,192,51916,1,0,0:0:0:0:
256,192,51991,1,8,0:0:0:0:
256,192,52141,1,0,0:0:0:0:
256,192,52291,1,0,0:0:0:0:
256,192,52516,1,0,0:0:0:0:
256,192,52591,1,8,0:0:0:0:
256,192,52741,1,8,0:0:0:0:
256,192,52816,1,8,0:0:0:0:
256,192,52891,1,0,0:0:0:0:
256,192,52966,1,8,0:0:0:0:
256,192,53041,1,0,0:0:0:0:
256,192,53116,1,0,0:0:0:0:
256,192,53191,1,8,0:0:0:0:
256,192,53266,1,8,0:0:0:0:
256,192,53341,1,0,0:0:0:0:
256,192,53416,1,8,0:0:0:0:
256,192,53491,1,0,0:0:0:0:
256,192,53791,1,8,0:0:0:0:
256,192,53941,1,8,0:0:0:0:
256,192,54016,1,0,0:0:0:0:
256,192,54166,1,8,0:0:0:0:
256,192,54241,1,0,0:0:0:0:
256,192,54316,1,0,0:0:0:0:
256,192,54391,1,8,0:0:0:0:
256,192,54541,1,8,0:0:0:0:
256,192,54691,1,0,0:0:0:0:
256,192,54766,1,8,0:0:0:0:
256,192,54841,1,0,0:0:0:0:
256,192,54991,1,8,0:0:0:0:
256,192,55141,1,8,0:0:0:0:
256,192,55216,1,0,0:0:0:0:
256,192,55291,1,0,0:0:0:0:
256,192,55366,1,8,0:0:0:0:
256,192,55441,1,0,0:0:0:0:
256,192,55516,1,0,0:0:0:0:
256,192,55591,1,8,0:0:0:0:
256,192,55741,1,8,0:0:0:0:
256,192,55891,1,0,0:0:0:0:
256,192,56041,1,0,0:0:0:0:
256,192,56116,1,8,0:0:0:0:
256,192,56191,1,8,0:0:0:0:
256,192,56341,1,0,0:0:0:0:
256,192,56416,1,0,0:0:0:0:
256,192,56491,1,8,0:0:0:0:
256,192,56566,1,8,0:0:0:0:
256,192,56641,1,8,0:0:0:0:
256,192,56716,1,0,0:0:0:0:
256,192,56791,1,8,0:0:0:0:
256,192,56941,1,0,0:0:0:0:
256,192,57091,1,8,0:0:0:0:
256,192,57241,1,0,0:0:0:0:
256,192,57316,1,0,0:0:0:0:
256,192,57391,1,8,0:0:0:0:
256,192,57466,1,0,0:0:0:0:
256,192,57541,1,8,0:0:0:0:
256,192,57616,1,8,0:0:0:0:
256,192,57691,1,0,0:0:0:0:
256,192,57766,1,0,0:0:0:0:
256,192,57841,1,8,0:0:0:0:
256,192,57916,1,0,0:0:0:0:
256,192,57991,1,8,0:0:0:0:
256,192,58141,1,8,0:0:0:0:
256,192,58216,1,8,0:0:0:0:
256,192,58291,1,4,0:0:0:0:
