osu file format v14

[General]
AudioFilename: audio.mp3
AudioLeadIn: 0
PreviewTime: 46033
Countdown: 0
SampleSet: None
StackLeniency: 0.7
Mode: 2
LetterboxInBreaks: 0
WidescreenStoryboard: 1

[Editor]
Bookmarks: 3132,7933,17533,27133,36733,41533,55933,70333
DistanceSpacing: 1
BeatDivisor: 3
GridSize: 16
TimelineZoom: 1.899999

[Metadata]
Title:183 - yo-kai disco
TitleUnicode:183 - yo-kai disco
Artist:saradisk
ArtistUnicode:皿
Creator:Mniam
Version:salad (derandomized)
Source:まもるクンは呪われてしまった!
Tags:instrumental electronic 〜冥界活劇ワイド版〜 安井洋介 yousuke yasui overworld netherworld yokai mamorukun mamorukuns mamorukun's curse!
BeatmapID:4553867
BeatmapSetID:2159774

[Difficulty]
HPDrainRate:3.2
CircleSize:3.2
OverallDifficulty:6.9
ApproachRate:6.9
SliderMultiplier:1.28
SliderTickRate:1

[Events]
//Background and Video events
0,0,"mamoru.jpg",0,0
//Break Periods
//Storyboard Layer 0 (Background)
//Storyboard Layer 1 (Fail)
//Storyboard Layer 2 (Pass)
//Storyboard Layer 3 (Foreground)
//Storyboard Layer 4 (Overlay)
//Storyboard Sound Samples

[TimingPoints]
619,314.13612565445,4,1,0,100,1,0
619,-40.8163265306122,4,1,0,100,0,0
3133,300,4,1,0,100,1,0
3133,-40.8163265306122,4,1,0,100,0,0
46333,-40.8163265306122,4,1,0,100,0,1
65533,-40.8163265306122,4,1,0,100,0,0

[Colours]
Combo1 : 224,172,141
Combo2 : 255,255,51
Combo3 : 124,220,132
Combo4 : 168,170,91

[HitObjects]
384,192,619,6,0,L|366:268|366:268|330:338|330:338|290:271|290:271|256:200|256:200|214:156|214:156|192:62|192:62,1,470.4
256,192,1247,2,0,B|278:258|278:258|291:326|291:326|301:257|301:257|255:162|255:162,1,313.6
256,192,1875,12,0,2817,0:0:0:0:
160,192,3132,5,0,0:0:0:0:
288,192,3433,2,0,B|325:250|325:250|325:319|325:319|328:250|328:250|287:152|287:152,1,313.6
224,192,3883,1,0,0:0:0:0:
96,192,4183,6,0,L|119:257|119:257|143:322|143:322|176:382|176:382|224:287|224:287,1,313.6
160,192,4633,1,0,0:0:0:0:
32,192,4933,2,0,L|69:250|69:250|97:313|97:313|109:381|109:381|160:287|160:287,1,313.6
288,192,5533,5,0,0:0:0:0:
160,192,5834,2,0,B|123:250|123:250|118:319|118:319|117:250|117:250|161:153|161:153,1,313.6
224,192,6283,1,0,0:0:0:0:
352,192,6583,5,0,0:0:0:0:
192,192,6733,1,0,0:0:0:0:
128,192,6883,1,0,0:0:0:0:
192,192,7033,1,0,0:0:0:0:
448,192,7333,1,0,0:0:0:0:
464,192,7408,1,0,0:0:0:0:
448,192,7483,1,0,0:0:0:0:
288,192,7633,1,0,0:0:0:0:
288,192,7783,1,0,0:0:0:0:
448,192,7933,6,0,B|469:258|469:258|501:319|501:319|495:250|495:250|447:155|447:155,1,313.6
384,192,8383,1,0,0:0:0:0:
320,192,8533,2,0,L|345:256|345:256|368:321|368:321|410:375|410:375|448:275|448:275,1,313.6
320,192,9133,6,0,B|294:256|294:256|286:324|286:324|271:257|271:257|319:162|319:162,1,313.6
446,192,9733,2,0,B|485:249|485:249|470:316|470:316|496:380|496:380|447:285|447:285,1,313.6
384,192,10183,1,0,0:0:0:0:
320,192,10333,6,0,B|290:254|290:254|274:321|274:321|297:386|297:386|321:282|321:282,1,313.6
384,192,10783,1,0,0:0:0:0:
320,192,10933,2,0,L|298:257|298:257|264:317|264:317|230:377|230:377|192:277|192:277,1,313.6
320,192,11533,6,0,B|357:250|357:250|347:318|347:318|340:249|340:249|319:144|319:144,1,313.6
192,192,12133,2,0,L|227:251|227:251|244:318|244:318|264:384|264:384|320:293|320:293,1,313.6
256,192,12583,1,0,0:0:0:0:
96,192,12733,6,0,B|77:258|77:258|60:325|60:325|77:258|77:258|97:153|97:153,1,313.6
160,192,13183,1,0,0:0:0:0:
224,192,13333,2,0,L|193:254|193:254|149:307|149:307|142:376|142:376|96:280|96:280,1,313.6
224,192,13933,6,0,B|247:257|247:257|276:320|276:320|268:252|268:252|223:155|223:155,1,313.6
160,192,14383,1,0,0:0:0:0:
96,192,14533,2,0,B|73:257|73:257|44:320|44:320|53:252|53:252|97:155|97:155,1,313.6
160,192,14983,1,0,0:0:0:0:
320,192,15133,5,0,0:0:0:0:
384,192,15283,1,0,0:0:0:0:
448,192,15433,1,0,0:0:0:0:
192,192,15733,1,0,0:0:0:0:
176,192,15808,1,0,0:0:0:0:
192,192,15883,1,0,0:0:0:0:
256,192,16033,1,0,0:0:0:0:
416,192,16183,6,0,B|428:260|428:260|452:325|452:325|430:260|430:260|415:154|415:154,1,313.6
352,192,16633,1,0,0:0:0:0:
96,192,16933,1,0,0:0:0:0:
80,192,17008,1,0,0:0:0:0:
96,192,17083,1,0,0:0:0:0:
256,192,17233,1,0,0:0:0:0:
256,192,17383,1,0,0:0:0:0:
96,192,17533,6,0,B|81:259|81:259|46:319|46:319|77:380|77:380|97:275|97:275,1,313.6
160,192,17983,1,0,0:0:0:0:
224,192,18133,2,0,L|206:259|206:259|164:313|164:313|151:381|151:381|96:290|96:290,1,313.6
224,192,18733,6,0,B|231:261|231:261|270:318|270:318|256:386|256:386|225:284|225:284,1,313.6
98,192,19333,2,0,B|87:260|87:260|68:326|68:326|73:257|73:257|97:153|97:153,1,313.6
160,192,19783,1,0,0:0:0:0:
224,192,19933,6,0,B|255:254|255:254|263:323|263:323|259:254|259:254|223:154|223:154,1,313.6
160,192,20383,1,0,0:0:0:0:
224,192,20533,2,0,L|238:260|238:260|277:317|277:317|319:371|319:371|352:270|352:270,1,313.6
224,192,21133,6,0,B|212:260|212:260|203:328|203:328|196:259|196:259|225:156|225:156,1,313.6
352,192,21733,2,0,L|321:254|321:254|314:323|314:323|268:374|268:374|224:277|224:277,1,313.6
288,192,22183,1,0,0:0:0:0:
448,192,22333,6,0,B|458:260|458:260|485:324|485:324|463:259|463:259|447:154|447:154,1,313.6
384,192,22783,1,0,0:0:0:0:
320,192,22933,2,0,L|356:251|356:251|386:313|386:313|417:374|417:374|448:272|448:272,1,313.6
192,192,23533,6,0,L|146:243|146:243|126:309|126:309|89:367|89:367|64:263|64:263,1,313.6
320,192,24133,2,0,B|359:249|359:249|360:318|360:318|345:385|345:385|319:282|319:282,1,313.6
256,192,24583,1,0,0:0:0:0:
96,192,24733,5,0,0:0:0:0:
32,192,24883,1,0,0:0:0:0:
96,192,25033,1,0,0:0:0:0:
352,192,25333,1,0,0:0:0:0:
368,192,25408,1,0,0:0:0:0:
352,192,25483,1,0,0:0:0:0:
288,192,25633,1,0,0:0:0:0:
128,192,25783,6,0,B|93:251|93:251|105:319|105:319|110:250|110:250|129:145|129:145,1,313.6
192,192,26233,1,0,0:0:0:0:
448,192,26533,1,0,0:0:0:0:
464,192,26608,1,0,0:0:0:0:
448,192,26683,1,0,0:0:0:0:
288,192,26833,1,0,0:0:0:0:
272,192,26908,1,0,0:0:0:0:
288,192,26983,1,0,0:0:0:0:
448,192,27133,6,0,B|489:247|489:247|480:315|480:315|492:383|492:383|447:286|447:286,1,313.6
384,192,27583,1,0,0:0:0:0:
320,192,27733,2,0,L|286:252|286:252|251:311|251:311|245:380|245:380|192:287|192:287,1,313.6
256,192,28183,1,0,0:0:0:0:
320,192,28333,5,0,0:0:0:0:
192,192,28633,2,0,B|175:259|175:259|147:322|147:322|152:253|152:253|193:155|193:155,1,313.6
320,192,29233,1,0,0:0:0:0:
192,192,29533,6,0,L|157:251|157:251|137:317|137:317|102:376|102:376|64:276|64:276,1,313.6
192,192,30133,2,0,L|169:257|169:257|142:320|142:320|89:364|89:364|64:260|64:260,1,313.6
320,192,30733,5,0,0:0:0:0:
384,192,30883,1,0,0:0:0:0:
320,192,31033,1,0,0:0:0:0:
192,192,31333,1,0,0:0:0:0:
448,192,31633,1,0,0:0:0:0:
192,192,31933,6,0,B|173:258|173:258|157:325|157:325|146:257|146:257|193:161|193:161,1,313.6
256,192,32383,1,0,0:0:0:0:
320,192,32533,2,0,L|363:246|363:246|359:315|359:315|401:369|401:369|448:273|448:273,1,313.6
384,192,32983,1,0,0:0:0:0:
320,192,33133,5,0,0:0:0:0:
448,192,33433,2,0,B|474:256|474:256|475:325|475:325|479:256|479:256|447:154|447:154,1,313.6
320,192,34033,1,0,0:0:0:0:
256,192,34183,1,0,0:0:0:0:
320,192,34333,5,0,0:0:0:0:
448,192,34633,2,0,L|405:246|405:246|403:315|403:315|379:380|379:380|320:291|320:291,1,313.6
448,192,35233,1,0,0:0:0:0:
192,192,35533,5,0,0:0:0:0:
128,192,35683,1,0,0:0:0:0:
64,192,35833,1,0,0:0:0:0:
320,192,36133,1,0,0:0:0:0:
384,192,36283,1,0,0:0:0:0:
400,192,36358,1,0,0:0:0:0:
384,192,36433,1,0,0:0:0:0:
320,192,36583,1,0,0:0:0:0:
160,192,36733,6,0,B|143:259|143:259|142:328|142:328|132:260|132:260|161:157|161:157,1,313.6
224,192,37183,1,0,0:0:0:0:
288,192,37333,2,0,L|311:257|311:257|343:318|343:318|373:380|373:380|416:282|416:282,1,313.6
352,192,37783,1,0,0:0:0:0:
288,192,37933,5,0,0:0:0:0:
352,192,38083,1,0,0:0:0:0:
416,192,38233,2,0,B|423:261|423:261|453:323|453:323|433:257|433:257|415:152|415:152,1,313.6
288,192,38833,1,0,0:0:0:0:
160,192,39133,6,0,B|149:260|149:260|125:325|125:325|140:258|140:258|161:153|161:153,1,313.6
288,192,39733,2,0,L|313:256|313:256|334:322|334:322|375:377|375:377|416:279|416:279,1,313.6
352,192,40183,1,0,0:0:0:0:
192,192,40333,6,0,L|183:260|183:260|132:306|132:306|103:368|103:368|64:269|64:269,1,313.6
320,192,40933,2,0,L|348:255|348:255|393:307|393:307|422:369|422:369|448:266|448:266,1,313.6
384,192,41383,1,0,0:0:0:0:
224,192,41533,6,0,L|206:259|206:259|159:309|159:309|146:377|146:377|96:283|96:283,1,313.6
224,192,42133,2,0,L|180:245|180:245|154:309|154:309|146:377|146:377|96:283|96:283,1,313.6
352,192,42733,6,0,L|342:260|342:260|313:322|313:322|254:357|254:357|224:255|224:255,1,313.6
352,192,43333,2,0,L|323:255|323:255|292:316|292:316|270:381|270:381|224:285|224:285,1,313.6
480,192,43933,5,0,0:0:0:0:
416,192,44083,1,0,0:0:0:0:
352,192,44233,1,0,0:0:0:0:
288,192,44383,1,0,0:0:0:0:
352,192,44533,1,0,0:0:0:0:
288,192,44683,1,0,0:0:0:0:
224,192,44833,1,0,0:0:0:0:
160,192,44983,1,0,0:0:0:0:
320,192,45133,6,0,B|363:258|363:258|383:334|383:334|402:258|402:258|435:187|435:187|454:111|454:111|472:35|472:35|440:107|440:107|436:185|436:185|398:243|398:243|382:310|382:310|363:376|363:376|321:278|321:278,1,940.8
64,192,46333,6,0,L|92:255|92:255|108:322|108:322|146:379|146:379|192:283|192:283,1,313.6
320,192,46933,2,0,L|291:255|291:255|276:322|276:322|233:376|233:376|192:278|192:278,1,313.6
256,192,47383,1,0,0:0:0:0:
320,192,47533,6,0,B|354:252|354:252|361:321|361:321|369:252|369:252|319:158|319:158,1,313.6
192,192,48133,2,0,B|167:256|167:256|161:325|161:325|179:258|179:258|193:152|193:152,1,313.6
256,192,48583,1,0,0:0:0:0:
320,192,48733,6,0,L|362:247|362:247|370:315|370:315|405:374|405:374|448:276|448:276,1,313.6
320,192,49333,2,0,L|297:257|297:257|276:323|276:323|244:384|244:384|192:291|192:291,1,313.6
256,192,49783,1,0,0:0:0:0:
320,192,49933,6,0,B|348:255|348:255|365:322|365:322|351:255|351:255|319:153|319:153,1,313.6
192,192,50533,2,0,B|182:260|182:260|156:324|156:324|146:256|146:256|193:160|193:160,1,313.6
256,192,50983,1,0,0:0:0:0:
416,192,51133,6,0,B|449:253|449:253|456:322|456:322|430:386|430:386|415:280|415:280,1,313.6
352,192,51583,1,0,0:0:0:0:
288,192,51733,2,0,L|334:243|334:243|329:312|329:312|354:376|354:376|416:289|416:289,1,313.6
352,192,52183,1,0,0:0:0:0:
288,192,52333,6,0,B|281:261|281:261|268:329|268:329|245:264|245:264|289:167|289:167,1,313.6
416,192,52933,2,0,B|427:260|427:260|436:328|436:328|454:261|454:261|415:162|415:162,1,313.6
352,192,53383,1,0,0:0:0:0:
192,192,53533,6,0,L|177:259|177:259|139:316|139:316|95:369|95:369|64:267|64:267,1,313.6
320,192,54133,2,0,L|348:255|348:255|376:318|376:318|410:378|410:378|448:278|448:278,1,313.6
192,192,54733,6,0,L|148:245|148:245|127:311|127:311|114:379|114:379|64:285|64:285,1,313.6
320,192,55333,2,0,L|276:245|276:245|279:314|279:314|236:368|236:368|192:271|192:271,1,313.6
448,192,55933,6,0,B|487:249|487:249|494:318|494:318|490:249|490:249|447:151|447:151,1,313.6
362,192,56433,1,0,0:0:0:0:
320,192,56533,2,0,L|355:251|355:251|374:317|374:317|414:373|414:373|448:272|448:272,1,313.6
362,192,57033,1,0,0:0:0:0:
320,192,57133,6,0,L|275:244|275:244|255:310|255:310|245:378|245:378|192:285|192:285,1,313.6
320,192,57733,2,0,B|328:261|328:261|363:321|363:321|361:252|361:252|319:154|319:154,1,313.6
234,192,58233,1,0,0:0:0:0:
192,192,58333,6,0,L|176:259|176:259|145:320|145:320|106:377|106:377|64:279|64:279,1,313.6
149,192,58833,1,0,0:0:0:0:
192,192,58933,2,0,B|222:254|222:254|209:322|209:322|217:253|217:253|191:150|191:150,1,313.6
106,192,59433,1,0,0:0:0:0:
64,192,59533,6,0,L|77:260|77:260|115:317|115:317|163:366|163:366|192:263|192:263,1,313.6
214,150,59933,1,0,0:0:0:0:
192,192,60033,1,0,0:0:0:0:
141,191,60133,1,0,0:0:0:0:
119,147,60233,1,0,0:0:0:0:
141,191,60333,1,0,0:0:0:0:
192,192,60433,1,0,0:0:0:0:
448,192,60733,6,0,B|487:249|487:249|471:316|471:316|472:385|472:385|447:281|447:281,1,313.6
362,192,61233,1,0,0:0:0:0:
320,192,61333,2,0,L|365:244|365:244|372:313|372:313|403:374|403:374|448:277|448:277,1,313.6
362,192,61833,1,0,0:0:0:0:
320,192,61933,6,0,L|284:251|284:251|278:320|278:320|239:377|239:377|192:281|192:281,1,313.6
320,192,62533,2,0,B|343:257|343:257|348:326|348:326|362:258|362:258|319:160|319:160,1,313.6
64,192,63133,6,0,L|85:258|85:258|121:317|121:317|148:380|148:380|192:283|192:283,1,313.6
448,192,63733,2,0,L|426:257|426:257|393:317|393:317|349:370|349:370|320:267|320:267,1,313.6
64,192,64333,5,0,0:0:0:0:
42,150,64433,1,0,0:0:0:0:
64,192,64533,1,0,0:0:0:0:
115,191,64633,1,0,0:0:0:0:
137,147,64733,1,0,0:0:0:0:
115,191,64833,1,0,0:0:0:0:
64,192,64933,2,0,L|75:260|75:260|135:293|135:293|165:355|165:355|192:252|192:252,1,313.6
448,192,65532,5,0,0:0:0:0:
320,192,65833,2,0,B|285:251|285:251|278:320|278:320|308:382|308:382|321:276|321:276,1,313.6
406,192,66333,2,0,L|449:287|449:287,1,104.533333333333
362,192,66633,6,0,L|319:287|319:287,1,104.533333333333
406,192,66933,2,0,L|449:287|449:287,1,104.533333333333
319,192,67333,2,0,L|291:255|291:255|277:322|277:322|253:257|253:257|191:170|191:170,1,313.6
64,192,67933,5,0,0:0:0:0:
192,192,68234,2,0,B|211:258|211:258|225:326|225:326|206:260|206:260|191:154|191:154,1,313.6
106,192,68733,2,0,L|63:287|63:287,1,104.533333333333
150,192,69033,6,0,L|193:287|193:287,1,104.533333333333
106,192,69333,2,0,L|63:287|63:287,1,104.533333333333
320,192,69733,1,0,0:0:0:0:
63,192,70033,1,0,0:0:0:0:
