osu file format v14

[General]
AudioFilename: audio.mp3
AudioLeadIn: 0
PreviewTime: 20639
Countdown: 0
SampleSet: Soft
StackLeniency: 0.7
Mode: 3
LetterboxInBreaks: 0
SpecialStyle: 0
WidescreenStoryboard: 0

[Editor]
DistanceSpacing: 0.5
BeatDivisor: 4
GridSize: 4
TimelineZoom: 2.6

[Metadata]
Title:176 - ikazuchi_B
TitleUnicode:176 - ikazuchi_B
Artist:saradisk
ArtistUnicode:saradisk
Creator:angki
Version:Hard
Source:艦隊これくしょん -艦これ-
Tags:Remix Kantai Collection Kancolle Gun Bomb Girl Sigh Japan
BeatmapID:1348062
BeatmapSetID:635297

[Difficulty]
HPDrainRate:8
CircleSize:4
OverallDifficulty:7.5
ApproachRate:5
SliderMultiplier:1.4
SliderTickRate:1

[Events]
//Background and Video events
0,0,"Background.png",0,0
//Break Periods
//Storyboard Layer 0 (Background)
//Storyboard Layer 1 (Fail)
//Storyboard Layer 2 (Pass)
//Storyboard Layer 3 (Foreground)
//Storyboard Layer 4 (Overlay)
//Storyboard Sound Samples
Sample,5389,0,"LR_Clap Fast Low.wav",70
Sample,15973,0,"LR_Clap Fast Low.wav",70
Sample,21806,0,"LR_Clap Fast Low.wav",70
Sample,21973,0,"Hoah !!!.wav",70
Sample,21973,0,"soft-hitclap.wav",80
Sample,23139,0,"LR_Clap Fast Low.wav",70
Sample,24473,0,"LR_Clap Fast Low.wav",70
Sample,28473,0,"Ah~.wav",40
Sample,29806,0,"LR_Clap Fast Low.wav",70
Sample,31139,0,"LR_Clap Fast Low.wav",70
Sample,31973,0,"LR_Clap Fast Low.wav",70
Sample,32139,0,"LR_Clap Fast Low.wav",70
Sample,32639,0,"Hoah !!!.wav",70
Sample,42639,0,"LR_Clap Fast Low.wav",70
Sample,42723,0,"LR_Clap Fast Low.wav",70
Sample,42889,0,"LR_Clap Fast Low.wav",70
Sample,43306,0,"Hoah !!!.wav",70

[TimingPoints]
640,333.333333333333,4,2,1,40,1,0
21973,-100,4,2,1,40,0,1
32306,-100,4,2,1,40,0,0
32639,-100,4,2,1,40,0,1
42973,-100,4,2,1,40,0,0

[HitObjects]
192,192,306,1,0,0:0:0:0:
320,192,473,1,0,0:0:0:0:
64,192,640,5,4,0:0:0:60:
192,192,640,1,0,0:0:0:0:
448,192,640,1,0,0:0:0:0:
192,192,806,1,0,0:0:0:0:
320,192,973,1,8,0:0:0:80:soft-hitclap.wav
448,192,973,1,0,0:0:0:0:
64,192,1139,1,0,0:0:0:0:
192,192,1306,1,8,0:0:0:80:soft-hitclap.wav
448,192,1306,1,0,0:0:0:0:
192,192,1556,1,8,0:0:0:80:soft-hitclap.wav
320,192,1556,1,0,0:0:0:0:
320,192,1806,1,8,0:0:0:80:soft-hitclap.wav
192,192,1889,1,0,0:0:0:0:
64,192,1973,1,2,0:0:0:100:
320,192,1973,1,8,0:0:0:80:soft-hitclap.wav
448,192,1973,1,0,0:0:0:0:
192,192,2139,1,0,0:0:0:0:
64,192,2306,1,8,0:0:0:80:soft-hitclap.wav
448,192,2306,1,0,0:0:0:0:
320,192,2473,1,0,0:0:0:0:
192,192,2639,1,8,0:0:0:80:soft-hitclap.wav
448,192,2639,1,0,0:0:0:0:
192,192,2889,1,8,0:0:0:80:soft-hitclap.wav
448,192,2889,1,0,0:0:0:0:
320,192,3139,1,8,0:0:0:80:soft-hitclap.wav
192,192,3223,1,0,0:0:0:0:
64,192,3306,1,2,0:0:0:100:
320,192,3306,1,8,0:0:0:80:soft-hitclap.wav
448,192,3306,1,0,0:0:0:0:
64,192,3473,1,0,0:0:0:0:
320,192,3639,1,8,0:0:0:80:soft-hitclap.wav
448,192,3639,1,0,0:0:0:0:
192,192,3806,1,0,0:0:0:0:
64,192,3973,1,8,0:0:0:80:soft-hitclap.wav
448,192,3973,1,0,0:0:0:0:
64,192,4223,1,8,0:0:0:80:soft-hitclap.wav
448,192,4223,1,0,0:0:0:0:
320,192,4473,1,8,0:0:0:80:soft-hitclap.wav
192,192,4556,1,0,0:0:0:0:
64,192,4639,1,2,0:0:0:100:
320,192,4639,1,8,0:0:0:80:soft-hitclap.wav
448,192,4639,1,0,0:0:0:0:
448,192,4806,1,0,0:0:0:0:
192,192,4973,1,8,0:0:0:80:soft-hitclap.wav
192,192,5139,1,8,0:0:0:80:soft-hitclap.wav
320,192,5306,1,8,0:0:0:80:soft-hitclap.wav
448,192,5306,1,0,0:0:0:0:
64,192,5389,1,8,0:0:0:80:soft-hitclap.wav
448,192,5473,1,8,0:0:0:80:soft-hitclap.wav
192,192,5556,1,8,0:0:0:80:soft-hitclap.wav
320,192,5639,1,8,0:0:0:80:soft-hitclap.wav
192,192,5806,1,8,0:0:0:80:soft-hitclap.wav
64,192,5973,1,2,0:0:0:100:
320,192,5973,1,0,0:0:0:0:
448,192,5973,1,0,0:0:0:0:
192,192,6139,1,0,0:0:0:0:
320,192,6306,1,8,0:0:0:80:soft-hitclap.wav
448,192,6306,1,0,0:0:0:0:
64,192,6473,1,0,0:0:0:0:
192,192,6639,1,8,0:0:0:80:soft-hitclap.wav
320,192,6639,1,0,0:0:0:0:
192,192,6889,1,8,0:0:0:80:soft-hitclap.wav
320,192,6889,1,0,0:0:0:0:
448,192,7139,1,8,0:0:0:80:soft-hitclap.wav
64,192,7306,1,2,0:0:0:100:
192,192,7306,1,8,0:0:0:80:soft-hitclap.wav
320,192,7306,1,0,0:0:0:0:
320,192,7473,1,0,0:0:0:0:
64,192,7639,1,8,0:0:0:80:soft-hitclap.wav
448,192,7639,1,0,0:0:0:0:
192,192,7806,1,0,0:0:0:0:
64,192,7973,1,8,0:0:0:80:soft-hitclap.wav
320,192,7973,1,0,0:0:0:0:
64,192,8223,1,8,0:0:0:80:soft-hitclap.wav
320,192,8223,1,0,0:0:0:0:
192,192,8473,1,8,0:0:0:80:soft-hitclap.wav
320,192,8556,1,0,0:0:0:0:
64,192,8639,1,2,0:0:0:100:
192,192,8639,1,8,0:0:0:80:soft-hitclap.wav
448,192,8639,1,0,0:0:0:0:
64,192,8806,1,0,0:0:0:0:
320,192,8973,1,8,0:0:0:80:soft-hitclap.wav
448,192,8973,1,0,0:0:0:0:
192,192,9139,1,0,0:0:0:0:
64,192,9306,1,8,0:0:0:80:soft-hitclap.wav
448,192,9306,1,0,0:0:0:0:
64,192,9556,1,8,0:0:0:80:soft-hitclap.wav
448,192,9556,1,0,0:0:0:0:
448,192,9806,1,8,0:0:0:80:soft-hitclap.wav
320,192,9889,1,0,0:0:0:0:
64,192,9973,1,2,0:0:0:100:
192,192,9973,1,8,0:0:0:80:soft-hitclap.wav
448,192,9973,1,0,0:0:0:0:
64,192,10306,1,0,0:0:0:0:
192,192,10306,1,0,0:0:0:0:
192,192,10639,1,2,0:0:0:100:
320,192,10639,1,8,0:0:0:80:soft-hitclap.wav
448,192,10639,1,0,0:0:0:0:
64,192,10973,1,0,0:0:0:0:
192,192,11056,1,0,0:0:0:0:
448,192,11139,1,0,0:0:0:0:
320,192,11223,1,0,0:0:0:0:
64,192,11306,1,8,0:0:0:80:soft-hitclap.wav
192,192,11306,1,0,0:0:0:0:
448,192,11306,1,0,0:0:0:0:
192,192,11473,1,0,0:0:0:0:
64,192,11639,1,8,0:0:0:80:soft-hitclap.wav
448,192,11639,1,0,0:0:0:0:
320,192,11806,1,0,0:0:0:0:
64,192,11973,1,8,0:0:0:80:soft-hitclap.wav
192,192,11973,1,0,0:0:0:0:
64,192,12223,1,8,0:0:0:80:soft-hitclap.wav
192,192,12223,1,0,0:0:0:0:
448,192,12473,1,8,0:0:0:80:soft-hitclap.wav
320,192,12556,1,0,0:0:0:0:
64,192,12639,1,2,0:0:0:100:
192,192,12639,1,8,0:0:0:80:soft-hitclap.wav
448,192,12639,1,0,0:0:0:0:
320,192,12806,1,0,0:0:0:0:
64,192,12973,1,8,0:0:0:80:soft-hitclap.wav
192,192,12973,1,0,0:0:0:0:
320,192,13139,1,0,0:0:0:0:
64,192,13306,1,8,0:0:0:80:soft-hitclap.wav
448,192,13306,1,0,0:0:0:0:
64,192,13556,1,8,0:0:0:80:soft-hitclap.wav
448,192,13556,1,0,0:0:0:0:
64,192,13806,1,8,0:0:0:80:soft-hitclap.wav
192,192,13889,1,0,0:0:0:0:
64,192,13973,1,2,0:0:0:100:
320,192,13973,1,8,0:0:0:80:soft-hitclap.wav
448,192,13973,1,0,0:0:0:0:
448,192,14139,1,0,0:0:0:0:
64,192,14306,1,8,0:0:0:80:soft-hitclap.wav
320,192,14306,1,0,0:0:0:0:
192,192,14473,1,0,0:0:0:0:
320,192,14639,1,8,0:0:0:80:soft-hitclap.wav
448,192,14639,1,0,0:0:0:0:
320,192,14889,1,8,0:0:0:80:soft-hitclap.wav
448,192,14889,1,0,0:0:0:0:
320,192,15139,1,8,0:0:0:80:soft-hitclap.wav
64,192,15306,1,2,0:0:0:100:
192,192,15306,1,8,0:0:0:80:soft-hitclap.wav
448,192,15306,1,0,0:0:0:0:
320,192,15473,1,0,0:0:0:70:LR_Clap Fast Low.wav
192,192,15556,1,8,0:0:0:80:soft-hitclap.wav
64,192,15639,1,0,0:0:0:0:
320,192,15723,1,0,0:0:0:70:LR_Clap Fast Low.wav
448,192,15806,1,0,0:0:0:0:
192,192,15889,1,0,0:0:0:0:
320,192,15973,1,8,0:0:0:80:soft-hitclap.wav
448,192,16056,1,0,0:0:0:70:LR_Clap Fast Low.wav
64,192,16139,1,8,0:0:0:80:soft-hitclap.wav
192,192,16139,1,0,0:0:0:0:
320,192,16223,1,8,0:0:0:80:soft-hitclap.wav
64,192,16306,1,8,0:0:0:80:soft-hitclap.wav
448,192,16306,1,0,0:0:0:0:
320,192,16473,1,8,0:0:0:80:soft-hitclap.wav
192,192,16473,1,0,0:0:0:0:
64,192,16639,1,2,0:0:0:100:
320,192,16639,1,8,0:0:0:80:soft-hitclap.wav
448,192,16639,1,0,0:0:0:0:
192,192,16806,1,0,0:0:0:0:
320,192,16973,1,8,0:0:0:80:soft-hitclap.wav
448,192,16973,1,0,0:0:0:0:
64,192,17139,1,0,0:0:0:0:
192,192,17306,1,8,0:0:0:80:soft-hitclap.wav
448,192,17306,1,0,0:0:0:0:
64,192,17556,1,8,0:0:0:80:soft-hitclap.wav
192,192,17556,1,0,0:0:0:0:
320,192,17806,1,8,0:0:0:80:soft-hitclap.wav
64,192,17973,1,2,0:0:0:100:
192,192,17973,1,8,0:0:0:80:soft-hitclap.wav
448,192,17973,1,0,0:0:0:0:
320,192,18139,1,0,0:0:0:0:
64,192,18306,1,8,0:0:0:80:soft-hitclap.wav
448,192,18306,1,0,0:0:0:0:
320,192,18473,1,0,0:0:0:0:
64,192,18639,1,8,0:0:0:80:soft-hitclap.wav
192,192,18639,1,0,0:0:0:0:
192,192,18889,1,8,0:0:0:80:soft-hitclap.wav
448,192,18889,1,0,0:0:0:0:
320,192,19139,1,8,0:0:0:80:soft-hitclap.wav
192,192,19223,1,0,0:0:0:0:
64,192,19306,1,2,0:0:0:100:
320,192,19306,1,8,0:0:0:80:soft-hitclap.wav
448,192,19306,1,0,0:0:0:0:
192,192,19473,1,0,0:0:0:0:
64,192,19639,1,8,0:0:0:80:soft-hitclap.wav
448,192,19639,1,0,0:0:0:0:
192,192,19806,1,0,0:0:0:0:
64,192,19973,1,8,0:0:0:80:soft-hitclap.wav
320,192,19973,1,0,0:0:0:0:
320,192,20223,1,8,0:0:0:80:soft-hitclap.wav
448,192,20223,1,0,0:0:0:0:
192,192,20473,1,8,0:0:0:80:soft-hitclap.wav
64,192,20639,1,2,0:0:0:100:
320,192,20639,1,8,0:0:0:80:soft-hitclap.wav
448,192,20639,1,0,0:0:0:0:
192,192,20723,1,0,0:0:0:0:
320,192,20806,1,0,0:0:0:70:LR_Clap Fast Low.wav
448,192,20889,1,8,0:0:0:80:soft-hitclap.wav
192,192,20973,1,0,0:0:0:0:
64,192,21056,1,0,0:0:0:70:LR_Clap Fast Low.wav
448,192,21139,1,8,0:0:0:80:soft-hitclap.wav
320,192,21223,1,0,0:0:0:70:LR_Clap Fast Low.wav
192,192,21306,1,8,0:0:0:80:soft-hitclap.wav
64,192,21389,1,0,0:0:0:70:LR_Clap Fast Low.wav
448,192,21473,1,8,0:0:0:80:soft-hitclap.wav
320,192,21556,1,8,0:0:0:80:soft-hitclap.wav
64,192,21639,1,8,0:0:0:80:soft-hitclap.wav
192,192,21723,1,0,0:0:0:0:
320,192,21806,1,8,0:0:0:80:soft-hitclap.wav
448,192,21889,1,0,0:0:0:0:
64,192,21973,128,2,22306:0:0:0:100:
192,192,21973,1,4,0:0:0:60:
320,192,22306,1,0,0:0:0:70:LR_Clap Fast Low.wav
448,192,22306,1,0,0:0:0:0:
192,192,22473,1,8,0:0:0:80:soft-hitclap.wav
64,192,22639,1,8,0:0:0:80:soft-hitclap.wav
448,192,22639,1,0,0:0:0:70:LR_Clap Fast Low.wav
64,192,22889,1,0,0:0:0:70:LR_Clap Fast Low.wav
448,192,22889,1,0,0:0:0:0:
192,192,23139,1,8,0:0:0:80:soft-hitclap.wav
320,192,23306,1,2,0:0:0:100:
448,192,23306,128,8,23639:0:0:0:80:soft-hitclap.wav
192,192,23473,1,0,0:0:0:0:
64,192,23639,1,0,0:0:0:70:LR_Clap Fast Low.wav
320,192,23639,1,0,0:0:0:0:
192,192,23806,1,8,0:0:0:80:soft-hitclap.wav
64,192,23973,1,8,0:0:0:80:soft-hitclap.wav
448,192,23973,1,0,0:0:0:70:LR_Clap Fast Low.wav
192,192,24056,1,0,0:0:0:0:
320,192,24139,1,8,0:0:0:80:soft-hitclap.wav
64,192,24223,1,0,0:0:0:70:LR_Clap Fast Low.wav
448,192,24223,1,0,0:0:0:0:
192,192,24473,1,8,0:0:0:80:soft-hitclap.wav
64,192,24556,1,0,0:0:0:0:
192,192,24639,128,2,24973:0:0:0:100:
448,192,24639,1,8,0:0:0:80:soft-hitclap.wav
320,192,24806,1,0,0:0:0:0:
64,192,24973,1,0,0:0:0:70:LR_Clap Fast Low.wav
448,192,24973,1,0,0:0:0:0:
320,192,25139,1,8,0:0:0:80:soft-hitclap.wav
64,192,25306,1,8,0:0:0:80:soft-hitclap.wav
192,192,25306,1,0,0:0:0:70:LR_Clap Fast Low.wav
192,192,25556,1,0,0:0:0:70:LR_Clap Fast Low.wav
448,192,25556,1,0,0:0:0:0:
320,192,25806,1,8,0:0:0:80:soft-hitclap.wav
448,192,25806,1,0,0:0:0:70:LR_Clap Fast Low.wav
64,192,25973,128,2,26139:0:0:0:100:
192,192,25973,1,8,0:0:0:80:soft-hitclap.wav
320,192,26139,1,0,0:0:0:0:
448,192,26139,128,0,26306:0:0:0:0:
64,192,26306,1,0,0:0:0:70:LR_Clap Fast Low.wav
192,192,26306,128,0,26473:0:0:0:0:
320,192,26473,1,8,0:0:0:80:soft-hitclap.wav
448,192,26473,128,0,26639:0:0:0:0:
64,192,26639,128,8,26806:0:0:0:80:soft-hitclap.wav
192,192,26639,1,0,0:0:0:70:LR_Clap Fast Low.wav
320,192,26806,128,8,26973:0:0:0:80:soft-hitclap.wav
448,192,26806,1,0,0:0:0:0:
64,192,26973,1,0,0:0:0:70:LR_Clap Fast Low.wav
192,192,26973,128,0,27139:0:0:0:0:
320,192,27139,128,8,27306:0:0:0:80:soft-hitclap.wav
448,192,27139,1,0,0:0:0:70:LR_Clap Fast Low.wav
64,192,27306,1,2,0:0:0:100:
192,192,27306,1,8,0:0:0:80:soft-hitclap.wav
448,192,27306,1,0,0:0:0:0:
320,192,27473,1,0,0:0:0:0:
192,192,27639,1,0,0:0:0:70:LR_Clap Fast Low.wav
448,192,27639,1,0,0:0:0:0:
64,192,27806,1,8,0:0:0:80:soft-hitclap.wav
192,192,27889,1,8,0:0:0:80:soft-hitclap.wav
320,192,27973,1,8,0:0:0:80:soft-hitclap.wav
448,192,27973,1,0,0:0:0:70:LR_Clap Fast Low.wav
192,192,28139,1,8,0:0:0:80:soft-hitclap.wav
64,192,28139,1,0,0:0:0:0:
64,192,28306,1,0,0:0:0:0:
448,192,28306,1,0,0:0:0:0:
320,192,28389,1,0,0:0:0:40:Ah~.wav
192,192,28473,1,8,0:0:0:80:soft-hitclap.wav
64,192,28639,1,2,0:0:0:100:
320,192,28639,1,8,0:0:0:80:soft-hitclap.wav
448,192,28639,1,0,0:0:0:0:
320,192,28806,1,0,0:0:0:0:
64,192,28973,1,0,0:0:0:70:LR_Clap Fast Low.wav
448,192,28973,1,0,0:0:0:0:
192,192,29139,1,8,0:0:0:80:soft-hitclap.wav
320,192,29223,1,8,0:0:0:80:soft-hitclap.wav
64,192,29306,1,8,0:0:0:80:soft-hitclap.wav
448,192,29306,1,0,0:0:0:70:LR_Clap Fast Low.wav
320,192,29473,1,8,0:0:0:80:soft-hitclap.wav
192,192,29473,1,0,0:0:0:0:
64,192,29639,1,0,0:0:0:0:
448,192,29639,1,0,0:0:0:0:
192,192,29723,1,0,0:0:0:70:LR_Clap Fast Low.wav
320,192,29806,1,8,0:0:0:80:soft-hitclap.wav
64,192,29973,1,2,0:0:0:100:
192,192,29973,1,8,0:0:0:80:soft-hitclap.wav
320,192,29973,1,0,0:0:0:0:
448,192,30139,1,0,0:0:0:0:
64,192,30306,1,0,0:0:0:70:LR_Clap Fast Low.wav
192,192,30306,1,0,0:0:0:0:
320,192,30473,1,8,0:0:0:80:soft-hitclap.wav
192,192,30556,1,8,0:0:0:80:soft-hitclap.wav
64,192,30639,1,8,0:0:0:80:soft-hitclap.wav
448,192,30639,1,0,0:0:0:70:LR_Clap Fast Low.wav
192,192,30806,1,8,0:0:0:80:soft-hitclap.wav
448,192,30806,1,0,0:0:0:0:
64,192,30973,1,0,0:0:0:0:
192,192,30973,1,0,0:0:0:0:
320,192,31056,1,0,0:0:0:40:Ah~.wav
448,192,31139,1,8,0:0:0:80:soft-hitclap.wav
64,192,31306,1,2,0:0:0:100:
192,192,31306,1,8,0:0:0:80:soft-hitclap.wav
320,192,31306,1,0,0:0:0:0:
192,192,31556,1,0,0:0:0:70:LR_Clap Fast Low.wav
448,192,31556,1,0,0:0:0:0:
64,192,31806,1,8,0:0:0:80:soft-hitclap.wav
320,192,31806,1,0,0:0:0:70:LR_Clap Fast Low.wav
192,192,31973,1,8,0:0:0:80:soft-hitclap.wav
320,192,32056,1,0,0:0:0:70:LR_Clap Fast Low.wav
448,192,32139,1,8,0:0:0:80:soft-hitclap.wav
64,192,32223,1,0,0:0:0:70:LR_Clap Fast Low.wav
192,192,32306,128,0,32639:0:0:0:40:Ah~.wav
64,192,32639,1,4,0:0:0:60:
320,192,32639,1,2,0:0:0:100:
448,192,32639,1,8,0:0:0:80:soft-hitclap.wav
192,192,32806,1,0,0:0:0:0:
64,192,32973,1,8,0:0:0:80:soft-hitclap.wav
448,192,32973,1,0,0:0:0:0:
320,192,33139,1,0,0:0:0:0:
64,192,33306,1,8,0:0:0:80:soft-hitclap.wav
192,192,33306,1,0,0:0:0:0:
64,192,33556,1,8,0:0:0:80:soft-hitclap.wav
192,192,33556,1,0,0:0:0:0:
320,192,33806,1,8,0:0:0:80:soft-hitclap.wav
64,192,33973,1,2,0:0:0:100:
192,192,33973,1,8,0:0:0:80:soft-hitclap.wav
448,192,33973,1,0,0:0:0:0:
320,192,34139,1,0,0:0:0:0:
192,192,34306,1,8,0:0:0:80:soft-hitclap.wav
448,192,34306,1,0,0:0:0:0:
64,192,34473,1,0,0:0:0:0:
192,192,34639,1,8,0:0:0:80:soft-hitclap.wav
320,192,34639,1,0,0:0:0:0:
192,192,34889,1,8,0:0:0:80:soft-hitclap.wav
448,192,34889,1,0,0:0:0:0:
320,192,35139,1,8,0:0:0:80:soft-hitclap.wav
64,192,35306,1,2,0:0:0:100:
192,192,35306,1,8,0:0:0:80:soft-hitclap.wav
448,192,35306,1,0,0:0:0:0:
448,192,35473,1,0,0:0:0:0:
64,192,35639,1,8,0:0:0:80:soft-hitclap.wav
192,192,35639,1,0,0:0:0:0:
320,192,35806,1,0,0:0:0:0:
64,192,35973,1,8,0:0:0:80:soft-hitclap.wav
192,192,35973,1,0,0:0:0:0:
192,192,36223,1,8,0:0:0:80:soft-hitclap.wav
320,192,36223,1,0,0:0:0:0:
448,192,36473,1,8,0:0:0:80:soft-hitclap.wav
64,192,36639,1,2,0:0:0:100:
192,192,36639,1,8,0:0:0:80:soft-hitclap.wav
320,192,36639,1,0,0:0:0:0:
448,192,36806,1,0,0:0:0:0:
64,192,36973,1,8,0:0:0:80:soft-hitclap.wav
320,192,36973,1,0,0:0:0:0:
192,192,37139,1,0,0:0:0:0:
64,192,37306,1,8,0:0:0:80:soft-hitclap.wav
448,192,37306,1,0,0:0:0:0:
192,192,37556,1,8,0:0:0:80:soft-hitclap.wav
448,192,37556,1,0,0:0:0:0:
320,192,37806,1,8,0:0:0:80:soft-hitclap.wav
64,192,37973,1,2,0:0:0:100:
192,192,37973,1,8,0:0:0:80:soft-hitclap.wav
448,192,37973,1,0,0:0:0:0:
320,192,38139,1,0,0:0:0:0:
192,192,38306,1,8,0:0:0:80:soft-hitclap.wav
448,192,38306,1,0,0:0:0:0:
64,192,38473,1,0,0:0:0:0:
192,192,38639,1,8,0:0:0:80:soft-hitclap.wav
448,192,38639,1,0,0:0:0:0:
320,192,38889,1,8,0:0:0:80:soft-hitclap.wav
448,192,38889,1,0,0:0:0:0:
192,192,39139,1,8,0:0:0:80:soft-hitclap.wav
64,192,39306,1,2,0:0:0:100:
320,192,39306,1,8,0:0:0:80:soft-hitclap.wav
448,192,39306,1,0,0:0:0:0:
192,192,39473,1,0,0:0:0:0:
320,192,39639,1,8,0:0:0:80:soft-hitclap.wav
448,192,39639,1,0,0:0:0:0:
64,192,39806,1,0,0:0:0:0:
192,192,39973,1,8,0:0:0:80:soft-hitclap.wav
448,192,39973,1,0,0:0:0:0:
192,192,40223,1,8,0:0:0:80:soft-hitclap.wav
320,192,40223,1,0,0:0:0:0:
320,192,40473,1,8,0:0:0:80:soft-hitclap.wav
64,192,40639,1,2,0:0:0:100:
192,192,40639,1,8,0:0:0:80:soft-hitclap.wav
448,192,40639,1,0,0:0:0:0:
320,192,40723,1,0,0:0:0:0:
192,192,40806,1,0,0:0:0:0:
64,192,40889,1,0,0:0:0:0:
320,192,40973,1,8,0:0:0:80:soft-hitclap.wav
448,192,41056,1,0,0:0:0:0:
192,192,41139,1,0,0:0:0:0:
320,192,41223,1,0,0:0:0:0:
448,192,41306,1,8,0:0:0:80:soft-hitclap.wav
192,192,41389,1,0,0:0:0:0:
64,192,41473,1,0,0:0:0:0:
448,192,41556,1,8,0:0:0:80:soft-hitclap.wav
320,192,41639,1,0,0:0:0:0:
192,192,41723,1,0,0:0:0:0:
64,192,41806,1,8,0:0:0:80:soft-hitclap.wav
320,192,41889,1,0,0:0:0:0:
64,192,41973,1,2,0:0:0:100:
192,192,41973,1,8,0:0:0:80:soft-hitclap.wav
448,192,41973,1,0,0:0:0:0:
320,192,42223,1,8,0:0:0:80:soft-hitclap.wav
448,192,42223,1,0,0:0:0:0:
64,192,42473,1,8,0:0:0:80:soft-hitclap.wav
192,192,42473,1,0,0:0:0:0:
448,192,42639,1,8,0:0:0:80:soft-hitclap.wav
320,192,42723,1,8,0:0:0:80:soft-hitclap.wav
192,192,42806,1,8,0:0:0:80:soft-hitclap.wav
64,192,42889,1,8,0:0:0:80:soft-hitclap.wav
448,192,42973,1,0,0:0:0:0:
320,192,43056,1,0,0:0:0:0:
64,192,43139,1,0,0:0:0:0:
192,192,43223,1,0,0:0:0:0:
64,192,43306,128,2,45306:0:0:0:100:
320,192,43306,128,4,45306:0:0:0:60:
448,192,43306,128,8,45306:0:0:0:80:soft-hitclap.wav
