osu file format v14

[General]
AudioFilename: audio.mp3
AudioLeadIn: 0
PreviewTime: 22031
Countdown: 0
SampleSet: Normal
StackLeniency: 0.7
Mode: 3
LetterboxInBreaks: 0
SpecialStyle: 0
WidescreenStoryboard: 0

[Editor]
DistanceSpacing: 1
BeatDivisor: 4
GridSize: 32
TimelineZoom: 1.9

[Metadata]
Title:176 - ikazuchi_B
TitleUnicode:176 - ikazuchi_B
Artist:saradisk
ArtistUnicode:saradisk
Creator:YuEast 2018
Version:Ute!
Source:艦隊これくしょん -艦これ-
Tags:remix kancolle kantai collection 雷 lolicore instrumental japanese novelty electronic
BeatmapID:4053710
BeatmapSetID:1956799

[Difficulty]
HPDrainRate:8.5
CircleSize:4
OverallDifficulty:8.5
ApproachRate:5
SliderMultiplier:1.4
SliderTickRate:1

[Events]
//Background and Video events
0,0,"ikazu.jpg",0,0
//Break Periods
//Storyboard Layer 0 (Background)
//Storyboard Layer 1 (Fail)
//Storyboard Layer 2 (Pass)
//Storyboard Layer 3 (Foreground)
//Storyboard Layer 4 (Overlay)
//Storyboard Sound Samples

[TimingPoints]
698,333.333333333333,4,1,1,80,1,0
22031,-100,4,1,1,80,0,1
43364,-100,4,1,1,80,0,0

[HitObjects]
64,192,364,128,0,531:0:0:0:0:
192,192,364,128,0,448:0:0:0:0:
192,192,531,1,0,0:0:0:0:
320,192,531,128,0,614:0:0:0:0:
64,192,698,1,2,0:0:0:0:
448,192,698,1,0,0:0:0:0:
320,192,753,1,0,0:0:0:0:
192,192,809,1,0,0:0:0:0:
448,192,864,1,8,0:0:0:0:
320,192,920,1,0,0:0:0:0:
64,192,1031,1,2,0:0:0:0:
448,192,1031,1,0,0:0:0:0:
192,192,1086,1,0,0:0:0:0:
320,192,1142,1,0,0:0:0:0:
64,192,1197,1,8,0:0:0:0:
192,192,1253,1,0,0:0:0:0:
64,192,1364,1,2,0:0:0:0:
448,192,1364,1,0,0:0:0:0:
320,192,1420,1,0,0:0:0:0:
192,192,1475,1,0,0:0:0:0:
64,192,1531,1,8,0:0:0:0:
448,192,1531,1,0,0:0:0:0:
192,192,1614,1,2,0:0:0:0:
320,192,1614,1,0,0:0:0:0:
448,192,1697,1,0,0:0:0:0:
64,192,1781,1,8,0:0:0:0:
192,192,1781,1,0,0:0:0:0:
320,192,1864,1,2,0:0:0:0:
448,192,1864,1,0,0:0:0:0:
192,192,1947,1,8,0:0:0:0:
64,192,2031,1,2,0:0:0:0:
448,192,2031,1,0,0:0:0:0:
192,192,2086,1,0,0:0:0:0:
320,192,2142,1,0,0:0:0:0:
64,192,2197,1,8,0:0:0:0:
192,192,2253,1,0,0:0:0:0:
64,192,2364,1,2,0:0:0:0:
448,192,2364,1,0,0:0:0:0:
320,192,2420,1,0,0:0:0:0:
192,192,2475,1,0,0:0:0:0:
448,192,2531,1,8,0:0:0:0:
320,192,2586,1,0,0:0:0:0:
64,192,2697,1,2,0:0:0:0:
448,192,2697,1,0,0:0:0:0:
192,192,2753,1,0,0:0:0:0:
320,192,2809,1,0,0:0:0:0:
64,192,2864,1,8,0:0:0:0:
448,192,2864,1,0,0:0:0:0:
192,192,2947,1,2,0:0:0:0:
320,192,2947,1,0,0:0:0:0:
64,192,3031,1,0,0:0:0:0:
320,192,3114,1,8,0:0:0:0:
448,192,3114,1,0,0:0:0:0:
64,192,3197,1,2,0:0:0:0:
192,192,3197,1,0,0:0:0:0:
320,192,3281,1,8,0:0:0:0:
64,192,3364,1,2,0:0:0:0:
448,192,3364,1,0,0:0:0:0:
320,192,3420,1,0,0:0:0:0:
192,192,3475,1,0,0:0:0:0:
448,192,3531,1,8,0:0:0:0:
320,192,3586,1,0,0:0:0:0:
64,192,3697,1,2,0:0:0:0:
448,192,3697,1,0,0:0:0:0:
192,192,3753,1,0,0:0:0:0:
320,192,3809,1,0,0:0:0:0:
64,192,3864,1,8,0:0:0:0:
192,192,3920,1,0,0:0:0:0:
64,192,4031,1,2,0:0:0:0:
448,192,4031,1,0,0:0:0:0:
320,192,4086,1,0,0:0:0:0:
192,192,4142,1,0,0:0:0:0:
64,192,4197,1,8,0:0:0:0:
448,192,4197,1,0,0:0:0:0:
192,192,4281,1,2,0:0:0:0:
320,192,4281,1,0,0:0:0:0:
448,192,4364,1,0,0:0:0:0:
64,192,4447,1,8,0:0:0:0:
192,192,4447,1,0,0:0:0:0:
320,192,4531,1,2,0:0:0:0:
448,192,4531,1,0,0:0:0:0:
192,192,4614,1,8,0:0:0:0:
64,192,4697,1,2,0:0:0:0:
448,192,4697,1,0,0:0:0:0:
192,192,4753,1,0,0:0:0:0:
320,192,4809,1,0,0:0:0:0:
64,192,4864,1,8,0:0:0:0:
192,192,4920,1,0,0:0:0:0:
320,192,5031,1,2,0:0:0:0:
448,192,5031,1,0,0:0:0:0:
320,192,5197,1,2,0:0:0:0:
448,192,5197,1,0,0:0:0:0:
64,192,5364,1,2,0:0:0:0:
192,192,5364,1,0,0:0:0:0:
64,192,5447,1,8,0:0:0:0:
448,192,5447,1,0,0:0:0:0:
192,192,5531,1,2,0:0:0:0:
320,192,5531,1,0,0:0:0:0:
320,192,5614,1,2,0:0:0:0:
64,192,5697,1,2,0:0:0:0:
192,192,5697,1,0,0:0:0:0:
64,192,5864,1,2,0:0:0:0:
192,192,5864,1,0,0:0:0:0:
320,192,6031,1,2,0:0:0:0:
448,192,6031,1,0,0:0:0:0:
192,192,6086,1,0,0:0:0:0:
320,192,6142,1,0,0:0:0:0:
64,192,6197,1,8,0:0:0:0:
448,192,6197,1,0,0:0:0:0:
64,192,6364,1,2,0:0:0:0:
192,192,6364,1,0,0:0:0:0:
320,192,6420,1,0,0:0:0:0:
192,192,6475,1,0,0:0:0:0:
64,192,6531,1,8,0:0:0:0:
448,192,6531,1,0,0:0:0:0:
320,192,6697,1,2,0:0:0:0:
448,192,6697,1,0,0:0:0:0:
192,192,6753,1,0,0:0:0:0:
320,192,6809,1,0,0:0:0:0:
64,192,6864,1,8,0:0:0:0:
448,192,6864,1,0,0:0:0:0:
192,192,6947,1,2,0:0:0:0:
320,192,6947,1,0,0:0:0:0:
64,192,7031,1,0,0:0:0:0:
320,192,7114,1,8,0:0:0:0:
448,192,7114,1,0,0:0:0:0:
64,192,7197,1,2,0:0:0:0:
192,192,7197,1,0,0:0:0:0:
320,192,7281,1,8,0:0:0:0:
448,192,7281,1,0,0:0:0:0:
64,192,7364,1,2,0:0:0:0:
192,192,7364,1,0,0:0:0:0:
320,192,7420,1,0,0:0:0:0:
192,192,7475,1,0,0:0:0:0:
64,192,7531,1,8,0:0:0:0:
448,192,7531,1,0,0:0:0:0:
320,192,7697,1,2,0:0:0:0:
448,192,7697,1,0,0:0:0:0:
192,192,7753,1,0,0:0:0:0:
320,192,7809,1,0,0:0:0:0:
64,192,7864,1,8,0:0:0:0:
448,192,7864,1,0,0:0:0:0:
64,192,8031,1,2,0:0:0:0:
192,192,8031,1,0,0:0:0:0:
320,192,8086,1,0,0:0:0:0:
192,192,8142,1,0,0:0:0:0:
64,192,8197,1,8,0:0:0:0:
448,192,8197,1,0,0:0:0:0:
192,192,8281,1,2,0:0:0:0:
320,192,8281,1,0,0:0:0:0:
448,192,8364,1,0,0:0:0:0:
64,192,8447,1,8,0:0:0:0:
192,192,8447,1,0,0:0:0:0:
320,192,8531,1,2,0:0:0:0:
448,192,8531,1,0,0:0:0:0:
64,192,8614,1,8,0:0:0:0:
192,192,8614,1,0,0:0:0:0:
320,192,8697,1,2,0:0:0:0:
448,192,8697,1,0,0:0:0:0:
192,192,8753,1,0,0:0:0:0:
320,192,8809,1,0,0:0:0:0:
64,192,8864,1,8,0:0:0:0:
448,192,8864,1,0,0:0:0:0:
64,192,9031,1,2,0:0:0:0:
192,192,9031,1,0,0:0:0:0:
320,192,9086,1,0,0:0:0:0:
192,192,9142,1,0,0:0:0:0:
64,192,9197,1,8,0:0:0:0:
448,192,9197,1,0,0:0:0:0:
320,192,9364,1,2,0:0:0:0:
448,192,9364,1,0,0:0:0:0:
192,192,9420,1,0,0:0:0:0:
320,192,9475,1,0,0:0:0:0:
64,192,9531,1,8,0:0:0:0:
448,192,9531,1,0,0:0:0:0:
192,192,9614,1,2,0:0:0:0:
320,192,9614,1,0,0:0:0:0:
64,192,9697,1,0,0:0:0:0:
320,192,9781,1,8,0:0:0:0:
448,192,9781,1,0,0:0:0:0:
64,192,9864,1,2,0:0:0:0:
192,192,9864,1,0,0:0:0:0:
320,192,9947,1,8,0:0:0:0:
448,192,9947,1,0,0:0:0:0:
64,192,10031,128,2,10197:0:0:0:0:
192,192,10031,128,0,10114:0:0:0:0:
192,192,10197,1,0,0:0:0:0:
320,192,10197,128,0,10281:0:0:0:0:
64,192,10364,128,0,10447:0:0:0:0:
192,192,10364,128,0,10447:0:0:0:0:
64,192,10697,128,2,10781:0:0:0:0:
320,192,10697,128,0,10781:0:0:0:0:
448,192,10697,128,0,10864:0:0:0:0:
192,192,10864,128,0,10947:0:0:0:0:
320,192,10864,1,0,0:0:0:0:
320,192,11031,128,0,11114:0:0:0:0:
192,192,11114,128,0,11197:0:0:0:0:
320,192,11197,128,0,11281:0:0:0:0:
192,192,11281,128,0,11364:0:0:0:0:
64,192,11364,1,2,0:0:0:0:
448,192,11364,1,0,0:0:0:0:
320,192,11420,1,0,0:0:0:0:
192,192,11475,1,0,0:0:0:0:
448,192,11531,1,8,0:0:0:0:
320,192,11586,1,0,0:0:0:0:
64,192,11697,1,2,0:0:0:0:
448,192,11697,1,0,0:0:0:0:
192,192,11753,1,0,0:0:0:0:
320,192,11809,1,0,0:0:0:0:
64,192,11864,1,8,0:0:0:0:
192,192,11920,1,0,0:0:0:0:
64,192,12031,1,2,0:0:0:0:
448,192,12031,1,0,0:0:0:0:
320,192,12086,1,0,0:0:0:0:
192,192,12142,1,0,0:0:0:0:
64,192,12197,1,8,0:0:0:0:
448,192,12197,1,0,0:0:0:0:
192,192,12281,1,2,0:0:0:0:
320,192,12281,1,0,0:0:0:0:
448,192,12364,1,0,0:0:0:0:
64,192,12447,1,8,0:0:0:0:
192,192,12447,1,0,0:0:0:0:
320,192,12531,1,2,0:0:0:0:
448,192,12531,1,0,0:0:0:0:
192,192,12614,1,8,0:0:0:0:
64,192,12697,1,2,0:0:0:0:
448,192,12697,1,0,0:0:0:0:
192,192,12753,1,0,0:0:0:0:
320,192,12809,1,0,0:0:0:0:
64,192,12864,1,8,0:0:0:0:
192,192,12920,1,0,0:0:0:0:
64,192,13031,1,2,0:0:0:0:
448,192,13031,1,0,0:0:0:0:
320,192,13086,1,0,0:0:0:0:
192,192,13142,1,0,0:0:0:0:
448,192,13197,1,8,0:0:0:0:
320,192,13253,1,0,0:0:0:0:
64,192,13364,1,2,0:0:0:0:
448,192,13364,1,0,0:0:0:0:
192,192,13420,1,0,0:0:0:0:
320,192,13475,1,0,0:0:0:0:
64,192,13531,1,8,0:0:0:0:
448,192,13531,1,0,0:0:0:0:
192,192,13614,1,2,0:0:0:0:
320,192,13614,1,0,0:0:0:0:
64,192,13697,1,0,0:0:0:0:
320,192,13781,1,8,0:0:0:0:
448,192,13781,1,0,0:0:0:0:
64,192,13864,1,2,0:0:0:0:
192,192,13864,1,0,0:0:0:0:
320,192,13947,1,8,0:0:0:0:
64,192,14031,1,2,0:0:0:0:
448,192,14031,1,0,0:0:0:0:
320,192,14086,1,0,0:0:0:0:
192,192,14142,1,0,0:0:0:0:
448,192,14197,1,8,0:0:0:0:
320,192,14253,1,0,0:0:0:0:
64,192,14364,1,2,0:0:0:0:
448,192,14364,1,0,0:0:0:0:
192,192,14420,1,0,0:0:0:0:
320,192,14475,1,0,0:0:0:0:
64,192,14531,1,8,0:0:0:0:
192,192,14586,1,0,0:0:0:0:
64,192,14697,1,2,0:0:0:0:
448,192,14697,1,0,0:0:0:0:
320,192,14753,1,0,0:0:0:0:
192,192,14809,1,0,0:0:0:0:
64,192,14864,1,8,0:0:0:0:
448,192,14864,1,0,0:0:0:0:
192,192,14947,1,2,0:0:0:0:
320,192,14947,1,0,0:0:0:0:
448,192,15031,1,0,0:0:0:0:
64,192,15114,1,8,0:0:0:0:
192,192,15114,1,0,0:0:0:0:
320,192,15197,1,2,0:0:0:0:
448,192,15197,1,0,0:0:0:0:
192,192,15281,1,0,0:0:0:0:
64,192,15364,1,2,0:0:0:0:
448,192,15364,1,0,0:0:0:0:
192,192,15420,1,0,0:0:0:0:
320,192,15475,1,0,0:0:0:0:
64,192,15531,1,8,0:0:0:0:
448,192,15531,1,0,0:0:0:0:
64,192,15614,1,2,0:0:0:0:
192,192,15614,1,0,0:0:0:0:
448,192,15697,1,2,0:0:0:0:
64,192,15781,1,8,0:0:0:0:
320,192,15781,1,0,0:0:0:0:
320,192,15864,1,8,0:0:0:0:
448,192,15864,1,0,0:0:0:0:
64,192,15947,1,8,0:0:0:0:
192,192,15947,1,0,0:0:0:0:
192,192,16031,1,8,0:0:0:0:
320,192,16031,1,0,0:0:0:0:
64,192,16114,1,8,0:0:0:0:
448,192,16114,1,0,0:0:0:0:
192,192,16197,1,2,0:0:0:0:
320,192,16197,1,0,0:0:0:0:
320,192,16281,1,2,0:0:0:0:
64,192,16364,1,2,0:0:0:0:
192,192,16364,1,0,0:0:0:0:
448,192,16447,1,0,0:0:0:0:
64,192,16531,1,2,0:0:0:0:
192,192,16531,1,0,0:0:0:0:
448,192,16614,1,0,0:0:0:0:
320,192,16697,1,2,0:0:0:0:
448,192,16697,1,0,0:0:0:0:
192,192,16753,1,0,0:0:0:0:
320,192,16809,1,0,0:0:0:0:
64,192,16864,1,8,0:0:0:0:
448,192,16864,1,0,0:0:0:0:
64,192,17031,1,2,0:0:0:0:
192,192,17031,1,0,0:0:0:0:
320,192,17086,1,0,0:0:0:0:
192,192,17142,1,0,0:0:0:0:
64,192,17197,1,8,0:0:0:0:
448,192,17197,1,0,0:0:0:0:
320,192,17364,1,2,0:0:0:0:
448,192,17364,1,0,0:0:0:0:
192,192,17420,1,0,0:0:0:0:
320,192,17475,1,0,0:0:0:0:
64,192,17531,1,8,0:0:0:0:
448,192,17531,1,0,0:0:0:0:
192,192,17614,1,2,0:0:0:0:
320,192,17614,1,0,0:0:0:0:
64,192,17697,1,0,0:0:0:0:
320,192,17781,1,8,0:0:0:0:
448,192,17781,1,0,0:0:0:0:
64,192,17864,1,2,0:0:0:0:
192,192,17864,1,0,0:0:0:0:
320,192,17947,1,8,0:0:0:0:
448,192,17947,1,0,0:0:0:0:
64,192,18031,1,2,0:0:0:0:
192,192,18031,1,0,0:0:0:0:
320,192,18086,1,0,0:0:0:0:
192,192,18142,1,0,0:0:0:0:
64,192,18197,1,8,0:0:0:0:
448,192,18197,1,0,0:0:0:0:
320,192,18364,1,2,0:0:0:0:
448,192,18364,1,0,0:0:0:0:
192,192,18420,1,0,0:0:0:0:
320,192,18475,1,0,0:0:0:0:
64,192,18531,1,8,0:0:0:0:
448,192,18531,1,0,0:0:0:0:
64,192,18697,1,2,0:0:0:0:
192,192,18697,1,0,0:0:0:0:
320,192,18753,1,0,0:0:0:0:
192,192,18809,1,0,0:0:0:0:
64,192,18864,1,8,0:0:0:0:
448,192,18864,1,0,0:0:0:0:
192,192,18947,1,2,0:0:0:0:
320,192,18947,1,0,0:0:0:0:
448,192,19031,1,0,0:0:0:0:
64,192,19114,1,8,0:0:0:0:
192,192,19114,1,0,0:0:0:0:
320,192,19197,1,2,0:0:0:0:
448,192,19197,1,0,0:0:0:0:
64,192,19281,1,8,0:0:0:0:
192,192,19281,1,0,0:0:0:0:
320,192,19364,1,2,0:0:0:0:
448,192,19364,1,0,0:0:0:0:
192,192,19420,1,0,0:0:0:0:
320,192,19475,1,0,0:0:0:0:
64,192,19531,1,8,0:0:0:0:
448,192,19531,1,0,0:0:0:0:
320,192,19614,1,0,0:0:0:0:
64,192,19697,1,2,0:0:0:0:
192,192,19697,1,0,0:0:0:0:
320,192,19753,1,0,0:0:0:0:
192,192,19809,1,0,0:0:0:0:
64,192,19864,1,8,0:0:0:0:
448,192,19864,1,0,0:0:0:0:
192,192,19947,1,0,0:0:0:0:
320,192,20031,1,2,0:0:0:0:
448,192,20031,1,0,0:0:0:0:
192,192,20086,1,0,0:0:0:0:
320,192,20142,1,0,0:0:0:0:
64,192,20197,1,8,0:0:0:0:
448,192,20197,1,0,0:0:0:0:
192,192,20281,1,2,0:0:0:0:
320,192,20281,1,0,0:0:0:0:
64,192,20364,1,0,0:0:0:0:
320,192,20447,1,8,0:0:0:0:
448,192,20447,1,0,0:0:0:0:
64,192,20531,1,2,0:0:0:0:
192,192,20531,1,0,0:0:0:0:
320,192,20614,1,8,0:0:0:0:
448,192,20614,1,0,0:0:0:0:
64,192,20697,1,2,0:0:0:0:
192,192,20697,1,0,0:0:0:0:
320,192,20781,1,0,0:0:0:0:
64,192,20864,1,8,0:0:0:0:
448,192,20864,1,0,0:0:0:0:
64,192,20947,1,2,0:0:0:0:
192,192,20947,1,0,0:0:0:0:
320,192,21031,1,0,0:0:0:0:
320,192,21114,1,8,0:0:0:0:
448,192,21114,1,0,0:0:0:0:
64,192,21197,1,2,0:0:0:0:
192,192,21197,1,0,0:0:0:0:
192,192,21281,1,8,0:0:0:0:
448,192,21281,1,0,0:0:0:0:
64,192,21364,1,2,0:0:0:0:
320,192,21364,1,0,0:0:0:0:
320,192,21447,1,8,0:0:0:0:
448,192,21447,1,0,0:0:0:0:
64,192,21531,1,2,0:0:0:0:
192,192,21531,1,0,0:0:0:0:
64,192,21614,1,2,0:0:0:0:
320,192,21697,1,2,0:0:0:0:
448,192,21697,1,0,0:0:0:0:
192,192,21781,1,0,0:0:0:0:
320,192,21864,1,8,0:0:0:0:
448,192,21864,1,0,0:0:0:0:
64,192,21947,1,2,0:0:0:0:
192,192,21947,1,0,0:0:0:0:
64,192,22031,1,2,0:0:0:0:
320,192,22031,1,0,0:0:0:0:
448,192,22031,1,0,0:0:0:0:
320,192,22114,1,0,0:0:0:0:
448,192,22197,1,0,0:0:0:0:
192,192,22281,1,0,0:0:0:0:
64,192,22364,1,8,0:0:0:0:
320,192,22364,1,0,0:0:0:0:
448,192,22364,1,0,0:0:0:0:
64,192,22447,1,0,0:0:0:0:
320,192,22531,1,2,0:0:0:0:
448,192,22531,1,0,0:0:0:0:
64,192,22614,1,2,0:0:0:0:
448,192,22614,1,0,0:0:0:0:
192,192,22697,1,0,0:0:0:0:
320,192,22697,1,0,0:0:0:0:
64,192,22781,1,0,0:0:0:0:
320,192,22864,1,2,0:0:0:0:
448,192,22864,1,0,0:0:0:0:
64,192,22947,1,0,0:0:0:0:
192,192,22947,1,0,0:0:0:0:
64,192,23031,1,8,0:0:0:0:
320,192,23031,1,0,0:0:0:0:
448,192,23031,1,0,0:0:0:0:
448,192,23114,1,0,0:0:0:0:
64,192,23197,128,0,23364:0:0:0:0:
320,192,23197,1,0,0:0:0:0:
192,192,23281,1,0,0:0:0:0:
320,192,23364,1,2,0:0:0:0:
448,192,23364,1,0,0:0:0:0:
320,192,23447,1,0,0:0:0:0:
64,192,23531,1,0,0:0:0:0:
448,192,23531,1,0,0:0:0:0:
192,192,23614,1,0,0:0:0:0:
64,192,23697,1,8,0:0:0:0:
320,192,23697,1,0,0:0:0:0:
448,192,23697,1,0,0:0:0:0:
64,192,23781,1,0,0:0:0:0:
320,192,23864,1,2,0:0:0:0:
448,192,23864,1,0,0:0:0:0:
64,192,23947,1,2,0:0:0:0:
448,192,23947,1,0,0:0:0:0:
192,192,24031,1,0,0:0:0:0:
320,192,24031,1,0,0:0:0:0:
64,192,24114,1,0,0:0:0:0:
320,192,24197,1,2,0:0:0:0:
448,192,24197,1,0,0:0:0:0:
64,192,24281,1,0,0:0:0:0:
192,192,24281,1,0,0:0:0:0:
64,192,24364,1,8,0:0:0:0:
320,192,24364,1,0,0:0:0:0:
448,192,24364,1,0,0:0:0:0:
320,192,24447,1,0,0:0:0:0:
192,192,24531,1,0,0:0:0:0:
448,192,24531,128,0,24697:0:0:0:0:
192,192,24614,1,0,0:0:0:0:
64,192,24697,1,2,0:0:0:0:
320,192,24697,1,0,0:0:0:0:
320,192,24781,1,0,0:0:0:0:
64,192,24864,1,0,0:0:0:0:
192,192,24864,1,0,0:0:0:0:
448,192,24947,1,0,0:0:0:0:
64,192,25031,1,8,0:0:0:0:
192,192,25031,1,0,0:0:0:0:
320,192,25031,1,0,0:0:0:0:
192,192,25114,1,0,0:0:0:0:
320,192,25197,1,2,0:0:0:0:
448,192,25197,1,0,0:0:0:0:
64,192,25281,1,2,0:0:0:0:
448,192,25281,1,0,0:0:0:0:
192,192,25364,1,0,0:0:0:0:
320,192,25364,1,0,0:0:0:0:
64,192,25447,1,0,0:0:0:0:
320,192,25531,1,2,0:0:0:0:
448,192,25531,1,0,0:0:0:0:
64,192,25614,1,0,0:0:0:0:
192,192,25614,1,0,0:0:0:0:
64,192,25697,1,8,0:0:0:0:
320,192,25697,1,0,0:0:0:0:
448,192,25697,1,0,0:0:0:0:
320,192,25781,1,0,0:0:0:0:
64,192,25864,1,0,0:0:0:0:
192,192,25864,128,0,26031:0:0:0:0:
448,192,25947,1,0,0:0:0:0:
320,192,26031,1,2,0:0:0:0:
448,192,26031,1,0,0:0:0:0:
64,192,26086,1,0,0:0:0:0:
192,192,26142,1,0,0:0:0:0:
320,192,26197,1,0,0:0:0:0:
448,192,26253,1,0,0:0:0:0:
320,192,26309,1,0,0:0:0:0:
64,192,26364,1,8,0:0:0:0:
192,192,26364,1,0,0:0:0:0:
448,192,26420,1,0,0:0:0:0:
320,192,26475,1,0,0:0:0:0:
192,192,26531,1,2,0:0:0:0:
64,192,26586,1,0,0:0:0:0:
192,192,26642,1,0,0:0:0:0:
320,192,26697,1,0,0:0:0:0:
448,192,26697,1,0,0:0:0:0:
64,192,26753,1,0,0:0:0:0:
192,192,26809,1,0,0:0:0:0:
320,192,26864,1,2,0:0:0:0:
448,192,26920,1,0,0:0:0:0:
320,192,26975,1,0,0:0:0:0:
64,192,27031,1,8,0:0:0:0:
192,192,27031,1,0,0:0:0:0:
448,192,27086,1,0,0:0:0:0:
320,192,27142,1,0,0:0:0:0:
64,192,27197,1,0,0:0:0:0:
192,192,27197,1,0,0:0:0:0:
192,192,27281,1,0,0:0:0:0:
64,192,27364,1,2,0:0:0:0:
320,192,27364,1,0,0:0:0:0:
448,192,27364,1,0,0:0:0:0:
320,192,27447,1,0,0:0:0:0:
64,192,27531,1,0,0:0:0:0:
448,192,27614,1,0,0:0:0:0:
64,192,27697,1,8,0:0:0:0:
192,192,27697,1,0,0:0:0:0:
320,192,27697,1,0,0:0:0:0:
320,192,27781,1,0,0:0:0:0:
192,192,27864,1,2,0:0:0:0:
448,192,27864,1,0,0:0:0:0:
64,192,27920,1,0,0:0:0:0:
320,192,27975,1,0,0:0:0:0:
192,192,28031,1,0,0:0:0:0:
448,192,28086,1,0,0:0:0:0:
320,192,28142,1,0,0:0:0:0:
64,192,28197,1,2,0:0:0:0:
192,192,28197,1,0,0:0:0:0:
320,192,28281,1,0,0:0:0:0:
448,192,28281,1,0,0:0:0:0:
64,192,28364,1,8,0:0:0:0:
192,192,28364,1,0,0:0:0:0:
448,192,28364,1,0,0:0:0:0:
192,192,28447,1,0,0:0:0:0:
64,192,28531,1,0,0:0:0:0:
448,192,28531,1,0,0:0:0:0:
192,192,28614,1,0,0:0:0:0:
64,192,28697,1,2,0:0:0:0:
320,192,28697,1,0,0:0:0:0:
448,192,28697,1,0,0:0:0:0:
320,192,28781,1,0,0:0:0:0:
192,192,28864,1,0,0:0:0:0:
320,192,28947,1,0,0:0:0:0:
448,192,28947,1,0,0:0:0:0:
64,192,29031,1,8,0:0:0:0:
192,192,29031,1,0,0:0:0:0:
448,192,29031,1,0,0:0:0:0:
192,192,29114,1,0,0:0:0:0:
64,192,29197,1,2,0:0:0:0:
320,192,29197,1,0,0:0:0:0:
448,192,29253,1,0,0:0:0:0:
192,192,29309,1,0,0:0:0:0:
320,192,29364,1,0,0:0:0:0:
64,192,29420,1,0,0:0:0:0:
192,192,29475,1,0,0:0:0:0:
320,192,29531,1,2,0:0:0:0:
448,192,29531,1,0,0:0:0:0:
64,192,29614,1,0,0:0:0:0:
192,192,29614,1,0,0:0:0:0:
64,192,29697,1,8,0:0:0:0:
320,192,29697,1,0,0:0:0:0:
448,192,29697,1,0,0:0:0:0:
320,192,29781,1,0,0:0:0:0:
64,192,29864,1,0,0:0:0:0:
192,192,29864,1,0,0:0:0:0:
64,192,29947,1,0,0:0:0:0:
192,192,30031,1,2,0:0:0:0:
320,192,30031,1,0,0:0:0:0:
448,192,30031,1,0,0:0:0:0:
192,192,30114,1,0,0:0:0:0:
320,192,30197,1,0,0:0:0:0:
448,192,30197,1,0,0:0:0:0:
448,192,30281,1,0,0:0:0:0:
64,192,30364,1,8,0:0:0:0:
192,192,30364,1,0,0:0:0:0:
320,192,30364,1,0,0:0:0:0:
192,192,30447,1,0,0:0:0:0:
320,192,30531,1,2,0:0:0:0:
448,192,30531,1,0,0:0:0:0:
192,192,30614,1,2,0:0:0:0:
448,192,30614,1,0,0:0:0:0:
64,192,30697,1,0,0:0:0:0:
320,192,30697,1,0,0:0:0:0:
64,192,30781,1,0,0:0:0:0:
320,192,30864,1,2,0:0:0:0:
448,192,30864,1,0,0:0:0:0:
320,192,30947,1,0,0:0:0:0:
64,192,31031,1,8,0:0:0:0:
192,192,31031,1,0,0:0:0:0:
448,192,31031,1,0,0:0:0:0:
64,192,31114,1,0,0:0:0:0:
320,192,31197,1,0,0:0:0:0:
448,192,31197,1,0,0:0:0:0:
320,192,31281,1,0,0:0:0:0:
64,192,31364,1,2,0:0:0:0:
192,192,31364,1,0,0:0:0:0:
64,192,31447,1,0,0:0:0:0:
192,192,31531,1,0,0:0:0:0:
192,192,31614,1,0,0:0:0:0:
448,192,31614,1,0,0:0:0:0:
64,192,31697,1,8,0:0:0:0:
320,192,31697,1,0,0:0:0:0:
448,192,31697,1,0,0:0:0:0:
320,192,31781,1,0,0:0:0:0:
192,192,31864,1,2,0:0:0:0:
448,192,31864,1,0,0:0:0:0:
320,192,31947,1,2,0:0:0:0:
448,192,31947,1,0,0:0:0:0:
64,192,32031,1,0,0:0:0:0:
192,192,32031,1,0,0:0:0:0:
192,192,32114,1,0,0:0:0:0:
64,192,32197,1,2,0:0:0:0:
320,192,32197,1,0,0:0:0:0:
320,192,32281,1,0,0:0:0:0:
448,192,32281,1,0,0:0:0:0:
64,192,32364,1,0,0:0:0:0:
192,192,32364,1,0,0:0:0:0:
448,192,32420,1,0,0:0:0:0:
320,192,32475,1,0,0:0:0:0:
192,192,32531,1,0,0:0:0:0:
64,192,32586,1,0,0:0:0:0:
192,192,32642,1,0,0:0:0:0:
320,192,32697,1,2,0:0:0:0:
448,192,32697,1,0,0:0:0:0:
448,192,32781,1,0,0:0:0:0:
64,192,32864,1,0,0:0:0:0:
192,192,32947,1,0,0:0:0:0:
64,192,33031,1,2,0:0:0:0:
192,192,33031,1,0,0:0:0:0:
448,192,33031,1,0,0:0:0:0:
448,192,33114,1,0,0:0:0:0:
320,192,33197,1,0,0:0:0:0:
64,192,33281,1,0,0:0:0:0:
64,192,33364,1,2,0:0:0:0:
192,192,33364,1,0,0:0:0:0:
448,192,33364,1,0,0:0:0:0:
448,192,33447,1,0,0:0:0:0:
192,192,33531,1,0,0:0:0:0:
64,192,33614,1,2,0:0:0:0:
320,192,33614,1,0,0:0:0:0:
448,192,33614,1,0,0:0:0:0:
320,192,33697,1,0,0:0:0:0:
64,192,33781,1,0,0:0:0:0:
192,192,33864,1,2,0:0:0:0:
320,192,33864,1,0,0:0:0:0:
448,192,33864,128,0,34031:0:0:0:0:
64,192,34031,1,2,0:0:0:0:
192,192,34031,1,0,0:0:0:0:
320,192,34031,1,0,0:0:0:0:
64,192,34114,1,0,0:0:0:0:
192,192,34197,1,0,0:0:0:0:
448,192,34197,1,0,0:0:0:0:
320,192,34281,1,0,0:0:0:0:
64,192,34364,1,2,0:0:0:0:
320,192,34364,1,0,0:0:0:0:
448,192,34364,1,0,0:0:0:0:
64,192,34447,1,0,0:0:0:0:
192,192,34531,1,0,0:0:0:0:
320,192,34531,1,0,0:0:0:0:
448,192,34614,1,0,0:0:0:0:
64,192,34697,1,2,0:0:0:0:
192,192,34697,1,0,0:0:0:0:
448,192,34697,1,0,0:0:0:0:
64,192,34781,1,0,0:0:0:0:
320,192,34864,1,0,0:0:0:0:
64,192,34947,1,2,0:0:0:0:
192,192,34947,1,0,0:0:0:0:
448,192,34947,1,0,0:0:0:0:
448,192,35031,1,0,0:0:0:0:
192,192,35114,1,0,0:0:0:0:
64,192,35197,128,2,35364:0:0:0:0:
320,192,35197,1,0,0:0:0:0:
448,192,35197,1,0,0:0:0:0:
192,192,35364,1,2,0:0:0:0:
320,192,35364,1,0,0:0:0:0:
448,192,35364,1,0,0:0:0:0:
448,192,35447,1,0,0:0:0:0:
64,192,35531,1,0,0:0:0:0:
320,192,35531,1,0,0:0:0:0:
192,192,35614,1,0,0:0:0:0:
64,192,35697,1,2,0:0:0:0:
192,192,35697,1,0,0:0:0:0:
448,192,35697,1,0,0:0:0:0:
448,192,35781,1,0,0:0:0:0:
192,192,35864,1,0,0:0:0:0:
320,192,35864,1,0,0:0:0:0:
64,192,35947,1,0,0:0:0:0:
64,192,36031,1,2,0:0:0:0:
192,192,36031,1,0,0:0:0:0:
448,192,36031,1,0,0:0:0:0:
448,192,36114,1,0,0:0:0:0:
64,192,36197,1,0,0:0:0:0:
192,192,36281,1,2,0:0:0:0:
320,192,36281,1,0,0:0:0:0:
448,192,36281,1,0,0:0:0:0:
320,192,36364,1,0,0:0:0:0:
64,192,36447,1,0,0:0:0:0:
192,192,36531,1,2,0:0:0:0:
320,192,36531,1,0,0:0:0:0:
448,192,36531,128,0,36697:0:0:0:0:
64,192,36697,1,2,0:0:0:0:
192,192,36697,1,0,0:0:0:0:
320,192,36697,1,0,0:0:0:0:
64,192,36781,1,0,0:0:0:0:
320,192,36864,1,0,0:0:0:0:
320,192,36947,1,0,0:0:0:0:
64,192,37031,1,2,0:0:0:0:
192,192,37031,1,0,0:0:0:0:
448,192,37031,1,0,0:0:0:0:
192,192,37114,1,0,0:0:0:0:
448,192,37197,1,0,0:0:0:0:
448,192,37281,1,0,0:0:0:0:
64,192,37364,1,2,0:0:0:0:
192,192,37364,1,0,0:0:0:0:
320,192,37364,1,0,0:0:0:0:
192,192,37447,1,0,0:0:0:0:
320,192,37531,1,0,0:0:0:0:
192,192,37614,1,2,0:0:0:0:
320,192,37614,1,0,0:0:0:0:
448,192,37614,1,0,0:0:0:0:
64,192,37697,1,0,0:0:0:0:
64,192,37781,1,0,0:0:0:0:
192,192,37864,1,2,0:0:0:0:
320,192,37864,1,0,0:0:0:0:
448,192,37864,1,0,0:0:0:0:
320,192,37947,1,0,0:0:0:0:
64,192,38031,1,2,0:0:0:0:
192,192,38031,1,0,0:0:0:0:
448,192,38031,1,0,0:0:0:0:
64,192,38114,1,0,0:0:0:0:
320,192,38197,1,0,0:0:0:0:
192,192,38281,1,0,0:0:0:0:
64,192,38364,1,2,0:0:0:0:
192,192,38364,1,0,0:0:0:0:
448,192,38364,1,0,0:0:0:0:
448,192,38447,1,0,0:0:0:0:
64,192,38531,1,0,0:0:0:0:
320,192,38531,1,0,0:0:0:0:
448,192,38586,1,0,0:0:0:0:
192,192,38642,1,0,0:0:0:0:
320,192,38697,1,2,0:0:0:0:
448,192,38697,1,0,0:0:0:0:
64,192,38753,1,0,0:0:0:0:
192,192,38809,1,0,0:0:0:0:
320,192,38864,1,0,0:0:0:0:
64,192,38947,1,2,0:0:0:0:
192,192,38947,1,0,0:0:0:0:
448,192,38947,1,0,0:0:0:0:
192,192,39031,1,0,0:0:0:0:
320,192,39114,1,0,0:0:0:0:
64,192,39197,1,2,0:0:0:0:
192,192,39197,1,0,0:0:0:0:
448,192,39197,1,0,0:0:0:0:
64,192,39281,1,0,0:0:0:0:
192,192,39364,1,2,0:0:0:0:
320,192,39364,1,0,0:0:0:0:
448,192,39364,1,0,0:0:0:0:
448,192,39447,1,0,0:0:0:0:
192,192,39531,1,0,0:0:0:0:
320,192,39614,1,0,0:0:0:0:
448,192,39614,1,0,0:0:0:0:
64,192,39697,1,2,0:0:0:0:
192,192,39697,1,0,0:0:0:0:
448,192,39697,1,0,0:0:0:0:
64,192,39781,1,0,0:0:0:0:
192,192,39864,1,0,0:0:0:0:
448,192,39864,1,0,0:0:0:0:
64,192,39920,1,0,0:0:0:0:
320,192,39975,1,0,0:0:0:0:
64,192,40031,1,2,0:0:0:0:
192,192,40031,1,0,0:0:0:0:
448,192,40086,1,0,0:0:0:0:
320,192,40142,1,0,0:0:0:0:
192,192,40197,1,0,0:0:0:0:
64,192,40281,1,2,0:0:0:0:
320,192,40281,1,0,0:0:0:0:
448,192,40281,1,0,0:0:0:0:
320,192,40364,1,0,0:0:0:0:
192,192,40447,1,0,0:0:0:0:
64,192,40531,1,2,0:0:0:0:
320,192,40531,1,0,0:0:0:0:
448,192,40531,1,0,0:0:0:0:
448,192,40614,1,0,0:0:0:0:
64,192,40697,1,2,0:0:0:0:
192,192,40697,1,0,0:0:0:0:
320,192,40697,1,0,0:0:0:0:
192,192,40781,1,0,0:0:0:0:
448,192,40864,1,0,0:0:0:0:
448,192,40947,1,0,0:0:0:0:
64,192,41031,1,2,0:0:0:0:
192,192,41031,1,0,0:0:0:0:
320,192,41031,1,0,0:0:0:0:
192,192,41114,1,0,0:0:0:0:
448,192,41197,1,0,0:0:0:0:
448,192,41281,1,0,0:0:0:0:
64,192,41364,1,2,0:0:0:0:
192,192,41364,1,0,0:0:0:0:
320,192,41364,1,0,0:0:0:0:
64,192,41447,1,0,0:0:0:0:
320,192,41531,1,0,0:0:0:0:
192,192,41614,1,2,0:0:0:0:
320,192,41614,1,0,0:0:0:0:
448,192,41614,1,0,0:0:0:0:
64,192,41697,1,0,0:0:0:0:
64,192,41781,1,0,0:0:0:0:
192,192,41864,1,2,0:0:0:0:
320,192,41864,1,0,0:0:0:0:
448,192,41864,1,0,0:0:0:0:
320,192,41947,1,0,0:0:0:0:
64,192,42031,1,2,0:0:0:0:
192,192,42031,1,0,0:0:0:0:
64,192,42114,1,0,0:0:0:0:
192,192,42197,1,8,0:0:0:0:
448,192,42197,1,0,0:0:0:0:
64,192,42281,1,2,0:0:0:0:
192,192,42281,1,0,0:0:0:0:
320,192,42364,1,0,0:0:0:0:
64,192,42447,1,8,0:0:0:0:
320,192,42447,1,0,0:0:0:0:
192,192,42531,1,2,0:0:0:0:
448,192,42531,1,0,0:0:0:0:
320,192,42614,1,8,0:0:0:0:
448,192,42614,1,0,0:0:0:0:
64,192,42697,1,2,0:0:0:0:
192,192,42697,1,0,0:0:0:0:
192,192,42781,1,2,0:0:0:0:
320,192,42864,1,8,0:0:0:0:
448,192,42864,1,0,0:0:0:0:
64,192,42947,1,2,0:0:0:0:
320,192,42947,1,0,0:0:0:0:
192,192,43031,128,0,43114:0:0:0:0:
320,192,43114,128,0,43197:0:0:0:0:
192,192,43197,1,0,0:0:0:0:
320,192,43281,1,0,0:0:0:0:
64,192,43364,1,2,0:0:0:0:
192,192,43364,1,0,0:0:0:0:
448,192,43364,1,0,0:0:0:0:
