osu file format v14

[General]
AudioFilename: audio.mp3
AudioLeadIn: 0
PreviewTime: 22031
Countdown: 0
SampleSet: Normal
StackLeniency: 0.7
Mode: 3
LetterboxInBreaks: 0
SpecialStyle: 0
WidescreenStoryboard: 1

[Editor]
DistanceSpacing: 1
BeatDivisor: 4
GridSize: 32
TimelineZoom: 1.1

[Metadata]
Title:176 - ikazuchi_B
TitleUnicode:176 - ikazuchi_B
Artist:saradisk
ArtistUnicode:saradisk
Creator:YuEast 2018
Version:Hard
Source:艦隊これくしょん -艦これ-
Tags:remix kancolle kantai collection 雷 lolicore instrumental japanese novelty electronic
BeatmapID:4053707
BeatmapSetID:1956799

[Difficulty]
HPDrainRate:7
CircleSize:4
OverallDifficulty:7
ApproachRate:5
SliderMultiplier:1.4
SliderTickRate:1

[Events]
//Background and Video events
0,0,"ikazu.jpg",0,0
//Break Periods
//Storyboard Layer 0 (Background)
//Storyboard Layer 1 (Fail)
//Storyboard Layer 2 (Pass)
//Storyboard Layer 3 (Foreground)
//Storyboard Layer 4 (Overlay)
//Storyboard Sound Samples

[TimingPoints]
698,333.333333333333,4,1,1,80,1,0
22031,-100,4,1,1,80,0,1
43364,-100,4,1,1,80,0,0

[HitObjects]
192,192,364,128,0,531:0:0:0:0:
320,192,531,1,0,0:0:0:0:
64,192,698,1,2,0:0:0:0:
448,192,698,1,0,0:0:0:0:
192,192,864,1,8,0:0:0:0:
64,192,1031,1,2,0:0:0:0:
448,192,1031,1,0,0:0:0:0:
192,192,1197,1,8,0:0:0:0:
320,192,1364,1,2,0:0:0:0:
448,192,1364,1,0,0:0:0:0:
192,192,1614,1,2,0:0:0:0:
320,192,1614,1,0,0:0:0:0:
192,192,1864,1,2,0:0:0:0:
320,192,1864,1,0,0:0:0:0:
64,192,2031,1,2,0:0:0:0:
448,192,2031,1,0,0:0:0:0:
320,192,2197,1,8,0:0:0:0:
64,192,2364,1,2,0:0:0:0:
448,192,2364,1,0,0:0:0:0:
320,192,2531,1,8,0:0:0:0:
64,192,2697,1,2,0:0:0:0:
192,192,2697,1,0,0:0:0:0:
192,192,2947,1,2,0:0:0:0:
320,192,2947,1,0,0:0:0:0:
192,192,3197,1,2,0:0:0:0:
320,192,3197,1,0,0:0:0:0:
64,192,3364,1,2,0:0:0:0:
448,192,3364,1,0,0:0:0:0:
192,192,3531,1,8,0:0:0:0:
64,192,3697,1,2,0:0:0:0:
448,192,3697,1,0,0:0:0:0:
192,192,3864,1,8,0:0:0:0:
320,192,4031,1,2,0:0:0:0:
448,192,4031,1,0,0:0:0:0:
192,192,4281,1,2,0:0:0:0:
320,192,4281,1,0,0:0:0:0:
192,192,4531,1,2,0:0:0:0:
320,192,4531,1,0,0:0:0:0:
64,192,4697,1,2,0:0:0:0:
448,192,4697,1,0,0:0:0:0:
192,192,4864,1,8,0:0:0:0:
320,192,5031,1,2,0:0:0:0:
320,192,5197,1,2,0:0:0:0:
64,192,5364,1,2,0:0:0:0:
448,192,5447,1,8,0:0:0:0:
192,192,5531,1,2,0:0:0:0:
320,192,5614,1,2,0:0:0:0:
64,192,5697,1,2,0:0:0:0:
64,192,5864,1,2,0:0:0:0:
320,192,6031,1,2,0:0:0:0:
448,192,6031,1,0,0:0:0:0:
192,192,6197,1,8,0:0:0:0:
320,192,6364,1,2,0:0:0:0:
448,192,6364,1,0,0:0:0:0:
192,192,6531,1,8,0:0:0:0:
64,192,6697,1,2,0:0:0:0:
448,192,6697,1,0,0:0:0:0:
64,192,6947,1,2,0:0:0:0:
192,192,6947,1,0,0:0:0:0:
64,192,7197,1,2,0:0:0:0:
192,192,7197,1,0,0:0:0:0:
320,192,7364,1,2,0:0:0:0:
448,192,7364,1,0,0:0:0:0:
192,192,7531,1,8,0:0:0:0:
320,192,7697,1,2,0:0:0:0:
448,192,7697,1,0,0:0:0:0:
192,192,7864,1,8,0:0:0:0:
64,192,8031,1,2,0:0:0:0:
448,192,8031,1,0,0:0:0:0:
64,192,8281,1,2,0:0:0:0:
192,192,8281,1,0,0:0:0:0:
64,192,8531,1,2,0:0:0:0:
192,192,8531,1,0,0:0:0:0:
320,192,8697,1,2,0:0:0:0:
448,192,8697,1,0,0:0:0:0:
192,192,8864,1,8,0:0:0:0:
320,192,9031,1,2,0:0:0:0:
448,192,9031,1,0,0:0:0:0:
192,192,9197,1,8,0:0:0:0:
64,192,9364,1,2,0:0:0:0:
448,192,9364,1,0,0:0:0:0:
64,192,9614,1,2,0:0:0:0:
192,192,9614,1,0,0:0:0:0:
64,192,9864,1,2,0:0:0:0:
192,192,9864,1,0,0:0:0:0:
320,192,10031,128,2,10197:0:0:0:0:
448,192,10031,1,0,0:0:0:0:
64,192,10197,1,0,0:0:0:0:
192,192,10364,1,0,0:0:0:0:
64,192,10697,1,2,0:0:0:0:
320,192,10697,1,0,0:0:0:0:
448,192,10697,1,0,0:0:0:0:
448,192,11031,1,0,0:0:0:0:
64,192,11114,1,0,0:0:0:0:
320,192,11197,1,0,0:0:0:0:
192,192,11281,1,0,0:0:0:0:
64,192,11364,1,2,0:0:0:0:
448,192,11364,1,0,0:0:0:0:
320,192,11531,1,8,0:0:0:0:
64,192,11697,1,2,0:0:0:0:
448,192,11697,1,0,0:0:0:0:
320,192,11864,1,8,0:0:0:0:
64,192,12031,1,2,0:0:0:0:
192,192,12031,1,0,0:0:0:0:
192,192,12281,1,2,0:0:0:0:
320,192,12281,1,0,0:0:0:0:
192,192,12531,1,2,0:0:0:0:
320,192,12531,1,0,0:0:0:0:
64,192,12697,1,2,0:0:0:0:
448,192,12697,1,0,0:0:0:0:
192,192,12864,1,8,0:0:0:0:
64,192,13031,1,2,0:0:0:0:
448,192,13031,1,0,0:0:0:0:
192,192,13197,1,8,0:0:0:0:
320,192,13364,1,2,0:0:0:0:
448,192,13364,1,0,0:0:0:0:
192,192,13614,1,2,0:0:0:0:
320,192,13614,1,0,0:0:0:0:
192,192,13864,1,2,0:0:0:0:
320,192,13864,1,0,0:0:0:0:
64,192,14031,1,2,0:0:0:0:
448,192,14031,1,0,0:0:0:0:
320,192,14197,1,8,0:0:0:0:
64,192,14364,1,2,0:0:0:0:
448,192,14364,1,0,0:0:0:0:
320,192,14531,1,8,0:0:0:0:
64,192,14697,1,2,0:0:0:0:
192,192,14697,1,0,0:0:0:0:
192,192,14947,1,2,0:0:0:0:
320,192,14947,1,0,0:0:0:0:
192,192,15197,1,2,0:0:0:0:
320,192,15197,1,0,0:0:0:0:
64,192,15364,1,2,0:0:0:0:
448,192,15364,1,0,0:0:0:0:
320,192,15531,1,8,0:0:0:0:
64,192,15614,1,2,0:0:0:0:
192,192,15697,1,2,0:0:0:0:
320,192,15781,1,8,0:0:0:0:
64,192,15864,1,8,0:0:0:0:
448,192,16031,1,8,0:0:0:0:
320,192,16114,1,8,0:0:0:0:
192,192,16197,1,2,0:0:0:0:
64,192,16281,1,2,0:0:0:0:
320,192,16364,1,2,0:0:0:0:
448,192,16364,1,0,0:0:0:0:
448,192,16531,1,2,0:0:0:0:
64,192,16697,1,2,0:0:0:0:
192,192,16697,1,0,0:0:0:0:
320,192,16864,1,8,0:0:0:0:
64,192,17031,1,2,0:0:0:0:
192,192,17031,1,0,0:0:0:0:
320,192,17197,1,8,0:0:0:0:
64,192,17364,1,2,0:0:0:0:
448,192,17364,1,0,0:0:0:0:
320,192,17614,1,2,0:0:0:0:
448,192,17614,1,0,0:0:0:0:
320,192,17864,1,2,0:0:0:0:
448,192,17864,1,0,0:0:0:0:
64,192,18031,1,2,0:0:0:0:
192,192,18031,1,0,0:0:0:0:
320,192,18197,1,8,0:0:0:0:
64,192,18364,1,2,0:0:0:0:
192,192,18364,1,0,0:0:0:0:
320,192,18531,1,8,0:0:0:0:
64,192,18697,1,2,0:0:0:0:
448,192,18697,1,0,0:0:0:0:
320,192,18947,1,2,0:0:0:0:
448,192,18947,1,0,0:0:0:0:
320,192,19197,1,2,0:0:0:0:
448,192,19197,1,0,0:0:0:0:
64,192,19364,1,2,0:0:0:0:
192,192,19364,1,0,0:0:0:0:
320,192,19531,1,8,0:0:0:0:
64,192,19697,1,2,0:0:0:0:
192,192,19697,1,0,0:0:0:0:
320,192,19864,1,8,0:0:0:0:
64,192,20031,1,2,0:0:0:0:
448,192,20031,1,0,0:0:0:0:
320,192,20281,1,2,0:0:0:0:
448,192,20281,1,0,0:0:0:0:
320,192,20531,1,2,0:0:0:0:
448,192,20531,1,0,0:0:0:0:
64,192,20697,1,2,0:0:0:0:
192,192,20697,1,0,0:0:0:0:
320,192,20864,1,8,0:0:0:0:
192,192,20947,1,2,0:0:0:0:
64,192,21114,1,8,0:0:0:0:
320,192,21197,1,2,0:0:0:0:
192,192,21281,1,8,0:0:0:0:
448,192,21364,1,2,0:0:0:0:
320,192,21447,1,8,0:0:0:0:
64,192,21531,1,2,0:0:0:0:
192,192,21614,1,2,0:0:0:0:
320,192,21697,1,2,0:0:0:0:
192,192,21864,1,8,0:0:0:0:
64,192,21947,1,2,0:0:0:0:
320,192,22031,1,2,0:0:0:0:
448,192,22031,1,0,0:0:0:0:
64,192,22364,1,8,0:0:0:0:
448,192,22364,1,0,0:0:0:0:
192,192,22531,1,2,0:0:0:0:
320,192,22614,1,2,0:0:0:0:
64,192,22697,1,0,0:0:0:0:
320,192,22864,1,2,0:0:0:0:
64,192,23031,1,8,0:0:0:0:
192,192,23031,1,0,0:0:0:0:
320,192,23197,128,0,23697:0:0:0:0:
192,192,23364,1,2,0:0:0:0:
64,192,23697,1,8,0:0:0:0:
448,192,23697,1,0,0:0:0:0:
320,192,23864,1,2,0:0:0:0:
192,192,23947,1,2,0:0:0:0:
448,192,24031,1,0,0:0:0:0:
192,192,24197,1,2,0:0:0:0:
320,192,24364,1,8,0:0:0:0:
448,192,24364,1,0,0:0:0:0:
192,192,24531,128,0,25031:0:0:0:0:
320,192,24697,1,2,0:0:0:0:
64,192,25031,1,8,0:0:0:0:
448,192,25031,1,0,0:0:0:0:
192,192,25197,1,2,0:0:0:0:
320,192,25281,1,2,0:0:0:0:
64,192,25364,1,0,0:0:0:0:
320,192,25531,1,2,0:0:0:0:
64,192,25697,1,8,0:0:0:0:
192,192,25697,1,0,0:0:0:0:
320,192,25864,128,0,26031:0:0:0:0:
192,192,26031,128,2,26197:0:0:0:0:
448,192,26197,128,0,26364:0:0:0:0:
192,192,26364,128,8,26531:0:0:0:0:
320,192,26364,1,0,0:0:0:0:
448,192,26531,128,2,26697:0:0:0:0:
64,192,26697,128,0,26864:0:0:0:0:
320,192,26864,128,2,27031:0:0:0:0:
64,192,27031,128,8,27197:0:0:0:0:
192,192,27031,1,0,0:0:0:0:
320,192,27197,1,0,0:0:0:0:
192,192,27281,1,0,0:0:0:0:
64,192,27364,1,2,0:0:0:0:
448,192,27364,1,0,0:0:0:0:
192,192,27697,1,8,0:0:0:0:
320,192,27697,1,0,0:0:0:0:
64,192,27864,128,2,28364:0:0:0:0:
320,192,27947,1,2,0:0:0:0:
192,192,28031,1,0,0:0:0:0:
320,192,28197,1,2,0:0:0:0:
192,192,28364,1,8,0:0:0:0:
448,192,28364,1,0,0:0:0:0:
448,192,28697,1,2,0:0:0:0:
192,192,29031,1,8,0:0:0:0:
320,192,29031,1,0,0:0:0:0:
448,192,29197,128,2,29697:0:0:0:0:
192,192,29281,1,2,0:0:0:0:
320,192,29364,1,0,0:0:0:0:
192,192,29531,1,2,0:0:0:0:
64,192,29697,1,8,0:0:0:0:
320,192,29697,1,0,0:0:0:0:
448,192,30031,128,2,30197:0:0:0:0:
192,192,30197,128,0,30364:0:0:0:0:
64,192,30364,1,8,0:0:0:0:
320,192,30364,128,0,30531:0:0:0:0:
448,192,30531,128,2,30697:0:0:0:0:
192,192,30697,128,0,30864:0:0:0:0:
320,192,30864,128,2,31031:0:0:0:0:
64,192,31031,128,8,31197:0:0:0:0:
448,192,31031,1,0,0:0:0:0:
192,192,31197,128,0,31364:0:0:0:0:
448,192,31364,1,2,0:0:0:0:
320,192,31531,1,0,0:0:0:0:
64,192,31614,1,0,0:0:0:0:
192,192,31697,1,8,0:0:0:0:
64,192,31864,1,2,0:0:0:0:
448,192,31947,1,2,0:0:0:0:
192,192,32031,1,0,0:0:0:0:
320,192,32114,1,0,0:0:0:0:
64,192,32197,1,2,0:0:0:0:
192,192,32281,1,0,0:0:0:0:
320,192,32364,128,0,32697:0:0:0:0:
64,192,32531,128,0,32697:0:0:0:0:
192,192,32697,1,2,0:0:0:0:
448,192,32697,1,0,0:0:0:0:
192,192,33031,1,2,0:0:0:0:
448,192,33031,1,0,0:0:0:0:
64,192,33364,1,2,0:0:0:0:
320,192,33364,1,0,0:0:0:0:
64,192,33614,1,2,0:0:0:0:
320,192,33614,1,0,0:0:0:0:
192,192,33864,1,2,0:0:0:0:
448,192,33864,128,0,34364:0:0:0:0:
64,192,34031,1,2,0:0:0:0:
320,192,34031,1,0,0:0:0:0:
64,192,34364,1,2,0:0:0:0:
320,192,34364,1,0,0:0:0:0:
192,192,34697,1,2,0:0:0:0:
448,192,34697,1,0,0:0:0:0:
192,192,34947,1,2,0:0:0:0:
448,192,34947,1,0,0:0:0:0:
64,192,35197,128,2,35697:0:0:0:0:
320,192,35197,1,0,0:0:0:0:
192,192,35364,1,2,0:0:0:0:
448,192,35364,1,0,0:0:0:0:
192,192,35697,1,2,0:0:0:0:
448,192,35697,1,0,0:0:0:0:
64,192,36031,1,2,0:0:0:0:
320,192,36031,1,0,0:0:0:0:
64,192,36281,1,2,0:0:0:0:
320,192,36281,1,0,0:0:0:0:
320,192,36531,1,2,0:0:0:0:
448,192,36531,128,0,36697:0:0:0:0:
64,192,36697,128,2,36864:0:0:0:0:
192,192,36697,1,0,0:0:0:0:
320,192,36864,128,0,37031:0:0:0:0:
64,192,37031,128,2,37197:0:0:0:0:
448,192,37031,1,0,0:0:0:0:
320,192,37197,128,0,37364:0:0:0:0:
64,192,37364,1,2,0:0:0:0:
192,192,37364,128,0,37531:0:0:0:0:
448,192,37531,128,0,37697:0:0:0:0:
64,192,37614,1,2,0:0:0:0:
192,192,37697,128,0,37864:0:0:0:0:
320,192,37864,1,2,0:0:0:0:
448,192,37864,128,0,38031:0:0:0:0:
64,192,38031,1,2,0:0:0:0:
192,192,38031,1,0,0:0:0:0:
64,192,38364,1,2,0:0:0:0:
192,192,38364,1,0,0:0:0:0:
448,192,38531,128,0,38947:0:0:0:0:
192,192,38697,1,2,0:0:0:0:
320,192,38697,1,0,0:0:0:0:
192,192,38947,1,2,0:0:0:0:
320,192,38947,1,0,0:0:0:0:
64,192,39197,1,2,0:0:0:0:
192,192,39197,1,0,0:0:0:0:
320,192,39364,1,2,0:0:0:0:
448,192,39364,1,0,0:0:0:0:
320,192,39697,1,2,0:0:0:0:
448,192,39697,1,0,0:0:0:0:
64,192,39864,128,0,40281:0:0:0:0:
192,192,40031,1,2,0:0:0:0:
320,192,40031,1,0,0:0:0:0:
192,192,40281,1,2,0:0:0:0:
320,192,40281,1,0,0:0:0:0:
320,192,40531,1,2,0:0:0:0:
448,192,40531,1,0,0:0:0:0:
64,192,40697,128,2,40864:0:0:0:0:
192,192,40697,1,0,0:0:0:0:
320,192,40864,128,0,41031:0:0:0:0:
192,192,41031,128,2,41197:0:0:0:0:
448,192,41031,1,0,0:0:0:0:
64,192,41197,128,0,41364:0:0:0:0:
320,192,41364,128,2,41531:0:0:0:0:
448,192,41364,1,0,0:0:0:0:
192,192,41531,128,0,41697:0:0:0:0:
64,192,41614,1,2,0:0:0:0:
448,192,41697,128,0,41864:0:0:0:0:
64,192,41864,1,2,0:0:0:0:
320,192,41864,128,0,42031:0:0:0:0:
192,192,42031,1,2,0:0:0:0:
448,192,42197,1,8,0:0:0:0:
192,192,42281,1,2,0:0:0:0:
448,192,42447,1,8,0:0:0:0:
192,192,42531,1,2,0:0:0:0:
320,192,42614,1,8,0:0:0:0:
64,192,42697,1,2,0:0:0:0:
448,192,42781,1,2,0:0:0:0:
192,192,42864,1,8,0:0:0:0:
320,192,42947,1,0,0:0:0:0:
64,192,43031,1,0,0:0:0:0:
192,192,43114,1,0,0:0:0:0:
448,192,43197,1,0,0:0:0:0:
192,192,43281,1,0,0:0:0:0:
64,192,43364,1,2,0:0:0:0:
320,192,43364,1,0,0:0:0:0:
448,192,43364,1,0,0:0:0:0:
