osu file format v14

[General]
AudioFilename: audio.mp3
AudioLeadIn: 0
PreviewTime: -1
Countdown: 1
SampleSet: None
StackLeniency: 0.7
Mode: 2
LetterboxInBreaks: 0
WidescreenStoryboard: 0

[Editor]
DistanceSpacing: 1.4
BeatDivisor: 4
GridSize: 4
TimelineZoom: 1.9

[Metadata]
Title:176 - ikazuchi_B
TitleUnicode:176 - ikazuchi_B
Artist:saradisk
ArtistUnicode:saradisk
Creator:Riari
Version:Shittiest Bote Song
Source:
Tags:
BeatmapID:1330116
BeatmapSetID:630080

[Difficulty]
HPDrainRate:7
CircleSize:3
OverallDifficulty:9.4
ApproachRate:9.4
SliderMultiplier:2.08
SliderTickRate:1

[Events]
//Background and Video events
0,0,"ikazuchi bg.jpg",0,0
//Break Periods
//Storyboard Layer 0 (Background)
//Storyboard Layer 1 (Fail)
//Storyboard Layer 2 (Pass)
//Storyboard Layer 3 (Foreground)
//Storyboard Sound Samples

[TimingPoints]
383,333.333333333333,4,1,0,40,1,0
383,-100,4,1,0,40,0,0

[HitObjects]
400,252,383,6,0,B|380:220|380:220|444:192|408:104,1,156,4|0,0:0|0:0,0:0:0:0:
136,240,716,2,0,B|104:204|104:204|152:168|128:104,1,156,8|0,0:0|0:0,0:0:0:0:
436,152,1049,2,0,P|464:128|416:112,1,104,8|0,0:0|0:0,0:0:0:0:
172,351,1299,2,0,B|140:352|140:352|80:296,1,104,8|0,0:0|0:0,0:0:0:0:
361,336,1549,2,0,B|432:336,1,52
136,240,1716,6,0,B|96:208|96:208|136:208|168:172|112:136,1,156,8|0,0:0|0:0,0:0:0:0:
360,336,2049,2,0,B|324:300|372:300|372:300|412:260|372:216,1,156,8|0,0:0|0:0,0:0:0:0:
68,128,2382,2,0,P|52:84|104:84,1,104,8|0,0:0|0:0,0:0:0:0:
380,136,2632,2,0,B|432:120|432:120|456:68,1,104,8|0,0:0|0:0,0:0:0:0:
35,267,2882,2,0,L|108:268,1,52
440,336,3049,6,0,P|400:264|324:264,1,156,8|0,0:0|0:0,0:0:0:0:
35,267,3382,2,0,P|89:293|138:222,1,156,8|0,0:0|0:0,0:0:0:0:
330,152,3716,2,0,L|214:152,1,104,8|0,0:0|0:0,0:0:0:0:
440,336,3966,2,0,L|492:336,1,52,8|0,0:0|0:0,0:0:0:0:
192,248,4132,2,0,L|75:248,1,104
388,152,4382,5,8,0:0:0:0:
188,296,5716,6,0,P|180:232|208:204,1,104,4|2,0:0|0:0,0:0:0:0:
324,296,5966,2,0,P|332:232|304:204,1,104,8|2,0:0|0:0,0:0:0:0:
132,296,6216,2,0,P|124:232|152:204,1,104,8|0,0:0|0:0,0:0:0:0:
324,296,6466,2,0,P|380:276|388:192,1,104,8|0,0:0|0:0,0:0:0:0:
224,204,6716,1,8,0:0:0:0:
307,206,6799,1,0,0:0:0:0:
104,40,6882,6,0,P|128:76|188:100,1,104,8|2,0:0|0:0,0:0:0:0:
404,76,7132,2,0,P|380:112|320:136,1,104,8|2,0:0|0:0,0:0:0:0:
80,192,7382,2,0,P|112:176|176:188,1,104,8|0,0:0|0:0,0:0:0:0:
400,276,7632,1,8,0:0:0:0:
335,188,7716,2,0,P|384:173|432:192,1,104,0|8,0:0|0:0,0:0:0:0:
112,276,7966,1,8,0:0:0:0:
112,276,8049,6,0,P|73:243|80:179,1,104,8|2,0:0|0:0,0:0:0:0:
400,276,8299,2,0,P|439:243|432:179,1,104,8|2,0:0|0:0,0:0:0:0:
28,124,8549,2,0,P|80:108|128:136,1,104,8|0,0:0|0:0,0:0:0:0:
484,124,8799,2,0,P|432:108|384:136,1,104,8|8,0:0|0:0,0:0:0:0:
248,180,9049,1,0,0:0:0:0:
328,292,9132,1,0,0:0:0:0:
184,292,9216,6,0,L|160:184,1,104,8|2,0:0|0:0,0:0:0:0:
328,292,9466,2,0,L|352:184,1,104,8|2,0:0|0:0,0:0:0:0:
184,292,9716,2,0,L|160:184,1,104,8|2,0:0|0:0,0:0:0:0:
280,193,9966,2,0,L|351:192,1,52,2|0,0:0|0:0,0:0:0:0:
0,190,10132,6,0,L|52:190,2,52,2|0|0,0:0|0:0|0:0,0:0:0:0:
380,80,10382,2,0,L|356:196,1,104
441,193,10632,1,0,0:0:0:0:
64,88,10716,2,0,L|152:88,1,52
441,193,10882,2,0,B|440:192|388:192|344:192,1,52
441,193,11049,6,0,P|493:169|429:145,1,156,4|0,0:0|0:0,0:0:0:0:
184,292,11383,2,0,B|184:264|184:264|128:252|128:252|168:176,1,156,8|0,0:0|0:0,0:0:0:0:
372,332,11717,2,0,P|412:324|368:292,1,104,8|0,0:0|0:0,0:0:0:0:
184,292,11966,2,0,L|120:292,1,52,8|0,0:0|0:0,0:0:0:0:
440,192,12133,2,0,P|388:156|344:160,1,104,0|0,0:0|0:0,0:0:0:0:
100,160,12383,6,0,B|112:132|112:132|84:132|56:132|32:88|56:48,1,156,8|0,0:0|0:0,0:0:0:0:
399,258,12717,2,0,B|383:238|419:222|419:222|347:222|347:134,1,156,8|0,0:0|0:0,0:0:0:0:
51,240,13049,2,0,P|95:247|154:215,1,104,8|0,0:0|0:0,0:0:0:0:
349,157,13299,2,0,L|420:156,1,52,8|0,0:0|0:0,0:0:0:0:
160,64,13466,2,0,L|88:64,2,52,0|8|8,0:0|0:0|0:0,0:0:0:0:
452,328,13716,6,0,B|408:320|408:320|468:304|468:216,1,156,8|0,0:0|0:0,0:0:0:0:
51,240,14049,2,0,B|59:284|59:284|75:224|163:224,1,156,8|0,0:0|0:0,0:0:0:0:
348,156,14382,2,0,P|384:124|336:96,1,104,8|0,0:0|0:0,0:0:0:0:
136,76,14632,2,0,L|84:76,1,52,8|0,0:0|0:0,0:0:0:0:
368,308,14799,2,0,P|401:271|422:219,1,104,0|0,0:0|0:0,0:0:0:0:
140,232,15049,6,0,L|184:336,1,104,8|2,0:0|0:0,0:0:0:0:
348,156,15299,2,0,L|304:260,1,104,8|2,0:0|0:0,0:0:0:0:
136,76,15549,2,0,L|192:172,1,104,8|2,0:0|0:0,0:0:0:0:
296,232,15799,1,0,0:0:0:0:
408,220,15882,2,0,L|352:316,1,104,2|2,0:0|0:0,0:0:0:0:
248,308,16132,1,0,0:0:0:0:
100,192,16216,2,0,L|200:192,1,52
444,136,16382,6,0,P|488:132|436:96,1,156,4|0,0:0|0:0,0:0:0:0:
136,76,16715,2,0,B|132:128|132:128|171:88|232:88,1,156,8|0,0:0|0:0,0:0:0:0:
480,256,17048,2,0,P|444:296|384:296,1,104,8|0,0:0|0:0,0:0:0:0:
152,232,17298,2,0,L|88:232,1,52,8|0,0:0|0:0,0:0:0:0:
444,136,17465,2,0,P|384:120|324:136,1,104
142,151,17715,6,0,P|84:114|143:79,1,156,8|0,0:0|0:0,0:0:0:0:
480,256,18048,2,0,B|456:304|456:304|432:248|352:248,1,156,8|0,0:0|0:0,0:0:0:0:
152,232,18382,2,0,P|212:252|248:216,1,104,8|0,0:0|0:0,0:0:0:0:
444,136,18632,2,0,P|384:156|348:120,1,104,8|0,0:0|0:0,0:0:0:0:
448,52,18882,1,8,0:0:0:0:
352,56,18966,1,8,0:0:0:0:
152,232,19049,6,0,P|96:192|160:156,1,156,8|0,0:0|0:0,0:0:0:0:
412,360,19382,2,0,B|472:348|472:348|408:320|400:264,1,156,8|0,0:0|0:0,0:0:0:0:
152,232,19716,2,0,P|200:260|244:236,1,104,8|2,0:0|0:0,0:0:0:0:
444,136,19966,2,0,P|405:137|356:176,1,104,8|2,0:0|0:0,0:0:0:0:
136,92,20215,2,0,L|80:92,1,52,8|0,0:0|0:0,0:0:0:0:
412,360,20382,5,8,0:0:0:0:
482,318,20466,1,8,0:0:0:0:
480,264,20549,1,8,0:0:0:0:
412,224,20632,1,8,0:0:0:0:
152,232,20716,5,8,0:0:0:0:
68,232,20799,1,8,0:0:0:0:
152,320,20883,1,8,0:0:0:0:
68,320,20966,1,8,0:0:0:0:
324,44,21049,5,8,0:0:0:0:
408,44,21132,1,8,0:0:0:0:
324,132,21215,1,8,0:0:0:0:
408,132,21299,1,8,0:0:0:0:
152,232,21382,6,0,L|96:232,1,52,2|0,0:0|0:0,0:0:0:0:
442,248,21549,2,0,L|500:248,1,52,2|0,0:0|0:0,0:0:0:0:
64,52,21716,6,0,B|55:90|109:103|109:103|168:117|158:159,1,156,4|0,0:0|0:0,0:0:0:0:
352,224,22049,2,0,B|352:264|296:264|296:264|236:264|236:308,1,156,8|0,0:0|0:0,0:0:0:0:
86,150,22382,2,0,L|164:248,1,104,8|0,0:0|0:0,0:0:0:0:
265,180,22632,2,0,L|169:256,1,104,8|0,0:0|0:0,0:0:0:0:
324,132,22882,2,0,L|256:132,1,52,8|0,0:0|0:0,0:0:0:0:
460,80,23049,6,0,L|512:80,1,52,8|2,0:0|0:0,0:0:0:0:
376,216,23216,2,0,L|476:280,1,104,0|8,0:0|0:0,0:0:0:0:
324,132,23466,2,0,L|212:132,1,104
300,40,23715,5,8,0:0:0:0:
220,132,23799,1,0,0:0:0:0:
324,132,23882,1,2,0:0:0:0:
248,348,23966,2,0,L|180:348,2,52,8|2|2,0:0|0:0|0:0,0:0:0:0:
144,192,24216,2,0,L|76:192,1,52,8|8,0:0|0:0,0:0:0:0:
368,220,24382,6,0,P|392:184|336:164,1,104,8|2,0:0|0:0,0:0:0:0:
424,92,24633,1,0,0:0:0:0:
302,312,24716,2,0,P|250:316|218:272,1,104,8|2,0:0|0:0,0:0:0:0:
302,312,24966,1,0,0:0:0:0:
180,192,25049,6,0,P|264:180|288:152,1,104,8|2,0:0|0:0,0:0:0:0:
180,192,25298,1,8,0:0:0:0:
120,280,25382,2,0,L|36:280,1,52,2|2,0:0|0:0,0:0:0:0:
432,320,25549,2,0,L|488:320,2,52,8|0|0,0:0|0:0|0:0,0:0:0:0:
180,192,25799,2,0,L|76:124,1,104
332,192,26049,6,0,L|444:120,1,104,8|2,0:0|0:0,0:0:0:0:
144,220,26299,2,0,L|48:120,1,104,8|2,0:0|0:0,0:0:0:0:
344,280,26549,2,0,L|240:280,1,104,10|2,0:0|0:0,0:0:0:0:
40,220,26799,2,0,L|144:220,1,104,2|2,0:0|0:0,0:0:0:0:
475,85,27049,6,0,P|503:97|439:133,1,156,8|0,0:0|0:0,0:0:0:0:
343,265,27382,6,0,L|415:265,1,52,8|2,0:0|0:0,0:0:0:0:
219,129,27549,2,0,L|159:129,1,52,2|2,0:0|0:0,0:0:0:0:
504,88,27715,2,0,L|400:88,1,104,8|0,0:0|0:0,0:0:0:0:
219,129,27965,2,0,L|323:129,1,104,8|0,0:0|0:0,0:0:0:0:
439,173,28215,2,0,L|375:173,1,52,8|0,0:0|0:0,0:0:0:0:
151,269,28382,6,0,P|99:253|107:157,1,156,8|0,0:0|0:0,0:0:0:0:
219,129,28715,2,0,L|271:129,1,52,8|2,0:0|0:0,0:0:0:0:
475,85,28882,2,0,L|411:85,1,52,2|2,0:0|0:0,0:0:0:0:
191,53,29049,6,0,P|147:81|135:145,1,104,8|2,0:0|0:0,0:0:0:0:
311,249,29299,1,8,0:0:0:0:
395,249,29382,1,0,0:0:0:0:
311,333,29465,1,0,0:0:0:0:
395,329,29548,1,8,0:0:0:0:
475,329,29632,1,8,0:0:0:0:
194,108,29715,5,8,0:0:0:0:
128,115,29799,1,2,0:0:0:0:
64,160,29882,1,2,0:0:0:0:
24,208,29965,1,2,0:0:0:0:
68,242,30049,1,8,0:0:0:0:
123,235,30132,1,2,0:0:0:0:
420,72,30216,5,2,0:0:0:0:
364,79,30299,1,0,0:0:0:0:
331,124,30383,1,8,0:0:0:0:
415,255,30466,1,2,0:0:0:0:
371,289,30549,1,2,0:0:0:0:
287,289,30632,5,8,0:0:0:0:
371,289,30715,1,2,0:0:0:0:
371,205,30799,1,2,0:0:0:0:
287,205,30882,1,8,0:0:0:0:
367,121,30966,1,0,0:0:0:0:
109,210,31049,6,0,P|91:185|147:185,1,104,8|2,0:0|0:0,0:0:0:0:
367,121,31299,2,0,P|403:89|355:77,1,104,8|2,0:0|0:0,0:0:0:0:
139,345,31549,2,0,L|211:345,1,52,8|0,0:0|0:0,0:0:0:0:
455,289,31715,5,8,0:0:0:0:
371,289,31799,1,8,0:0:0:0:
455,377,31882,1,8,0:0:0:0:
371,377,31966,1,8,0:0:0:0:
109,210,32049,5,2,0:0:0:0:
245,74,32382,6,0,P|193:113|252:144,1,156,4|0,0:0|0:0,0:0:0:0:
455,289,32716,2,0,P|388:308|364:280,1,104,8|2,0:0|0:0,0:0:0:0:
408,192,32966,1,2,0:0:0:0:
152,136,33049,2,0,P|120:140|160:176,1,104,8|2,0:0|0:0,0:0:0:0:
260,144,33299,2,0,P|292:148|252:184,1,104,8|2,0:0|0:0,0:0:0:0:
152,48,33549,2,0,L|216:48,1,52,8|0,0:0|0:0,0:0:0:0:
428,300,33716,6,0,L|352:300,1,52,8|0,0:0|0:0,0:0:0:0:
272,292,33883,2,0,L|312:232,1,52,2|0,0:0|0:0,0:0:0:0:
186,247,34049,2,0,P|232:287|285:288,1,104,8|2,0:0|0:0,0:0:0:0:
152,136,34299,1,2,0:0:0:0:
344,148,34382,1,8,0:0:0:0:
424,148,34466,1,0,0:0:0:0:
344,68,34549,1,2,0:0:0:0:
424,68,34632,1,8,0:0:0:0:
344,68,34716,6,0,P|268:72|240:100,1,104,0|8,0:0|0:0,0:0:0:0:
344,148,34965,1,8,0:0:0:0:
104,304,35049,2,0,P|92:272|132:212,1,104,8|2,0:0|0:0,0:0:0:0:
364,236,35299,2,0,P|376:204|336:144,1,104,8|2,0:0|0:0,0:0:0:0:
36,108,35549,2,0,L|104:104,1,52
296,224,35716,6,0,P|300:188|256:136,1,104,8|2,0:0|0:0,0:0:0:0:
124,224,35966,2,0,P|156:204|212:228,1,104,8|2,0:0|0:0,0:0:0:0:
408,304,36216,2,0,L|448:268,1,52,8|0,0:0|0:0,0:0:0:0:
100,84,36382,6,0,B|80:100|80:100|100:116|100:116|80:132|80:132|96:148|96:148|72:160|72:160|96:176,1,156,8|0,0:0|0:0,0:0:0:0:
468,120,36715,2,0,B|444:172|444:172|408:120|360:120,1,156,8|0,0:0|0:0,0:0:0:0:
96,176,37048,2,0,P|59:186|112:247,1,156,8|0,0:0|0:0,0:0:0:0:
408,304,37382,2,0,B|484:264|436:264|436:264|396:224|436:180,1,156,2|0,0:0|0:0,0:0:0:0:
188,136,37716,6,0,P|156:108|236:80,1,156,8|0,0:0|0:0,0:0:0:0:
328,224,38049,2,0,L|264:224,1,52,8|2,0:0|0:0,0:0:0:0:
104,220,38216,2,0,L|180:220,1,52,2|2,0:0|0:0,0:0:0:0:
436,80,38395,2,0,P|472:104|424:132,1,104,8|2,0:0|0:0,0:0:0:0:
190,77,38632,2,0,P|154:101|202:129,1,104,8|0,0:0|0:0,0:0:0:0:
392,308,38882,2,0,L|332:308,1,52,8|0,0:0|0:0,0:0:0:0:
104,220,39049,6,0,P|72:192|108:152,1,104,8|0,0:0|0:0,0:0:0:0:
204,252,39299,2,0,P|176:294|127:307,1,104
456,188,39549,2,0,L|392:188,1,52,2|0,0:0|0:0,0:0:0:0:
192,76,39716,5,8,0:0:0:0:
108,76,39799,1,0,0:0:0:0:
188,220,39882,1,2,0:0:0:0:
104,220,39966,1,8,0:0:0:0:
324,148,40049,2,0,L|384:148,1,52,2|0,0:0|0:0,0:0:0:0:
192,76,40216,2,0,L|120:76,1,52,8|8,0:0|0:0,0:0:0:0:
413,245,40382,6,0,P|442:228|452:160,1,104,8|2,0:0|0:0,0:0:0:0:
332,248,40632,1,0,0:0:0:0:
108,76,40716,2,0,L|52:76,1,52,8|2,0:0|0:0,0:0:0:0:
324,148,40882,2,0,L|384:148,1,52,2|2,0:0|0:0,0:0:0:0:
104,220,41049,6,0,P|63:238|106:264,1,104,8|2,0:0|0:0,0:0:0:0:
328,148,41299,2,0,P|358:127|322:77,1,104,8|0,0:0|0:0,0:0:0:0:
108,76,41549,2,0,L|168:80,1,52,8|0,0:0|0:0,0:0:0:0:
464,132,41716,6,0,L|440:256,1,104,4|2,0:0|0:0,0:0:0:0:
228,248,41966,2,0,L|332:248,1,104,2|2,0:0|0:0,0:0:0:0:
108,76,42216,2,0,L|132:200,1,104,8|8,0:0|0:0,0:0:0:0:
464,132,42466,1,8,0:0:0:0:
376,144,42549,1,8,0:0:0:0:
464,132,42632,1,8,0:0:0:0:
108,76,42716,5,2,0:0:0:0:
108,76,43049,5,2,0:0:0:0:
