osu file format v14

[General]
AudioFilename: audio.mp3
AudioLeadIn: 0
PreviewTime: 22033
Countdown: 0
SampleSet: Normal
StackLeniency: 0.7
Mode: 1
LetterboxInBreaks: 0
WidescreenStoryboard: 1

[Editor]
DistanceSpacing: 1
BeatDivisor: 4
GridSize: 4
TimelineZoom: 2.3

[Metadata]
Title:176 - ikazuchi_B
TitleUnicode:176 - ikazuchi_B
Artist:saradisk
ArtistUnicode:saradisk
Creator:R-18
Version:Muzukashii
Source:艦隊これくしょん -艦これ-
Tags:remix kancolle kantai collection 雷 lolicore instrumental japanese novelty electronic
BeatmapID:2280454
BeatmapSetID:1044372

[Difficulty]
HPDrainRate:6
CircleSize:5
OverallDifficulty:5
ApproachRate:5
SliderMultiplier:1.4
SliderTickRate:1

[Events]
//Background and Video events
0,0,"ikazu.jpg",0,0
//Break Periods
//Storyboard Layer 0 (Background)
//Storyboard Layer 1 (Fail)
//Storyboard Layer 2 (Pass)
//Storyboard Layer 3 (Foreground)
//Storyboard Layer 4 (Overlay)
//Storyboard Sound Samples

[TimingPoints]
700,333.333333333333,4,1,0,85,1,0
4866,-100,4,1,0,75,0,0
6033,-100,4,1,0,80,0,0
10199,-100,4,1,0,60,0,0
11366,-100,4,1,0,85,0,0
15533,-100,4,1,0,80,0,0
16699,-100,4,1,0,85,0,0
22033,-100,4,1,0,95,0,1
26033,-100,4,1,0,90,0,1
32699,-100,4,1,0,95,0,1
36699,-100,4,1,0,90,0,1
43366,-100,4,1,0,95,0,0
43533,-100,4,1,0,80,0,0
44033,-100,4,1,0,70,0,0
44366,-100,4,1,0,60,0,0
44699,-100,4,1,0,50,0,0
45033,-100,4,1,0,40,0,0
45366,-100,4,1,0,30,0,0

[HitObjects]
167,191,700,5,4,0:0:0:0:
265,181,1033,1,8,0:0:0:0:
265,181,1199,1,0,0:0:0:0:
216,99,1366,1,8,0:0:0:0:
292,111,1533,1,0,0:0:0:0:
292,111,1616,1,8,0:0:0:0:
176,192,1866,1,8,0:0:0:0:
176,192,2033,1,0,0:0:0:0:
89,163,2366,1,8,0:0:0:0:
89,163,2533,1,0,0:0:0:0:
89,163,2699,1,8,0:0:0:0:
278,106,2866,1,0,0:0:0:0:
278,106,2949,1,8,0:0:0:0:
164,136,3199,1,8,0:0:0:0:
164,136,3366,1,0,0:0:0:0:
239,192,3699,1,8,0:0:0:0:
239,192,3866,1,0,0:0:0:0:
239,192,4033,1,8,0:0:0:0:
286,117,4199,1,0,0:0:0:0:
286,117,4283,1,8,0:0:0:0:
239,192,4533,1,8,0:0:0:0:
239,192,4699,1,0,0:0:0:0:
162,155,5033,1,0,0:0:0:0:
162,155,5199,1,0,0:0:0:0:
215,203,5366,1,0,0:0:0:0:
203,72,5449,1,8,0:0:0:0:
168,212,5533,1,8,0:0:0:0:
212,199,6033,1,12,0:0:0:0:
67,170,6366,1,0,0:0:0:0:
75,172,6533,1,8,0:0:0:0:
240,152,6699,1,0,0:0:0:0:
173,196,6866,1,8,0:0:0:0:
173,196,6949,1,0,0:0:0:0:
173,196,7199,1,8,0:0:0:0:
95,132,7366,1,8,0:0:0:0:
95,132,7699,1,0,0:0:0:0:
95,132,7866,1,8,0:0:0:0:
95,132,8033,1,0,0:0:0:0:
95,132,8199,1,8,0:0:0:0:
95,132,8283,1,0,0:0:0:0:
95,132,8533,1,8,0:0:0:0:
141,158,8699,1,8,0:0:0:0:
165,207,9033,1,0,0:0:0:0:
165,207,9199,1,8,0:0:0:0:
165,207,9366,1,0,0:0:0:0:
165,207,9533,1,8,0:0:0:0:
165,207,9616,1,0,0:0:0:0:
165,207,9866,1,8,0:0:0:0:
260,226,10033,1,8,0:0:0:0:
191,127,10366,1,8,0:0:0:0:
131,180,10699,1,4,0:0:0:0:
167,191,11366,1,4,0:0:0:0:
265,181,11699,1,8,0:0:0:0:
265,181,11865,1,0,0:0:0:0:
265,181,12033,1,8,0:0:0:0:
273,75,12199,1,0,0:0:0:0:
250,118,12283,1,8,0:0:0:0:
176,192,12532,1,8,0:0:0:0:
176,192,12699,1,0,0:0:0:0:
89,163,13032,1,8,0:0:0:0:
89,163,13199,1,0,0:0:0:0:
89,163,13365,1,8,0:0:0:0:
276,84,13533,1,0,0:0:0:0:
225,81,13616,1,8,0:0:0:0:
164,136,13865,1,8,0:0:0:0:
164,136,14032,1,0,0:0:0:0:
239,192,14365,1,8,0:0:0:0:
239,192,14532,1,0,0:0:0:0:
239,192,14699,1,8,0:0:0:0:
340,117,14866,1,0,0:0:0:0:
239,192,14949,1,8,0:0:0:0:
239,192,15199,1,8,0:0:0:0:
239,192,15365,1,0,0:0:0:0:
104,196,15533,1,8,0:0:0:0:
180,208,15699,1,0,0:0:0:0:
180,208,15783,1,8,0:0:0:0:
113,103,16033,1,0,0:0:0:0:
302,255,16116,1,0,0:0:0:0:
302,255,16199,1,0,0:0:0:0:
212,199,16699,1,12,0:0:0:0:
67,170,17032,1,0,0:0:0:0:
75,172,17199,1,8,0:0:0:0:
240,152,17365,1,0,0:0:0:0:
173,196,17532,1,8,0:0:0:0:
173,196,17615,1,0,0:0:0:0:
173,196,17865,1,8,0:0:0:0:
95,132,18032,1,8,0:0:0:0:
95,132,18365,1,0,0:0:0:0:
95,132,18532,1,8,0:0:0:0:
95,132,18699,1,0,0:0:0:0:
95,132,18865,1,8,0:0:0:0:
95,132,18949,1,0,0:0:0:0:
95,132,19199,1,8,0:0:0:0:
141,158,19365,1,8,0:0:0:0:
165,207,19699,1,0,0:0:0:0:
165,207,19865,1,8,0:0:0:0:
165,207,20032,1,0,0:0:0:0:
165,207,20199,1,8,0:0:0:0:
165,207,20282,1,0,0:0:0:0:
165,207,20532,1,8,0:0:0:0:
260,226,20699,1,8,0:0:0:0:
114,170,20866,1,8,0:0:0:0:
203,89,21033,1,0,0:0:0:0:
203,89,21116,1,8,0:0:0:0:
244,157,21366,1,0,0:0:0:0:
329,256,22033,1,4,0:0:0:0:
190,157,22366,1,8,0:0:0:0:
190,157,22533,1,0,0:0:0:0:
190,157,22616,1,0,0:0:0:0:
190,157,22699,1,0,0:0:0:0:
190,157,22866,1,0,0:0:0:0:
190,157,23033,1,8,0:0:0:0:
94,223,23366,1,0,0:0:0:0:
94,223,23533,1,0,0:0:0:0:
94,223,23699,1,8,0:0:0:0:
261,218,23866,1,0,0:0:0:0:
261,218,23949,1,0,0:0:0:0:
261,218,24033,1,0,0:0:0:0:
261,218,24199,1,0,0:0:0:0:
261,218,24366,1,8,0:0:0:0:
312,241,24533,1,8,0:0:0:0:
166,202,24699,1,0,0:0:0:0:
166,202,25033,1,8,0:0:0:0:
166,202,25199,1,0,0:0:0:0:
166,202,25283,1,0,0:0:0:0:
166,202,25366,1,8,0:0:0:0:
166,202,25533,1,0,0:0:0:0:
166,202,25699,1,8,0:0:0:0:
277,237,26033,1,0,0:0:0:0:
277,237,26699,1,0,0:0:0:0:
277,237,26949,1,8,0:0:0:0:
277,237,27199,1,8,0:0:0:0:
144,199,27366,1,4,0:0:0:0:
203,126,27699,1,8,0:0:0:0:
273,222,27866,1,0,0:0:0:0:
273,222,27949,1,0,0:0:0:0:
273,222,28033,1,0,0:0:0:0:
273,222,28199,1,0,0:0:0:0:
273,222,28366,1,8,0:0:0:0:
170,215,28699,1,0,0:0:0:0:
170,215,28866,1,0,0:0:0:0:
170,215,29033,1,8,0:0:0:0:
170,215,29199,1,0,0:0:0:0:
170,215,29283,1,0,0:0:0:0:
170,215,29366,1,0,0:0:0:0:
170,215,29533,1,0,0:0:0:0:
170,215,29699,1,8,0:0:0:0:
327,267,29866,1,0,0:0:0:0:
274,242,30033,1,0,0:0:0:0:
274,242,30366,1,8,0:0:0:0:
274,242,30533,1,0,0:0:0:0:
274,242,30616,1,0,0:0:0:0:
274,242,30699,1,0,0:0:0:0:
274,242,30866,1,0,0:0:0:0:
274,242,31033,1,8,0:0:0:0:
195,197,31116,1,8,0:0:0:0:
274,242,31199,1,8,0:0:0:0:
195,197,31366,1,0,0:0:0:0:
195,197,31616,1,8,0:0:0:0:
206,127,31699,1,0,0:0:0:0:
195,197,31866,1,8,0:0:0:0:
111,138,32033,1,0,0:0:0:0:
251,208,32699,1,4,0:0:0:0:
152,247,33033,1,0,0:0:0:0:
152,247,33199,1,8,0:0:0:0:
166,162,33366,1,0,0:0:0:0:
166,162,33533,1,8,0:0:0:0:
166,162,33616,1,8,0:0:0:0:
166,162,33699,1,8,0:0:0:0:
166,162,33866,1,8,0:0:0:0:
215,235,34033,1,0,0:0:0:0:
93,217,34366,1,8,0:0:0:0:
93,217,34533,1,8,0:0:0:0:
149,194,34699,1,0,0:0:0:0:
149,194,34866,1,8,0:0:0:0:
149,194,34949,1,8,0:0:0:0:
149,194,35033,1,8,0:0:0:0:
149,194,35199,1,8,0:0:0:0:
199,242,35366,1,0,0:0:0:0:
213,157,35699,1,0,0:0:0:0:
213,157,35866,1,8,0:0:0:0:
213,157,36033,1,0,0:0:0:0:
213,157,36199,1,8,0:0:0:0:
213,157,36283,1,8,0:0:0:0:
213,157,36366,1,0,0:0:0:0:
213,157,36533,1,8,0:0:0:0:
233,257,36699,1,0,0:0:0:0:
233,257,37366,1,0,0:0:0:0:
233,257,37616,1,8,0:0:0:0:
233,257,37866,1,8,0:0:0:0:
227,195,38033,1,4,0:0:0:0:
139,200,38366,1,0,0:0:0:0:
139,200,38533,1,8,0:0:0:0:
139,200,38699,1,0,0:0:0:0:
401,268,38866,1,8,0:0:0:0:
216,207,38949,1,8,0:0:0:0:
216,207,39033,1,0,0:0:0:0:
216,207,39199,1,8,0:0:0:0:
278,243,39366,1,0,0:0:0:0:
278,243,39699,1,0,0:0:0:0:
278,243,39866,1,8,0:0:0:0:
278,243,40033,1,0,0:0:0:0:
292,162,40199,1,8,0:0:0:0:
278,243,40283,1,8,0:0:0:0:
278,243,40366,1,0,0:0:0:0:
278,243,40533,1,8,0:0:0:0:
139,182,40699,1,0,0:0:0:0:
139,182,41033,1,0,0:0:0:0:
139,182,41199,1,8,0:0:0:0:
139,182,41366,1,0,0:0:0:0:
139,182,41533,1,8,0:0:0:0:
139,182,41616,1,8,0:0:0:0:
139,182,41699,1,8,0:0:0:0:
139,182,41866,1,8,0:0:0:0:
255,211,42033,1,0,0:0:0:0:
255,211,42283,1,8,0:0:0:0:
240,124,42366,1,0,0:0:0:0:
255,211,42533,1,8,0:0:0:0:
150,194,42699,1,0,0:0:0:0:
150,194,42783,1,0,0:0:0:0:
150,194,42866,1,0,0:0:0:0:
150,194,43033,1,8,0:0:0:0:
200,115,43116,1,8,0:0:0:0:
256,195,43366,1,4,0:0:0:0:
256,192,43533,12,0,45366,0:0:0:0:
