osu file format v14

[General]
AudioFilename: audio.mp3
AudioLeadIn: 0
PreviewTime: 22033
Countdown: 0
SampleSet: Normal
StackLeniency: 0.7
Mode: 1
LetterboxInBreaks: 0
WidescreenStoryboard: 1

[Editor]
DistanceSpacing: 1
BeatDivisor: 2
GridSize: 32
TimelineZoom: 2.3

[Metadata]
Title:176 - ikazuchi_B
TitleUnicode:176 - ikazuchi_B
Artist:saradisk
ArtistUnicode:saradisk
Creator:R-18
Version:Kantan
Source:艦隊これくしょん -艦これ-
Tags:remix kancolle kantai collection 雷 lolicore instrumental japanese novelty electronic
BeatmapID:2280452
BeatmapSetID:1044372

[Difficulty]
HPDrainRate:8
CircleSize:3
OverallDifficulty:3
ApproachRate:5
SliderMultiplier:1.4
SliderTickRate:1

[Events]
//Background and Video events
0,0,"ikazu.jpg",0,0
//Break Periods
//Storyboard Layer 0 (Background)
//Storyboard Layer 1 (Fail)
//Storyboard Layer 2 (Pass)
//Storyboard Layer 3 (Foreground)
//Storyboard Layer 4 (Overlay)
//Storyboard Sound Samples

[TimingPoints]
700,333.333333333333,4,1,0,85,1,0
4866,-100,4,1,0,75,0,0
6033,-100,4,1,0,80,0,0
10199,-100,4,1,0,60,0,0
11366,-100,4,1,0,85,0,0
15533,-100,4,1,0,80,0,0
16699,-100,4,1,0,85,0,0
22033,-100,4,1,0,95,0,1
26033,-100,4,1,0,90,0,1
32699,-100,4,1,0,95,0,1
36699,-100,4,1,0,90,0,1
43366,-100,4,1,0,95,0,0
43533,-100,4,1,0,80,0,0
44033,-100,4,1,0,70,0,0
44366,-100,4,1,0,60,0,0
44699,-100,4,1,0,50,0,0
45033,-100,4,1,0,40,0,0
45366,-100,4,1,0,30,0,0

[HitObjects]
256,192,700,5,4,0:0:0:0:
160,256,1033,1,8,0:0:0:0:
256,192,1366,1,0,0:0:0:0:
160,128,2033,1,0,0:0:0:0:
224,256,2366,1,8,0:0:0:0:
256,192,2699,1,0,0:0:0:0:
192,192,3366,1,0,0:0:0:0:
224,288,3699,1,0,0:0:0:0:
96,160,4033,1,8,0:0:0:0:
192,192,4699,1,0,0:0:0:0:
256,192,6033,1,12,0:0:0:0:
192,256,6366,1,0,0:0:0:0:
256,192,6699,1,0,0:0:0:0:
128,192,7366,1,8,0:0:0:0:
224,256,7699,1,0,0:0:0:0:
224,256,8033,1,0,0:0:0:0:
160,160,8699,1,8,0:0:0:0:
192,256,9033,1,0,0:0:0:0:
256,224,9366,1,8,0:0:0:0:
256,224,10033,1,8,0:0:0:0:
256,192,11366,1,4,0:0:0:0:
320,288,11699,1,8,0:0:0:0:
256,192,12033,1,0,0:0:0:0:
160,128,12699,1,0,0:0:0:0:
224,288,13033,1,8,0:0:0:0:
224,288,13366,1,0,0:0:0:0:
192,192,14032,1,0,0:0:0:0:
224,288,14366,1,0,0:0:0:0:
256,256,14699,1,8,0:0:0:0:
192,192,15365,1,0,0:0:0:0:
256,192,16699,1,12,0:0:0:0:
192,256,17032,1,0,0:0:0:0:
256,192,17365,1,0,0:0:0:0:
128,192,18032,1,8,0:0:0:0:
224,256,18365,1,0,0:0:0:0:
224,256,18699,1,0,0:0:0:0:
160,160,19365,1,8,0:0:0:0:
192,256,19699,1,0,0:0:0:0:
256,224,20032,1,8,0:0:0:0:
256,224,20699,1,8,0:0:0:0:
256,192,22033,1,4,0:0:0:0:
160,224,22699,1,0,0:0:0:0:
160,224,23033,1,8,0:0:0:0:
160,224,23366,1,8,0:0:0:0:
288,256,24033,1,0,0:0:0:0:
288,256,24366,1,8,0:0:0:0:
288,256,24699,1,0,0:0:0:0:
192,224,25366,1,8,0:0:0:0:
192,224,25699,1,8,0:0:0:0:
192,224,26033,1,0,0:0:0:0:
192,224,27366,1,4,0:0:0:0:
256,192,28033,1,0,0:0:0:0:
256,192,28366,1,8,0:0:0:0:
256,192,28699,1,0,0:0:0:0:
256,192,29366,1,8,0:0:0:0:
256,192,29699,1,8,0:0:0:0:
256,192,30033,1,0,0:0:0:0:
192,224,30699,1,8,0:0:0:0:
192,224,31033,1,8,0:0:0:0:
192,224,31366,1,0,0:0:0:0:
256,192,32699,1,4,0:0:0:0:
160,224,33365,1,0,0:0:0:0:
160,224,33699,1,8,0:0:0:0:
160,224,34032,1,8,0:0:0:0:
288,256,34699,1,0,0:0:0:0:
288,256,35032,1,8,0:0:0:0:
288,256,35365,1,0,0:0:0:0:
192,224,36033,1,8,0:0:0:0:
192,224,36365,1,8,0:0:0:0:
192,224,36699,1,0,0:0:0:0:
192,224,38032,1,4,0:0:0:0:
256,192,38699,1,0,0:0:0:0:
256,192,39032,1,8,0:0:0:0:
256,192,39365,1,0,0:0:0:0:
256,192,40032,1,8,0:0:0:0:
256,192,40365,1,8,0:0:0:0:
256,192,40699,1,0,0:0:0:0:
192,224,41365,1,8,0:0:0:0:
192,224,41699,1,8,0:0:0:0:
192,224,42032,1,0,0:0:0:0:
256,192,42699,1,0,0:0:0:0:
256,192,43033,1,8,0:0:0:0:
256,192,43366,1,4,0:0:0:0:
256,192,43533,12,0,45366,0:0:0:0:
