osu file format v14

[General]
AudioFilename: audio.mp3
AudioLeadIn: 0
PreviewTime: 22033
Countdown: 0
SampleSet: Normal
StackLeniency: 0.7
Mode: 1
LetterboxInBreaks: 0
WidescreenStoryboard: 1

[Editor]
DistanceSpacing: 1
BeatDivisor: 4
GridSize: 32
TimelineZoom: 2.3

[Metadata]
Title:176 - ikazuchi_B
TitleUnicode:176 - ikazuchi_B
Artist:saradisk
ArtistUnicode:saradisk
Creator:R-18
Version:Futsuu
Source:艦隊これくしょん -艦これ-
Tags:remix kancolle kantai collection 雷 lolicore instrumental japanese novelty electronic
BeatmapID:2280451
BeatmapSetID:1044372

[Difficulty]
HPDrainRate:7
CircleSize:4
OverallDifficulty:4
ApproachRate:9.5
SliderMultiplier:1.4
SliderTickRate:1

[Events]
//Background and Video events
0,0,"ikazu.jpg",0,0
//Break Periods
//Storyboard Layer 0 (Background)
//Storyboard Layer 1 (Fail)
//Storyboard Layer 2 (Pass)
//Storyboard Layer 3 (Foreground)
//Storyboard Layer 4 (Overlay)
//Storyboard Sound Samples

[TimingPoints]
700,333.333333333333,4,1,0,85,1,0
4866,-100,4,1,0,75,0,0
6033,-100,4,1,0,80,0,0
10199,-100,4,1,0,60,0,0
11366,-100,4,1,0,85,0,0
15533,-100,4,1,0,80,0,0
16699,-100,4,1,0,85,0,0
22033,-100,4,1,0,95,0,1
26033,-100,4,1,0,90,0,1
32699,-100,4,1,0,95,0,1
36699,-100,4,1,0,90,0,1
43366,-100,4,1,0,95,0,0
43533,-100,4,1,0,80,0,0
44033,-100,4,1,0,70,0,0
44366,-100,4,1,0,60,0,0
44699,-100,4,1,0,50,0,0
45033,-100,4,1,0,40,0,0
45366,-100,4,1,0,30,0,0

[HitObjects]
0,0,700,5,4,0:0:0:0:
32,0,1033,1,8,0:0:0:0:
64,0,1366,1,0,0:0:0:0:
96,0,1616,1,8,0:0:0:0:
128,0,1866,1,8,0:0:0:0:
160,0,2033,1,0,0:0:0:0:
192,0,2366,1,8,0:0:0:0:
224,0,2699,1,0,0:0:0:0:
256,0,2949,1,8,0:0:0:0:
288,0,3199,1,8,0:0:0:0:
320,0,3366,1,0,0:0:0:0:
352,0,3700,1,8,0:0:0:0:
384,0,4033,1,0,0:0:0:0:
416,0,4283,1,8,0:0:0:0:
448,0,4533,1,8,0:0:0:0:
480,0,4699,1,0,0:0:0:0:
0,32,6033,1,12,0:0:0:0:
32,32,6366,1,0,0:0:0:0:
96,32,6699,1,0,0:0:0:0:
128,32,6949,1,8,0:0:0:0:
160,32,7199,1,8,0:0:0:0:
192,32,7366,1,8,0:0:0:0:
384,32,7699,1,0,0:0:0:0:
448,32,8032,1,0,0:0:0:0:
480,32,8282,1,8,0:0:0:0:
512,0,8532,1,8,0:0:0:0:
512,32,8699,1,8,0:0:0:0:
224,32,9033,1,0,0:0:0:0:
256,32,9366,1,0,0:0:0:0:
288,32,9617,1,8,0:0:0:0:
320,32,9867,1,8,0:0:0:0:
352,32,10033,1,8,0:0:0:0:
0,64,10699,1,4,0:0:0:0:
0,64,11366,1,4,0:0:0:0:
32,64,11699,1,8,0:0:0:0:
64,64,12032,1,0,0:0:0:0:
96,64,12282,1,8,0:0:0:0:
128,64,12532,1,8,0:0:0:0:
160,64,12699,1,0,0:0:0:0:
192,64,13032,1,8,0:0:0:0:
224,64,13365,1,0,0:0:0:0:
255,64,13615,1,8,0:0:0:0:
288,64,13865,1,8,0:0:0:0:
320,64,14032,1,0,0:0:0:0:
352,64,14366,1,8,0:0:0:0:
384,64,14699,1,0,0:0:0:0:
416,64,14949,1,8,0:0:0:0:
448,64,15199,1,8,0:0:0:0:
480,64,15365,1,0,0:0:0:0:
0,96,16699,1,12,0:0:0:0:
32,96,17032,1,0,0:0:0:0:
96,96,17365,1,0,0:0:0:0:
128,96,17615,1,8,0:0:0:0:
160,96,17865,1,8,0:0:0:0:
192,96,18032,1,8,0:0:0:0:
384,96,18366,1,0,0:0:0:0:
448,96,18699,1,0,0:0:0:0:
480,96,18949,1,8,0:0:0:0:
512,64,19199,1,8,0:0:0:0:
512,96,19366,1,8,0:0:0:0:
224,96,19699,1,0,0:0:0:0:
256,96,20033,1,0,0:0:0:0:
288,96,20283,1,8,0:0:0:0:
320,96,20533,1,8,0:0:0:0:
351,97,20699,1,8,0:0:0:0:
224,128,22033,1,4,0:0:0:0:
256,128,22366,1,8,0:0:0:0:
288,128,22699,1,0,0:0:0:0:
320,128,22949,1,8,0:0:0:0:
352,128,23199,1,8,0:0:0:0:
384,128,23366,1,0,0:0:0:0:
416,128,23699,1,8,0:0:0:0:
480,128,24033,1,0,0:0:0:0:
512,128,24283,1,0,0:0:0:0:
0,160,24533,1,8,0:0:0:0:
32,160,24699,1,0,0:0:0:0:
64,160,25033,1,8,0:0:0:0:
96,160,25366,1,0,0:0:0:0:
160,160,25616,1,8,0:0:0:0:
192,160,25866,1,0,0:0:0:0:
224,160,26033,1,0,0:0:0:0:
352,160,27366,1,4,0:0:0:0:
384,160,27699,1,8,0:0:0:0:
416,160,28033,1,0,0:0:0:0:
480,160,28283,1,8,0:0:0:0:
217,179,28533,1,8,0:0:0:0:
512,160,28699,1,0,0:0:0:0:
0,192,29033,1,8,0:0:0:0:
32,192,29366,1,0,0:0:0:0:
64,192,29616,1,0,0:0:0:0:
96,192,29866,1,8,0:0:0:0:
128,192,30033,1,0,0:0:0:0:
160,192,30365,1,8,0:0:0:0:
192,192,30699,1,0,0:0:0:0:
224,192,30949,1,8,0:0:0:0:
256,192,31199,1,8,0:0:0:0:
288,192,31366,1,0,0:0:0:0:
320,192,31866,1,8,0:0:0:0:
352,192,32033,1,0,0:0:0:0:
0,224,32699,1,4,0:0:0:0:
32,224,33032,1,8,0:0:0:0:
64,224,33365,1,0,0:0:0:0:
96,224,33615,1,8,0:0:0:0:
128,224,33865,1,8,0:0:0:0:
160,224,34032,1,0,0:0:0:0:
192,224,34365,1,8,0:0:0:0:
256,224,34699,1,0,0:0:0:0:
288,224,34949,1,0,0:0:0:0:
320,224,35199,1,8,0:0:0:0:
352,224,35365,1,0,0:0:0:0:
384,224,35699,1,8,0:0:0:0:
416,224,36033,1,0,0:0:0:0:
448,224,36283,1,8,0:0:0:0:
480,224,36533,1,0,0:0:0:0:
0,256,36699,1,0,0:0:0:0:
512,224,38033,1,4,0:0:0:0:
160,256,38365,1,8,0:0:0:0:
192,256,38699,1,0,0:0:0:0:
224,256,38949,1,8,0:0:0:0:
256,256,39199,1,8,0:0:0:0:
288,256,39365,1,0,0:0:0:0:
320,256,39699,1,8,0:0:0:0:
352,256,40033,1,0,0:0:0:0:
384,256,40283,1,0,0:0:0:0:
416,256,40533,1,8,0:0:0:0:
448,256,40699,1,0,0:0:0:0:
480,256,41033,1,8,0:0:0:0:
512,256,41365,1,0,0:0:0:0:
0,288,41616,1,8,0:0:0:0:
32,288,41866,1,8,0:0:0:0:
64,288,42033,1,0,0:0:0:0:
96,288,42532,1,8,0:0:0:0:
448,192,42699,1,0,0:0:0:0:
480,192,42865,1,0,0:0:0:0:
512,192,43032,1,8,0:0:0:0:
128,160,43366,1,4,0:0:0:0:
256,192,43533,12,0,45366,0:0:0:0:
