osu file format v14

[General]
AudioFilename: audio.mp3
AudioLeadIn: 0
PreviewTime: 22034
Countdown: 0
SampleSet: Soft
StackLeniency: 0.4
Mode: 0
LetterboxInBreaks: 0
WidescreenStoryboard: 0

[Editor]
DistanceSpacing: 1
BeatDivisor: 4
GridSize: 4
TimelineZoom: 1.9

[Metadata]
Title:176 - ikazuchi_B
TitleUnicode:176 - ikazuchi_B
Artist:saradisk
ArtistUnicode:saradisk
Creator:Nozhomi
Version:Ute!
Source:艦隊これくしょん -艦これ-
Tags:remix kancolle kantai collection 雷 lolicore Pachiru Spotty Krfawy
BeatmapID:1530270
BeatmapSetID:724704

[Difficulty]
HPDrainRate:6.1
CircleSize:4.5
OverallDifficulty:8.7
ApproachRate:9.6
SliderMultiplier:1.8
SliderTickRate:1

[Events]
//Background and Video events
0,0,"ikazuchi.jpg",0,0
//Break Periods
//Storyboard Layer 0 (Background)
//Storyboard Layer 1 (Fail)
//Storyboard Layer 2 (Pass)
//Storyboard Layer 3 (Foreground)
//Storyboard Sound Samples

[TimingPoints]
701,333.333333333333,4,2,1,70,1,0
22034,-66.6666666666667,4,2,1,75,0,1
32367,-100,4,2,1,70,0,0
32700,-66.6666666666667,4,2,1,75,0,1
43034,-66.6666666666667,4,2,1,70,0,0
43700,-66.6666666666667,4,2,1,65,0,0
43867,-66.6666666666667,4,2,1,60,0,0
44034,-66.6666666666667,4,2,1,55,0,0
44200,-66.6666666666667,4,2,1,50,0,0
44367,-66.6666666666667,4,2,1,45,0,0
44534,-66.6666666666667,4,2,1,40,0,0
44700,-66.6666666666667,4,2,1,35,0,0
44867,-66.6666666666667,4,2,1,30,0,0
45034,-66.6666666666667,4,2,1,25,0,0
45200,-66.6666666666667,4,2,1,20,0,0
45284,-100,4,2,1,5,0,0

[Colours]
Combo1 : 214,145,112
Combo2 : 128,255,255
Combo3 : 216,210,7
Combo4 : 231,99,102
Combo5 : 63,157,226

[HitObjects]
424,144,701,6,0,L|304:136,1,90,4|0,3:2|1:0,0:0:0:0:
170,127,1034,2,0,L|259:132,1,90,0|0,3:0|1:0,0:0:0:0:
424,144,1367,1,0,3:0:0:0:
308,224,1534,1,0,1:0:0:0:
308,224,1617,2,0,P|285:225|266:236,1,45,0|0,3:0|0:0,0:0:0:0:
220,292,1784,1,0,1:0:0:0:
220,292,1867,2,0,P|205:308|199:330,1,45,0|0,3:0|1:0,0:0:0:0:
191,210,2034,6,0,P|188:165|172:124,1,90,2|0,3:2|1:0,0:0:0:0:
36,44,2367,2,0,P|76:63|120:70,1,90,0|0,3:0|1:0,0:0:0:0:
272,24,2700,1,0,3:0:0:0:
100,140,2867,1,0,1:0:0:0:
100,140,2950,2,0,L|32:136,1,45,0|0,3:0|0:0,0:0:0:0:
80,216,3117,1,0,1:0:0:0:
80,216,3200,2,0,L|12:212,1,45,0|0,3:0|1:0,0:0:0:0:
152,268,3367,6,0,L|241:262,1,90,2|0,3:2|1:0,0:0:0:0:
401,234,3700,2,0,L|311:228,1,90,0|0,3:0|1:0,0:0:0:0:
153,190,4034,1,0,3:0:0:0:
308,300,4200,1,0,1:0:0:0:
308,300,4284,2,0,P|312:328|303:368,1,45,0|0,3:0|0:0,0:0:0:0:
311,228,4450,1,0,1:0:0:0:
311,228,4534,2,0,P|307:200|315:160,1,45,0|0,3:0|1:0,0:0:0:0:
340,40,4700,6,0,P|312:68|240:80,1,90,2|0,3:2|1:0,0:0:0:0:
144,64,5034,5,0,3:0:0:0:
120,52,5200,5,0,3:0:0:0:
100,40,5367,5,0,3:0:0:0:
104,84,5450,1,0,1:0:0:0:
108,128,5534,1,0,3:0:0:0:
112,172,5617,1,0,3:0:0:0:
116,216,5700,1,0,3:0:0:0:
281,114,5867,1,2,3:2:0:0:
25,95,6034,6,0,L|34:191,1,90,2|0,3:2|1:0,0:0:0:0:
199,254,6367,2,0,L|190:164,1,90,0|0,3:0|1:0,0:0:0:0:
41,265,6700,2,0,L|49:354,1,90,0|0,3:0|1:0,0:0:0:0:
124,305,6950,2,0,L|115:215,1,90,0|0,3:0|1:0,0:0:0:0:
104,84,7200,2,0,L|107:128,1,45,0|0,3:0|1:0,0:0:0:0:
191,165,7367,6,0,P|238:173|293:155,1,90,2|0,3:2|1:0,0:0:0:0:
383,16,7700,2,0,P|352:52|340:109,1,90,0|0,3:0|1:0,0:0:0:0:
421,256,8034,2,0,P|404:211|361:172,1,90,0|0,3:0|1:0,0:0:0:0:
318,265,8284,2,0,P|274:245|216:248,1,90,0|0,3:0|1:0,0:0:0:0:
254,345,8534,2,0,P|230:350|201:369,1,45,0|0,3:0|1:0,0:0:0:0:
318,265,8700,6,0,L|314:175,1,90,2|0,3:2|1:0,0:0:0:0:
396,12,9034,2,0,P|410:57|399:101,1,90,0|0,3:0|1:0,0:0:0:0:
222,98,9367,2,0,P|213:54|228:12,1,90,0|0,3:0|1:0,0:0:0:0:
238,169,9617,2,0,L|133:163,1,90,0|0,3:0|1:0,0:0:0:0:
288,121,9867,2,0,L|356:117,1,45,0|0,3:0|1:0,0:0:0:0:
387,166,10034,5,2,3:2:0:0:
222,98,10200,1,2,0:0:0:0:
266,284,10367,2,0,L|263:359,1,45,2|0,0:0|0:0,0:0:0:0:
282,51,10700,5,0,3:0:0:0:
340,222,10867,1,2,0:0:0:0:
148,163,11034,2,0,L|92:167,1,45,2|0,0:0|0:0,0:0:0:0:
0,214,11200,2,0,L|44:210,1,45,2|0,0:0|0:0,0:0:0:0:
162,283,11367,6,0,P|172:326|160:368,1,90,2|0,3:2|1:0,0:0:0:0:
103,166,11700,2,0,P|92:122|104:80,1,90,0|0,3:0|1:0,0:0:0:0:
162,283,12034,1,0,3:0:0:0:
328,158,12200,1,0,1:0:0:0:
328,158,12284,2,0,L|396:154,1,45,0|0,3:0|0:0,0:0:0:0:
497,149,12450,1,0,1:0:0:0:
497,149,12534,2,0,L|429:153,1,45,0|0,3:0|1:0,0:0:0:0:
347,68,12700,6,0,L|440:63,1,90,2|0,3:2|1:0,0:0:0:0:
468,250,13034,2,0,L|378:254,1,90,0|0,3:0|1:0,0:0:0:0:
255,99,13367,1,0,3:0:0:0:
130,258,13534,1,0,1:0:0:0:
130,258,13617,2,0,B|116:276|116:276|113:254,1,45,0|0,3:0|0:0,0:0:0:0:
130,126,13784,1,0,1:0:0:0:
130,126,13867,2,0,B|116:107|116:107|113:129,1,45,0|0,3:0|1:0,0:0:0:0:
144,28,14034,6,0,P|99:25|44:70,1,90,2|0,3:2|1:0,0:0:0:0:
46,240,14367,2,0,P|85:261|130:258,1,90,0|0,3:0|1:0,0:0:0:0:
304,150,14700,1,0,3:0:0:0:
400,329,14867,1,0,1:0:0:0:
400,329,14950,2,0,L|402:388,1,45,0|0,3:0|0:0,0:0:0:0:
471,286,15117,1,0,1:0:0:0:
471,286,15200,2,0,L|472:345,1,45,0|0,3:0|1:0,0:0:0:0:
397,247,15367,5,2,3:2:0:0:
194,319,15534,1,0,1:0:0:0:
150,330,15617,1,0,3:0:0:0:
108,313,15700,1,0,3:0:0:0:
92,270,15784,1,0,1:0:0:0:
106,227,15867,1,2,0:0:0:0:
143,202,15950,1,0,0:0:0:0:
174,169,16034,1,0,1:0:0:0:
185,125,16117,1,0,1:0:0:0:
167,83,16200,1,0,3:0:0:0:
122,74,16284,1,0,3:0:0:0:
82,94,16367,2,0,P|73:115|68:137,1,45,2|0,3:2|0:0,0:0:0:0:
228,208,16534,2,0,P|236:187|240:166,1,45,2|0,3:2|0:0,0:0:0:0:
152,268,16700,6,0,L|158:357,1,90,2|0,3:2|1:0,0:0:0:0:
353,358,17034,2,0,L|360:268,1,90,0|0,3:0|1:0,0:0:0:0:
356,16,17367,2,0,P|337:61|287:85,1,90,0|0,3:0|1:0,0:0:0:0:
156,16,17617,2,0,P|171:57|208:82,1,90,0|0,3:0|1:0,0:0:0:0:
309,148,17867,2,0,L|358:144,1,45,0|0,3:0|1:0,0:0:0:0:
494,99,18034,6,0,P|453:88|405:92,1,90,2|0,3:2|1:0,0:0:0:0:
147,157,18367,2,0,P|191:160|234:149,1,90,0|0,3:0|1:0,0:0:0:0:
494,99,18700,2,0,P|453:88|405:92,1,90,0|0,3:0|1:0,0:0:0:0:
339,212,18950,2,0,L|341:301,1,90,0|0,3:0|1:0,0:0:0:0:
256,281,19200,2,0,L|254:236,1,45,0|0,3:0|1:0,0:0:0:0:
424,208,19367,6,0,P|432:253|426:297,1,90,2|0,3:2|1:0,0:0:0:0:
84,296,19700,2,0,P|80:252|88:208,1,90,0|0,3:0|1:0,0:0:0:0:
268,70,20034,2,0,P|231:96|189:111,1,90,0|0,3:0|1:0,0:0:0:0:
25,91,20284,2,0,P|65:110|109:117,1,90,0|0,3:0|1:0,0:0:0:0:
228,16,20534,2,0,P|210:31|191:42,1,45,0|0,3:0|1:0,0:0:0:0:
88,44,20700,5,2,3:2:0:0:
340,48,20867,1,0,1:0:0:0:
340,48,20950,2,0,L|336:108,1,45,0|0,3:0|3:0,0:0:0:0:
327,239,21117,5,0,1:0:0:0:
350,278,21200,1,0,3:0:0:0:
395,278,21284,1,0,1:0:0:0:
417,239,21367,1,0,3:0:0:0:
395,200,21450,1,0,1:0:0:0:
350,200,21534,1,0,3:0:0:0:
327,239,21617,1,0,3:0:0:0:
350,278,21700,2,0,L|351:342,1,45,2|0,3:2|0:0,0:0:0:0:
160,322,21867,2,0,L|162:278,1,45,2|0,1:2|3:0,0:0:0:0:
256,76,22034,6,4,B|236:144|276:144|256:208,1,135.000005149842,4|4,3:2|0:0,0:0:0:0:
99,360,22367,1,0,1:0:0:0:
37,166,22534,1,0,3:0:0:0:
37,166,22617,1,0,3:0:0:0:
37,166,22700,1,2,0:0:0:0:
233,285,22867,2,0,L|308:283,1,67.5000025749208,0|0,3:0|0:0,0:0:0:0:
442,280,23034,2,0,P|380:290|375:352,1,135.000005149842,0|2,1:0|0:0,0:0:0:0:
501,341,23284,1,2,0:0:0:0:
501,341,23367,6,0,L|497:206,1,135.000005149842,0|0,3:0|0:0,0:0:0:0:
493,198,23617,1,2,0:0:0:0:
489,190,23700,1,0,1:0:0:0:
331,22,23867,1,0,3:0:0:0:
327,30,23950,1,0,3:0:0:0:
323,38,24034,1,2,0:0:0:0:
132,192,24200,2,0,B|168:184|168:184|144:148,1,67.5000025749208,0|0,3:0|0:0,0:0:0:0:
8,248,24367,2,0,B|-3:283|-3:283|40:280,1,67.5000025749208,0|0,1:0|0:0,0:0:0:0:
52,152,24534,1,2,0:0:0:0:
52,152,24617,1,2,0:0:0:0:
52,152,24700,6,0,L|48:12,1,135.000005149842,0|0,3:0|0:0,0:0:0:0:
48,17,24950,1,2,0:0:0:0:
48,17,25034,1,0,1:0:0:0:
203,198,25200,1,0,3:0:0:0:
203,198,25284,1,0,3:0:0:0:
203,198,25367,1,2,0:0:0:0:
368,38,25534,2,0,P|386:79|378:132,1,67.5000025749208,0|0,3:0|0:0,0:0:0:0:
341,206,25700,2,0,L|207:202,1,135.000005149842,0|2,1:0|0:0,0:0:0:0:
113,270,25950,1,2,0:0:0:0:
113,270,26034,6,0,P|167:310|243:308,1,135.000005149842,0|2,3:0|0:0,0:0:0:0:
294,142,26284,5,2,0:0:0:0:
294,142,26367,2,0,P|240:102|164:104,1,135.000005149842,0|2,1:0|3:2,0:0:0:0:
113,270,26617,5,2,3:2:0:0:
113,270,26701,2,0,P|167:310|243:308,1,135.000005149842,0|0,3:0|3:0,0:0:0:0:
294,142,26950,5,2,0:0:0:0:
294,142,27034,1,0,1:0:0:0:
413,344,27200,1,2,0:0:0:0:
413,344,27284,1,2,0:0:0:0:
413,344,27367,6,0,L|408:176,1,135.000005149842,0|0,3:0|0:0,0:0:0:0:
268,28,27700,1,0,1:0:0:0:
495,70,27867,2,0,B|507:38|507:38|474:44,1,67.5000025749208,0|0,3:0|3:0,0:0:0:0:
408,140,28034,1,2,0:0:0:0:
196,52,28200,2,0,L|128:56,1,67.5000025749208,0|0,3:0|0:0,0:0:0:0:
64,152,28367,2,0,L|198:145,1,135.000005149842,0|2,1:0|0:0,0:0:0:0:
288,232,28617,1,2,0:0:0:0:
288,232,28700,6,0,L|422:224,1,135.000005149842,0|0,3:0|0:0,0:0:0:0:
224,340,29034,1,0,1:0:0:0:
300,124,29200,2,0,L|296:56,1,67.5000025749208,0|0,3:0|3:0,0:0:0:0:
208,8,29367,1,2,0:0:0:0:
423,224,29534,2,0,L|427:292,1,67.5000025749208,0|0,3:0|0:0,0:0:0:0:
316,316,29700,2,0,P|294:241|328:176,1,135.000005149842,0|2,1:0|0:0,0:0:0:0:
415,136,29950,1,2,0:0:0:0:
415,136,30034,5,0,3:0:0:0:
422,113,30117,1,2,0:0:0:0:
405,96,30200,1,2,0:0:0:0:
380,107,30284,1,0,1:0:0:0:
372,140,30367,5,0,1:0:0:0:
395,166,30450,1,2,0:0:0:0:
430,167,30534,1,0,3:0:0:0:
464,145,30617,1,0,3:0:0:0:
478,108,30700,5,2,0:0:0:0:
471,68,30784,1,2,0:0:0:0:
438,35,30867,1,0,3:0:0:0:
393,23,30950,1,2,0:0:0:0:
341,39,31034,5,0,1:0:0:0:
304,78,31117,1,2,0:0:0:0:
287,136,31200,1,2,0:0:0:0:
315,191,31284,1,2,0:0:0:0:
360,232,31367,6,0,L|356:304,1,67.5000025749208,0|2,3:0|0:0,0:0:0:0:
240,356,31534,1,2,0:0:0:0:
240,356,31617,1,2,0:0:0:0:
240,356,31700,2,0,L|236:284,1,67.5000025749208,0|2,1:0|0:0,0:0:0:0:
168,180,31867,1,0,3:0:0:0:
168,180,31950,1,0,3:0:0:0:
168,180,32034,2,0,P|144:208|116:224,1,67.5000025749208,0|2,3:0|0:0,0:0:0:0:
80,116,32200,2,0,P|43:118|12:110,1,67.5000025749208,0|2,3:0|0:0,0:0:0:0:
196,56,32367,6,2,P|237:45|308:72,1,90,0|0,0:0|0:0,1:0:0:0:
470,355,32700,6,0,P|422:279|426:215,1,135.000005149842,4|0,0:0|0:0,0:0:0:0:
489,36,32950,1,0,1:0:0:0:
489,36,33034,2,0,P|480:102|439:154,1,135.000005149842,0|0,3:0|0:0,0:0:0:0:
232,196,33284,1,0,1:0:0:0:
232,196,33367,2,0,P|293:170|359:180,1,135.000005149842,0|0,3:0|0:0,0:0:0:0:
260,304,33617,1,0,3:0:0:0:
260,304,33700,2,0,L|168:300,1,67.5000025749208,2|0,0:0|0:0,0:0:0:0:
44,348,33867,2,0,L|111:350,1,67.5000025749208,0|0,3:0|0:0,0:0:0:0:
260,304,34034,6,0,P|265:224|238:178,1,135.000005149842,2|0,3:2|0:0,0:0:0:0:
40,211,34284,1,0,1:0:0:0:
40,211,34367,2,0,P|92:251|159:255,1,135.000005149842,0|0,3:0|0:0,0:0:0:0:
230,65,34617,1,0,1:0:0:0:
230,65,34700,2,0,P|168:90|131:146,1,135.000005149842,0|0,3:0|0:0,0:0:0:0:
260,304,34950,1,0,3:0:0:0:
260,304,35034,2,0,P|296:292|324:268,1,67.5000025749208,2|0,0:0|0:0,0:0:0:0:
396,180,35200,2,0,P|412:146|415:109,1,67.5000025749208,0|0,3:0|0:0,0:0:0:0:
300,32,35367,6,0,L|308:188,1,135.000005149842,2|0,3:2|0:0,0:0:0:0:
403,315,35617,1,0,1:0:0:0:
403,315,35700,2,0,L|396:180,1,135.000005149842,0|0,3:0|0:0,0:0:0:0:
304,35,35950,1,0,1:0:0:0:
304,35,36034,2,0,L|310:169,1,135.000005149842,0|0,3:0|0:0,0:0:0:0:
212,344,36284,1,0,3:0:0:0:
212,344,36367,2,0,P|164:344|112:320,1,67.5000025749208,2|0,0:0|0:0,0:0:0:0:
40,236,36534,2,0,P|58:264|83:286,1,67.5000025749208,0|0,3:0|0:0,0:0:0:0:
276,328,36700,5,2,3:2:0:0:
284,320,36784,1,2,0:0:0:0:
292,312,36867,2,0,L|288:224,1,67.5000025749208,2|0,0:0|1:0,0:0:0:0:
360,120,37034,5,0,3:0:0:0:
368,112,37118,1,2,0:0:0:0:
376,104,37200,2,0,L|372:16,1,67.5000025749208,2|0,0:0|1:0,0:0:0:0:
272,108,37367,5,0,3:0:0:0:
272,108,37450,2,0,P|276:144|316:196,1,67.5000025749208,2|2,0:0|0:0,0:0:0:0:
452,168,37617,1,0,3:0:0:0:
452,168,37700,2,0,P|466:137|469:104,1,67.5000025749208,2|2,0:0|0:0,0:0:0:0:
376,232,37867,1,0,3:0:0:0:
376,232,37950,1,2,0:0:0:0:
376,232,38034,6,0,B|360:304|360:304|376:364,1,135.000005149842,2|0,3:2|0:0,0:0:0:0:
260,304,38284,1,0,1:0:0:0:
260,304,38367,2,0,P|224:292|176:304,1,67.5000025749208,0|0,3:0|0:0,0:0:0:0:
24,332,38534,2,0,P|60:344|108:332,1,67.5000025749208,2|0,0:0|1:0,0:0:0:0:
188,196,38700,2,0,L|180:16,1,135.000005149842,0|0,3:0|0:0,0:0:0:0:
112,176,38950,1,0,3:0:0:0:
112,176,39034,2,0,L|115:243,1,67.5000025749208,2|0,0:0|0:0,0:0:0:0:
264,164,39200,2,0,L|261:97,1,67.5000025749208,0|0,3:0|0:0,0:0:0:0:
260,236,39367,6,0,B|320:256|320:256|390:241,1,135.000005149842,2|0,3:2|0:0,0:0:0:0:
496,152,39617,1,0,1:0:0:0:
496,152,39700,2,0,P|492:186|492:220,1,67.5000025749208,0|0,3:0|0:0,0:0:0:0:
463,373,39867,2,0,P|464:340|458:307,1,67.5000025749208,2|0,0:0|1:0,0:0:0:0:
391,168,40034,2,0,P|328:147|264:164,1,135.000005149842,0|0,3:0|0:0,0:0:0:0:
152,260,40284,1,0,3:0:0:0:
152,260,40367,2,0,L|56:256,1,67.5000025749208,2|0,0:0|0:0,0:0:0:0:
224,240,40534,2,0,L|291:242,1,67.5000025749208,0|0,3:0|0:0,0:0:0:0:
150,174,40700,5,2,3:2:0:0:
142,145,40783,1,2,0:0:0:0:
147,113,40866,1,2,0:0:0:0:
164,82,40950,1,0,1:0:0:0:
195,61,41034,5,0,3:0:0:0:
234,52,41117,1,2,0:0:0:0:
274,66,41200,1,2,0:0:0:0:
306,97,41283,1,0,1:0:0:0:
322,142,41366,5,0,3:0:0:0:
309,192,41450,1,2,0:0:0:0:
284,240,41533,1,2,0:0:0:0:
280,296,41616,1,0,3:0:0:0:
312,346,41700,5,2,0:0:0:0:
370,366,41783,1,2,0:0:0:0:
429,341,41866,1,0,3:0:0:0:
449,276,41950,1,2,0:0:0:0:
419,214,42034,6,0,P|409:174|420:115,1,67.5000025749208,0|0,3:0|0:0,0:0:0:0:
461,12,42200,1,0,1:0:0:0:
461,12,42284,2,0,P|470:51|460:111,1,67.5000025749208,0|0,3:0|0:0,0:0:0:0:
331,138,42450,1,0,1:0:0:0:
281,159,42534,1,0,3:0:0:0:
230,146,42617,1,0,1:0:0:0:
204,98,42700,1,0,3:0:0:0:
217,45,42784,1,0,3:0:0:0:
262,15,42867,1,0,1:0:0:0:
314,27,42950,1,0,3:0:0:0:
340,74,43034,6,0,P|344:107|330:138,1,67.5000025749208,2|0,0:0|0:0,0:0:0:0:
227,326,43200,2,0,P|218:288|231:230,1,67.5000025749208,2|0,0:0|0:0,0:0:0:0:
340,74,43367,5,4,0:0:0:0:
256,192,43450,12,0,45367,0:0:0:0:
