osu file format v14

[General]
AudioFilename: audio.mp3
AudioLeadIn: 0
PreviewTime: 22034
Countdown: 0
SampleSet: Soft
StackLeniency: 0.4
Mode: 0
LetterboxInBreaks: 0
WidescreenStoryboard: 1

[Editor]
Bookmarks: 11367,30034,40700
DistanceSpacing: 0.6
BeatDivisor: 4
GridSize: 4
TimelineZoom: 1.9

[Metadata]
Title:176 - ikazuchi_B
TitleUnicode:176 - ikazuchi_B
Artist:saradisk
ArtistUnicode:saradisk
Creator:Nozhomi
Version:Pachiru's Extra
Source:艦隊これくしょん -艦これ-
Tags:remix kancolle kantai collection 雷 lolicore Pachiru Spotty Krfawy
BeatmapID:1555461
BeatmapSetID:724704

[Difficulty]
HPDrainRate:6
CircleSize:4
OverallDifficulty:8.3
ApproachRate:9.6
SliderMultiplier:2.1
SliderTickRate:1

[Events]
//Background and Video events
0,0,"ikazuchi.jpg",0,0
//Break Periods
//Storyboard Layer 0 (Background)
//Storyboard Layer 1 (Fail)
//Storyboard Layer 2 (Pass)
//Storyboard Layer 3 (Foreground)
//Storyboard Sound Samples

[TimingPoints]
701,333.333333333333,4,2,1,70,1,0
22034,-83.3333333333333,4,2,1,75,0,1
32367,-83.3333333333333,4,2,1,70,0,0
32700,-83.3333333333333,4,2,1,75,0,1
43034,-83.3333333333333,4,2,1,70,0,0
43700,-83.3333333333333,4,2,1,65,0,0
43867,-83.3333333333333,4,2,1,60,0,0
44034,-83.3333333333333,4,2,1,55,0,0
44200,-83.3333333333333,4,2,1,50,0,0
44367,-83.3333333333333,4,2,1,45,0,0
44534,-83.3333333333333,4,2,1,40,0,0
44700,-83.3333333333333,4,2,1,35,0,0
44867,-83.3333333333333,4,2,1,30,0,0
45034,-83.3333333333333,4,2,1,25,0,0
45200,-83.3333333333333,4,2,1,20,0,0
45284,-83.3333333333333,4,2,1,5,0,0

[Colours]
Combo1 : 214,145,112
Combo2 : 128,255,255
Combo3 : 216,210,7
Combo4 : 231,99,102
Combo5 : 63,157,226

[HitObjects]
52,160,367,6,0,L|64:216,1,52.5,0|0,0:0|0:0,0:0:0:0:
152,112,534,2,0,L|140:168,1,52.5,0|0,0:0|0:0,0:0:0:0:
224,332,701,6,0,P|272:347|323:326,1,105,4|0,3:2|1:0,0:0:0:0:
264,156,1034,2,0,L|272:276,1,105,0|0,3:0|1:0,0:0:0:0:
456,240,1367,6,0,P|416:188|368:180,1,105,0|0,3:0|1:0,0:0:0:0:
393,82,1617,2,0,P|369:143|386:188,1,105,0|0,3:0|1:0,0:0:0:0:
272,260,1867,2,0,L|212:256,1,52.5,0|0,3:0|1:0,0:0:0:0:
64,188,2034,6,0,B|172:196,1,105,2|0,3:2|1:0,0:0:0:0:
64,324,2367,2,0,B|168:316,1,105,0|0,3:0|1:0,0:0:0:0:
169,99,2700,2,0,P|151:146|179:206,1,105,0|0,3:0|1:0,0:0:0:0:
272,96,2950,2,0,P|290:143|262:203,1,105,0|0,3:0|1:0,0:0:0:0:
220,44,3200,2,0,P|236:32|272:24,1,52.5,0|0,3:0|1:0,0:0:0:0:
416,116,3367,6,0,B|368:92|368:92|420:72,1,105,2|0,3:2|1:0,0:0:0:0:
416,232,3700,2,0,B|368:208|368:208|420:188,1,105,0|0,3:0|1:0,0:0:0:0:
416,308,4034,2,0,P|355:315|309:288,1,105,0|0,3:0|1:0,0:0:0:0:
152,356,4284,2,0,P|212:363|258:336,1,105,0|0,3:0|1:0,0:0:0:0:
188,224,4534,2,0,L|196:292,1,52.5,0|0,3:0|1:0,0:0:0:0:
264,156,4700,6,0,L|248:36,1,105,2|0,3:2|1:0,0:0:0:0:
176,140,5034,1,0,3:0:0:0:
344,116,5200,1,0,3:0:0:0:
124,72,5367,1,0,3:0:0:0:
95,109,5450,1,0,1:0:0:0:
90,155,5533,1,0,3:0:0:0:
110,197,5616,1,0,3:0:0:0:
148,223,5700,1,0,3:0:0:0:
250,51,5867,1,2,3:2:0:0:
384,348,6034,6,0,L|396:244,1,105,2|0,3:2|1:0,0:0:0:0:
276,336,6367,2,0,L|288:232,1,105,0|0,3:0|1:0,0:0:0:0:
168,324,6700,2,0,L|180:220,1,105,0|0,3:0|1:0,0:0:0:0:
84,100,6950,2,0,L|96:204,1,105,0|0,3:0|1:0,0:0:0:0:
256,88,7200,2,0,P|224:88|200:100,1,52.5,0|0,3:0|1:0,0:0:0:0:
288,231,7367,6,0,B|328:228|328:228|352:236|352:236|400:232,1,105,2|0,3:2|1:0,0:0:0:0:
388,24,7700,2,0,B|391:64|391:64|383:88|383:88|386:127,1,105,0|0,3:0|1:0,0:0:0:0:
252,28,8034,2,0,P|201:28|157:57,1,105,0|0,3:0|1:0,0:0:0:0:
252,200,8284,2,0,P|251:148|223:105,1,105,0|0,3:0|1:0,0:0:0:0:
68,56,8534,2,0,L|87:125,1,52.5,0|0,3:0|1:0,0:0:0:0:
136,288,8700,6,0,B|64:288|64:288|96:256,1,105,2|0,3:2|1:0,0:0:0:0:
288,284,9034,2,0,B|360:284|360:284|328:252,1,105,0|0,3:0|1:0,0:0:0:0:
427,334,9367,2,0,P|443:285|428:235,1,105,0|0,3:0|1:0,0:0:0:0:
383,69,9617,2,0,P|367:118|383:167,1,105,0|0,3:0|1:0,0:0:0:0:
504,120,9867,2,0,L|440:120,1,52.5,0|0,3:0|1:0,0:0:0:0:
344,240,10034,6,0,B|292:256|292:256|240:236,1,105,2|2,3:2|0:0,0:0:0:0:
104,148,10367,1,2,0:0:0:0:
344,240,10700,6,0,B|292:256|292:256|240:236,1,105,0|2,3:0|0:0,0:0:0:0:
104,148,11033,1,2,0:0:0:0:
108,164,11117,1,0,0:0:0:0:
76,240,11200,1,2,0:0:0:0:
80,256,11284,1,0,0:0:0:0:
204,168,11367,6,0,P|168:216|172:272,1,105,2|0,3:2|1:0,0:0:0:0:
292,180,11700,2,0,P|282:129|245:93,1,105,0|0,3:0|1:0,0:0:0:0:
240,236,12034,2,0,P|287:256|336:240,1,105,0|0,3:0|1:0,0:0:0:0:
488,184,12284,2,0,P|441:164|392:180,1,105,0|0,3:0|1:0,0:0:0:0:
440,292,12534,2,0,P|444:268|436:232,1,52.5,0|0,3:0|1:0,0:0:0:0:
360,92,12700,6,0,P|392:89|353:71,1,105,2|0,3:2|1:0,0:0:0:0:
112,92,13034,2,0,P|79:89|118:71,1,105,0|0,3:0|1:0,0:0:0:0:
272,168,13367,2,0,B|236:208|236:208|200:168,1,105,0|0,3:0|1:0,0:0:0:0:
340,212,13617,2,0,L|264:300,1,105,0|0,3:0|1:0,0:0:0:0:
144,308,13867,2,0,L|180:268,1,52.5,0|0,3:0|1:0,0:0:0:0:
44,356,14034,6,0,P|24:308|44:256,1,105,2|0,3:2|1:0,0:0:0:0:
43,28,14367,2,0,P|24:75|40:124,1,105,0|0,3:0|1:0,0:0:0:0:
244,144,14700,2,0,B|176:132|176:132|136:144,1,105,0|0,3:0|1:0,0:0:0:0:
141,241,14950,2,0,B|176:252|176:252|244:240,1,105,0|0,3:0|1:0,0:0:0:0:
316,112,15200,2,0,P|324:140|308:184,1,52.5,0|0,3:0|1:0,0:0:0:0:
384,340,15367,6,0,B|368:292|368:292|384:236,1,105,2|0,3:2|1:0,0:0:0:0:
408,68,15617,2,0,B|422:120|422:120|406:168,1,105,0|0,3:0|1:0,0:0:0:0:
310,215,15867,1,2,0:0:0:0:
271,229,15951,1,0,0:0:0:0:
235,211,16034,1,0,1:0:0:0:
226,172,16117,1,0,1:0:0:0:
248,138,16201,1,0,3:0:0:0:
289,134,16284,1,0,3:0:0:0:
320,162,16367,1,2,3:2:0:0:
272,304,16534,1,2,3:2:0:0:
32,72,16700,6,0,B|60:80|72:104|72:104|80:80|120:64,1,105,2|0,3:2|1:0,0:0:0:0:
328,72,17034,2,0,B|300:80|288:104|288:104|280:80|240:64,1,105,0|0,3:0|1:0,0:0:0:0:
132,152,17367,2,0,P|179:131|231:155,1,105,0|0,3:0|1:0,0:0:0:0:
227,235,17617,2,0,P|180:256|128:232,1,105,0|0,3:0|1:0,0:0:0:0:
296,192,17867,2,0,P|308:228|300:264,1,52.5,0|0,3:0|1:0,0:0:0:0:
400,360,18034,6,0,B|388:332|388:332|372:296|388:256,1,105,2|0,3:2|1:0,0:0:0:0:
400,24,18367,2,0,B|388:52|388:52|372:88|386:124,1,105,0|0,3:0|1:0,0:0:0:0:
276,268,18700,2,0,P|292:216|336:192,1,105,0|0,3:0|1:0,0:0:0:0:
275,117,18950,2,0,P|289:166|333:192,1,105,0|0,3:0|1:0,0:0:0:0:
200,168,19200,2,0,L|200:228,1,52.5,0|0,3:0|1:0,0:0:0:0:
120,344,19367,6,0,B|137:363|137:363|153:279,1,105,2|0,3:2|1:0,0:0:0:0:
84,116,19700,2,0,B|66:96|66:96|51:173,1,105,0|0,3:0|1:0,0:0:0:0:
200,168,20034,2,0,P|196:112|156:64,1,105,0|0,3:0|1:0,0:0:0:0:
312,168,20284,2,0,P|316:112|356:64,1,105,0|0,3:0|1:0,0:0:0:0:
432,152,20534,1,0,3:0:0:0:
428,184,20617,1,0,1:0:0:0:
412,288,20700,6,0,P|352:276|312:312,1,105,2|0,3:2|1:0,0:0:0:0:
408,260,20950,2,0,P|332:259|292:312,1,105,0|0,3:0|1:0,0:0:0:0:
232,328,21200,1,0,3:0:0:0:
189,322,21284,1,0,1:0:0:0:
147,317,21367,1,0,3:0:0:0:
105,312,21450,1,0,1:0:0:0:
64,308,21534,2,0,L|68:252,1,52.5,0|0,3:0|3:0,0:0:0:0:
80,116,21700,2,0,L|76:172,1,52.5,2|0,3:2|0:0,0:0:0:0:
16,304,21867,2,0,L|19:251,1,52.5,2|0,1:2|3:0,0:0:0:0:
168,204,22034,6,0,L|316:212,1,125.999996154785,4|4,3:2|0:0,0:0:0:0:
404,348,22367,2,0,L|408:220,1,125.999996154785,0|0,1:0|3:0,0:0:0:0:
356,164,22617,1,0,3:0:0:0:
432,24,22700,2,0,B|428:112|428:112|384:80,1,125.999996154785,2|0,0:0|3:0,0:0:0:0:
276,28,22950,2,0,B|280:116|280:116|324:84,1,125.999996154785,0|0,0:0|0:0,0:0:0:0:
192,64,23200,2,0,L|196:148,1,62.9999980773926,2|2,0:0|0:0,0:0:0:0:
208,288,23367,6,0,P|192:224|136:192,1,125.999996154785,0|0,3:0|0:0,0:0:0:0:
360,196,23700,2,0,P|309:230|295:290,1,125.999996154785,0|0,1:0|3:0,0:0:0:0:
304,368,23950,1,0,3:0:0:0:
452,272,24034,2,0,L|440:124,1,125.999996154785,2|0,0:0|3:0,0:0:0:0:
349,70,24284,2,0,L|359:195,1,125.999996154785,2|0,0:0|0:0,0:0:0:0:
436,64,24534,2,0,L|432:0,1,62.9999980773926,2|2,0:0|0:0,0:0:0:0:
272,16,24700,6,0,B|180:24|180:24|216:44,1,125.999996154785,0|0,3:0|0:0,0:0:0:0:
12,16,25034,2,0,B|104:24|104:24|68:44,1,125.999996154785,0|0,1:0|3:0,0:0:0:0:
16,96,25284,1,0,3:0:0:0:
96,196,25367,2,0,P|140:190|96:176,1,125.999996154785,2|0,0:0|3:0,0:0:0:0:
152,284,25617,2,0,P|208:240|220:180,1,125.999996154785,2|0,0:0|0:0,0:0:0:0:
68,280,25867,1,2,0:0:0:0:
396,304,26034,6,0,B|368:248|368:248|400:184,1,125.999996154785,0|2,3:0|0:0,0:0:0:0:
356,304,26367,6,0,B|328:248|328:248|360:184,1,125.999996154785,0|2,3:0|0:0,0:0:0:0:
316,304,26700,6,0,B|288:248|288:248|320:184,1,125.999996154785,0|2,3:0|0:0,0:0:0:0:
276,304,27034,6,0,B|248:248|248:248|280:184,1,125.999996154785,0|2,3:0|0:0,0:0:0:0:
360,8,27367,6,0,P|292:28|236:4,1,125.999996154785,0|0,3:0|0:0,0:0:0:0:
364,180,27700,2,0,P|305:159|247:179,1,125.999996154785,0|0,1:0|3:0,0:0:0:0:
308,256,27950,1,0,0:0:0:0:
368,329,28034,2,0,P|310:348|252:328,1,125.999996154785
180,280,28284,1,0,0:0:0:0:
180,280,28367,2,0,P|121:259|63:279,1,125.999996154785,0|2,1:0|0:0,0:0:0:0:
120,344,28617,1,2,0:0:0:0:
240,216,28700,6,0,L|232:44,1,125.999996154785,0|0,3:0|0:0,0:0:0:0:
320,212,28950,2,0,L|312:40,1,125.999996154785,0|0,0:0|0:0,0:0:0:0:
404,208,29200,1,0,3:0:0:0:
401,169,29284,1,0,3:0:0:0:
399,131,29367,2,0,L|391:-3,1,125.999996154785,2|0,0:0|3:0,0:0:0:0:
197,94,29617,2,0,P|257:110|317:82,1,125.999996154785,2|0,0:0|0:0,0:0:0:0:
188,16,29867,2,0,P|148:32|124:64,1,62.9999980773926,2|2,0:0|0:0,0:0:0:0:
84,220,30034,6,0,L|21:230,1,62.9999980773926,0|2,3:0|0:0,0:0:0:0:
160,204,30200,2,0,L|222:193,1,62.9999980773926,2|0,0:0|0:0,0:0:0:0:
84,256,30367,2,0,L|21:266,1,62.9999980773926,0|2,1:0|0:0,0:0:0:0:
160,240,30534,2,0,L|222:229,1,62.9999980773926,0|0,3:0|3:0,0:0:0:0:
84,300,30700,2,0,L|21:310,1,62.9999980773926,2|2,0:0|0:0,0:0:0:0:
160,284,30867,2,0,L|222:273,1,62.9999980773926,0|2,3:0|0:0,0:0:0:0:
88,344,31034,2,0,L|25:354,1,62.9999980773926,0|2,1:0|0:0,0:0:0:0:
164,328,31201,2,0,L|226:317,1,62.9999980773926,2|2,0:0|0:0,0:0:0:0:
334,229,31367,6,0,P|354:169|326:109,1,125.999996154785,0|2,3:0|0:0,0:0:0:0:
222,229,31617,2,0,P|202:169|230:109,1,125.999996154785,2|2,0:0|0:0,0:0:0:0:
420,112,31867,2,0,P|432:152|428:188,1,62.9999980773926,0|0,3:0|3:0,0:0:0:0:
280,48,32034,2,0,P|300:36|340:32,3,62.9999980773926,0|2|0|2,3:0|0:0|3:0|0:0,0:0:0:0:
416,32,32367,1,0,0:0:0:0:
96,32,32534,1,0,0:0:0:0:
200,316,32700,6,0,P|252:336|320:312,1,125.999996154785,4|0,0:0|0:0,0:0:0:0:
316,68,32950,1,0,0:0:0:0:
316,68,33034,2,0,P|258:47|200:68,1,125.999996154785,0|0,3:0|0:0,0:0:0:0:
316,192,33284,1,0,0:0:0:0:
316,192,33367,2,0,L|460:192,1,125.999996154785,0|0,3:0|0:0,0:0:0:0:
442,66,33617,2,0,L|442:192,1,125.999996154785,0|0,3:0|0:0,0:0:0:0:
316,314,33867,2,0,L|388:314,1,62.9999980773926,0|0,3:0|0:0,0:0:0:0:
236,136,34034,6,0,P|216:200|240:256,1,125.999996154785,2|0,3:2|0:0,0:0:0:0:
40,248,34284,1,0,0:0:0:0:
40,248,34367,2,0,P|61:189|40:131,1,125.999996154785,0|0,3:0|0:0,0:0:0:0:
140,20,34617,1,0,0:0:0:0:
140,20,34700,2,0,P|200:0|260:20,1,125.999996154785,0|0,3:0|0:0,0:0:0:0:
320,192,34950,2,0,P|338:132|318:74,1,125.999996154785,0|0,3:0|0:0,0:0:0:0:
173,136,35200,2,0,L|241:136,1,62.9999980773926,0|0,3:0|0:0,0:0:0:0:
424,120,35367,6,0,P|470:137|424:152,1,125.999996154785,2|0,3:2|0:0,0:0:0:0:
227,228,35617,1,0,0:0:0:0:
227,228,35700,2,0,P|181:245|228:260,1,125.999996154785,0|0,3:0|0:0,0:0:0:0:
427,340,35950,1,0,0:0:0:0:
427,340,36034,2,0,P|474:354|428:371,1,125.999996154785,0|0,3:0|0:0,0:0:0:0:
380,276,36284,2,0,P|444:252|516:276,1,125.999996154785,0|0,3:0|0:0,0:0:0:0:
344,352,36534,1,0,3:0:0:0:
204,184,36700,6,0,L|216:88,3,62.9999980773926,2|2|2|0,3:2|0:0|0:0|1:0,0:0:0:0:
132,224,37034,2,0,L|36:212,3,62.9999980773926,0|2|2|0,3:0|0:0|0:0|1:0,0:0:0:0:
192,284,37367,6,0,L|180:380,2,62.9999980773926,0|2|2,3:0|0:0|0:0,0:0:0:0:
264,240,37617,2,0,L|326:247,2,62.9999980773926,0|2|2,3:0|0:0|0:0,0:0:0:0:
372,336,37867,2,0,P|404:316|416:288,1,62.9999980773926,0|2,3:0|0:0,0:0:0:0:
432,152,38034,6,0,B|440:72|440:72|412:108,1,125.999996154785,2|0,3:2|0:0,0:0:0:0:
188,152,38284,1,0,0:0:0:0:
188,152,38367,2,0,B|180:72|180:72|208:108,1,125.999996154785,0|2,3:0|0:0,0:0:0:0:
372,240,38617,1,0,0:0:0:0:
372,240,38700,2,0,B|312:212|312:212|256:236,1,125.999996154785,0|0,3:0|0:0,0:0:0:0:
140,320,38950,2,0,B|192:348|192:348|254:324,1,125.999996154785,0|0,3:0|0:0,0:0:0:0:
140,236,39200,1,0,3:0:0:0:
204,56,39367,6,0,P|144:36|84:56,1,125.999996154785,2|0,3:2|0:0,0:0:0:0:
308,56,39617,1,0,0:0:0:0:
308,56,39700,2,0,P|368:36|428:56,1,125.999996154785,0|2,3:0|0:0,0:0:0:0:
256,252,39950,1,0,0:0:0:0:
256,252,40034,2,0,B|248:216|248:216|264:172|264:172|256:128,1,125.999996154785,0|0,3:0|0:0,0:0:0:0:
340,256,40284,2,0,B|332:220|332:220|348:176|348:176|340:132,1,125.999996154785,0|0,3:0|0:0,0:0:0:0:
432,256,40534,1,0,3:0:0:0:
436,292,40617,1,0,0:0:0:0:
440,328,40700,6,0,P|408:324|377:333,1,62.9999980773926,2|2,3:2|0:0,0:0:0:0:
236,328,40867,2,0,P|268:324|299:333,1,62.9999980773926,2|2,3:2|0:0,0:0:0:0:
436,292,41034,2,0,P|404:287|374:296,1,62.9999980773926,2|2,3:2|0:0,0:0:0:0:
236,292,41200,2,0,P|268:288|299:297,1,62.9999980773926,2|2,3:2|0:0,0:0:0:0:
432,256,41367,2,0,P|400:251|370:260,1,62.9999980773926,2|2,3:2|0:0,0:0:0:0:
232,256,41534,2,0,P|263:251|293:260,1,62.9999980773926,2|2,3:2|0:0,0:0:0:0:
432,220,41700,2,0,P|400:215|370:224,1,62.9999980773926,2|2,3:2|0:0,0:0:0:0:
232,220,41867,2,0,P|263:215|293:224,1,62.9999980773926,2|2,3:2|0:0,0:0:0:0:
368,136,42034,6,0,P|388:77|368:20,1,125.999996154785,0|0,3:0|1:0,0:0:0:0:
264,136,42284,2,0,P|243:77|264:19,1,125.999996154785,0|0,3:0|1:0,0:0:0:0:
448,156,42534,2,0,P|460:124|464:84,1,62.9999980773926,0|0,3:0|1:0,0:0:0:0:
184,152,42700,2,0,P|172:120|168:80,1,62.9999980773926,0|0,3:0|3:0,0:0:0:0:
320,208,42867,2,0,L|320:271,1,62.9999980773926,0|0,1:0|3:0,0:0:0:0:
240,364,43034,5,0,0:0:0:0:
280,320,43117,1,0,0:0:0:0:
320,271,43200,2,0,L|388:271,1,62.9999980773926
208,268,43367,5,4,0:0:0:0:
256,192,43450,12,0,45367,0:0:0:0:
