osu file format v14

[General]
AudioFilename: audio.mp3
AudioLeadIn: 0
PreviewTime: 22034
Countdown: 0
SampleSet: Soft
StackLeniency: 0.4
Mode: 0
LetterboxInBreaks: 0
WidescreenStoryboard: 0

[Editor]
DistanceSpacing: 1
BeatDivisor: 4
GridSize: 4
TimelineZoom: 1.9

[Metadata]
Title:176 - ikazuchi_B
TitleUnicode:176 - ikazuchi_B
Artist:saradisk
ArtistUnicode:saradisk
Creator:Nozhomi
Version:Insane
Source:艦隊これくしょん -艦これ-
Tags:remix kancolle kantai collection 雷 lolicore Pachiru Spotty Krfawy
BeatmapID:1547825
BeatmapSetID:724704

[Difficulty]
HPDrainRate:6
CircleSize:4
OverallDifficulty:8
ApproachRate:9
SliderMultiplier:1.8
SliderTickRate:1

[Events]
//Background and Video events
0,0,"ikazuchi.jpg",0,0
//Break Periods
//Storyboard Layer 0 (Background)
//Storyboard Layer 1 (Fail)
//Storyboard Layer 2 (Pass)
//Storyboard Layer 3 (Foreground)
//Storyboard Sound Samples

[TimingPoints]
701,333.333333333333,4,2,1,70,1,0
22034,-83.3333333333333,4,2,1,75,0,1
32367,-100,4,2,1,70,0,0
32700,-83.3333333333333,4,2,1,75,0,1
43034,-83.3333333333333,4,2,1,70,0,0
43700,-83.3333333333333,4,2,1,65,0,0
43867,-83.3333333333333,4,2,1,60,0,0
44034,-83.3333333333333,4,2,1,55,0,0
44200,-83.3333333333333,4,2,1,50,0,0
44367,-83.3333333333333,4,2,1,45,0,0
44534,-83.3333333333333,4,2,1,40,0,0
44700,-83.3333333333333,4,2,1,35,0,0
44867,-83.3333333333333,4,2,1,30,0,0
45034,-83.3333333333333,4,2,1,25,0,0
45200,-83.3333333333333,4,2,1,20,0,0
45284,-100,4,2,1,5,0,0

[Colours]
Combo1 : 214,145,112
Combo2 : 128,255,255
Combo3 : 216,210,7
Combo4 : 231,99,102
Combo5 : 63,157,226

[HitObjects]
40,100,701,6,0,P|40:152|84:192,1,90,4|0,3:2|1:0,0:0:0:0:
156,232,1034,2,0,L|256:228,1,90,0|0,3:0|1:0,0:0:0:0:
248,140,1367,1,0,3:0:0:0:
248,308,1534,1,0,1:0:0:0:
248,308,1617,2,0,L|203:309,1,45,0|0,3:0|0:0,0:0:0:0:
104,312,1784,1,0,1:0:0:0:
104,312,1867,2,0,L|59:313,1,45,0|0,3:0|1:0,0:0:0:0:
155,232,2034,6,0,P|168:189|158:145,1,90,2|0,3:2|1:0,0:0:0:0:
267,150,2367,2,0,P|255:108|223:77,1,90,0|0,3:0|1:0,0:0:0:0:
116,56,2700,1,0,3:0:0:0:
248,224,2867,1,0,1:0:0:0:
248,224,2950,2,0,P|271:228|293:222,1,45,0|0,3:0|0:0,0:0:0:0:
380,156,3117,1,0,1:0:0:0:
380,156,3200,2,0,P|366:173|359:195,1,45,0|0,3:0|1:0,0:0:0:0:
366,284,3367,6,0,L|359:195,1,90,2|0,3:2|1:0,0:0:0:0:
452,248,3700,2,0,L|459:337,1,90,0|0,3:0|1:0,0:0:0:0:
366,284,4034,1,0,3:0:0:0:
224,344,4200,1,0,1:0:0:0:
224,344,4284,2,0,L|156:339,1,45,0|0,3:0|0:0,0:0:0:0:
188,260,4450,1,0,1:0:0:0:
188,260,4534,2,0,L|120:255,1,45,0|0,3:0|1:0,0:0:0:0:
89,334,4700,6,0,L|178:340,1,90,2|0,3:2|1:0,0:0:0:0:
256,174,5034,5,0,3:0:0:0:
256,130,5200,5,0,3:0:0:0:
256,86,5367,5,0,3:0:0:0:
262,64,5450,1,0,1:0:0:0:
283,56,5534,1,0,3:0:0:0:
303,64,5617,1,0,3:0:0:0:
311,86,5700,1,0,3:0:0:0:
140,80,5867,1,2,3:2:0:0:
372,40,6034,6,0,P|384:88|372:136,1,90,2|0,3:2|1:0,0:0:0:0:
332,228,6367,2,0,P|320:276|332:324,1,90,0|0,3:0|1:0,0:0:0:0:
300,154,6700,2,0,L|176:162,1,90,0|0,3:0|1:0,0:0:0:0:
121,166,6950,2,0,L|210:160,1,90,0|0,3:0|1:0,0:0:0:0:
240,252,7200,2,0,L|195:254,1,45,0|0,3:0|1:0,0:0:0:0:
121,166,7367,6,0,B|113:121|113:121|121:78,1,90,2|0,3:2|1:0,0:0:0:0:
36,144,7700,2,0,B|44:189|44:189|36:232,1,90,0|0,3:0|1:0,0:0:0:0:
64,336,8034,2,0,P|88:294|137:263,1,90,0|0,3:0|1:0,0:0:0:0:
195,254,8284,2,0,P|239:255|280:275,1,90,0|0,3:0|1:0,0:0:0:0:
336,372,8534,2,0,L|332:320,1,45,0|0,3:0|1:0,0:0:0:0:
340,235,8700,6,0,P|378:213|423:208,1,90,2|0,3:2|1:0,0:0:0:0:
432,100,9034,2,0,P|475:111|511:143,1,90,0|0,3:0|1:0,0:0:0:0:
356,136,9367,2,0,L|360:36,1,90,0|0,3:0|1:0,0:0:0:0:
288,24,9617,2,0,L|284:113,1,90,0|0,3:0|1:0,0:0:0:0:
280,232,9867,2,0,L|281:187,1,45,0|0,3:0|1:0,0:0:0:0:
196,100,10034,5,2,3:2:0:0:
108,164,10200,1,2,0:0:0:0:
204,272,10367,2,0,L|205:227,1,45,2|0,0:0|0:0,0:0:0:0:
132,24,10700,5,0,3:0:0:0:
44,88,10866,1,2,0:0:0:0:
128,248,11034,2,0,L|126:292,1,45,2|0,0:0|0:0,0:0:0:0:
204,272,11200,2,0,L|205:227,1,45,2|0,0:0|0:0,0:0:0:0:
184,352,11367,6,0,L|284:344,1,90,2|0,3:2|1:0,0:0:0:0:
380,280,11700,2,0,L|280:272,1,90,0|0,3:0|1:0,0:0:0:0:
204,180,12034,1,0,3:0:0:0:
280,76,12200,1,0,1:0:0:0:
280,76,12284,2,0,P|292:46|288:2,1,45,0|0,3:0|0:0,0:0:0:0:
292,150,12450,1,0,1:0:0:0:
292,150,12534,2,0,P|321:137|349:103,1,45,0|0,3:0|1:0,0:0:0:0:
268,224,12700,6,0,L|368:216,1,90,2|0,3:2|1:0,0:0:0:0:
488,164,13034,2,0,L|388:156,1,90,0|0,3:0|1:0,0:0:0:0:
280,76,13367,1,0,3:0:0:0:
196,176,13534,1,0,1:0:0:0:
196,176,13617,2,0,B|122:174,1,45,0|0,3:0|0:0,0:0:0:0:
208,252,13784,1,0,1:0:0:0:
208,252,13867,2,0,B|134:250,1,45,0|0,3:0|1:0,0:0:0:0:
61,172,14034,6,0,L|150:174,1,90,2|0,3:2|1:0,0:0:0:0:
96,288,14367,2,0,L|6:285,1,90,0|0,3:0|1:0,0:0:0:0:
61,172,14700,1,0,3:0:0:0:
167,254,14867,1,0,1:0:0:0:
167,254,14950,2,0,P|173:276|174:299,1,45,0|0,3:0|0:0,0:0:0:0:
252,328,15117,1,0,1:0:0:0:
252,328,15200,2,0,P|240:347|225:363,1,45,0|0,3:0|1:0,0:0:0:0:
128,360,15367,5,2,3:2:0:0:
252,244,15534,2,0,L|300:248,2,45,0|0|0,1:0|3:0|3:0,0:0:0:0:
288,172,15784,2,0,L|336:176,2,45,0|2|0,1:0|0:0|0:0,0:0:0:0:
228,104,16034,1,0,1:0:0:0:
228,104,16117,1,0,1:0:0:0:
228,104,16200,2,0,P|227:81|233:60,1,45,0|0,3:0|3:0,0:0:0:0:
312,92,16367,2,0,P|327:75|346:65,1,45,2|0,3:2|0:0,0:0:0:0:
472,144,16534,1,2,3:2:0:0:
472,144,16617,1,0,0:0:0:0:
472,144,16700,6,0,L|340:139,1,90,2|0,3:2|1:0,0:0:0:0:
318,250,17034,2,0,L|407:253,1,90,0|0,3:0|1:0,0:0:0:0:
308,332,17367,2,0,P|263:313|239:263,1,90,0|0,3:0|1:0,0:0:0:0:
216,204,17617,2,0,P|214:155|249:112,1,90,0|0,3:0|1:0,0:0:0:0:
315,103,17867,2,0,P|317:126|314:148,1,45,0|0,3:0|1:0,0:0:0:0:
216,204,18034,6,0,P|172:192|127:197,1,90,2|0,3:2|1:0,0:0:0:0:
24,316,18367,2,0,P|56:283|74:242,1,90,0|0,3:0|1:0,0:0:0:0:
23,94,18700,2,0,P|34:138|61:174,1,90,0|0,3:0|1:0,0:0:0:0:
137,173,18950,2,0,P|163:137|175:94,1,90,0|0,3:0|1:0,0:0:0:0:
152,16,19200,2,0,L|212:20,1,45,0|0,3:0|1:0,0:0:0:0:
252,76,19367,6,0,L|348:72,1,90,2|0,3:2|1:0,0:0:0:0:
472,144,19700,2,0,L|382:140,1,90,0|0,3:0|1:0,0:0:0:0:
300,236,20034,2,0,P|308:292|296:332,1,90,0|0,3:0|1:0,0:0:0:0:
212,323,20284,2,0,P|203:279|212:236,1,90,0|0,3:0|1:0,0:0:0:0:
256,160,20534,2,0,L|256:108,1,45,0|0,3:0|1:0,0:0:0:0:
172,40,20700,5,2,3:2:0:0:
68,108,20867,1,0,1:0:0:0:
68,108,20950,1,0,3:0:0:0:
104,224,21117,5,0,1:0:0:0:
114,248,21200,1,0,3:0:0:0:
116,275,21284,1,0,1:0:0:0:
108,300,21367,1,0,3:0:0:0:
92,321,21450,1,0,1:0:0:0:
65,329,21534,1,0,3:0:0:0:
38,326,21617,1,0,3:0:0:0:
16,309,21700,2,0,L|12:262,3,45,2|0|2|0,3:2|0:0|1:2|3:0,0:0:0:0:
104,224,22034,6,4,P|156:240|216:228,1,107.999996704102,4|4,3:2|0:0,0:0:0:0:
344,180,22367,1,0,1:0:0:0:
248,80,22534,1,0,3:0:0:0:
248,80,22617,1,0,3:0:0:0:
248,80,22700,1,2,0:0:0:0:
208,232,22867,2,0,L|213:308,1,53.9999983520508,0|0,3:0|0:0,0:0:0:0:
288,300,23034,2,0,L|281:192,1,107.999996704102,0|2,1:0|0:0,0:0:0:0:
328,124,23284,1,2,0:0:0:0:
328,124,23367,6,0,P|360:172|348:244,1,107.999996704102,0|0,3:0|0:0,0:0:0:0:
356,232,23617,1,2,0:0:0:0:
352,243,23700,1,0,1:0:0:0:
248,352,23867,1,0,3:0:0:0:
248,352,23950,1,0,3:0:0:0:
248,352,24034,2,0,B|364:348,1,107.999996704102,0|0,3:0|0:0,0:0:0:0:
288,276,24284,1,2,0:0:0:0:
288,276,24367,2,0,B|234:278,1,53.9999983520508,0|0,1:0|0:0,0:0:0:0:
168,324,24534,1,2,0:0:0:0:
168,324,24617,1,2,0:0:0:0:
168,323,24700,6,0,P|108:328|56:312,1,107.999996704102,0|0,3:0|0:0,0:0:0:0:
48,304,24950,1,2,0:0:0:0:
36,288,25034,1,0,1:0:0:0:
216,180,25200,1,0,3:0:0:0:
216,180,25284,1,0,3:0:0:0:
216,180,25367,2,0,P|212:206|248:285,1,107.999996704102,0|0,3:0|0:0,0:0:0:0:
324,312,25617,1,2,0:0:0:0:
324,312,25700,2,0,L|320:184,1,107.999996704102,0|2,1:0|0:0,0:0:0:0:
317,96,25950,1,2,0:0:0:0:
317,96,26034,6,0,L|320:203,1,107.999996704102,0|2,3:0|0:0,0:0:0:0:
392,128,26284,5,2,0:0:0:0:
392,128,26367,2,0,L|395:235,1,107.999996704102,0|2,1:0|3:2,0:0:0:0:
468,161,26617,5,2,3:2:0:0:
468,161,26700,2,0,L|471:268,1,107.999996704102,0|0,3:0|3:0,0:0:0:0:
472,288,26950,5,2,0:0:0:0:
473,307,27034,1,0,1:0:0:0:
328,368,27200,1,2,0:0:0:0:
328,368,27284,1,2,0:0:0:0:
328,368,27367,6,0,P|310:315|328:263,1,107.999996704102,0|0,3:0|0:0,0:0:0:0:
468,161,27700,1,0,1:0:0:0:
284,200,27867,2,0,L|188:192,1,53.9999983520508,0|0,3:0|3:0,0:0:0:0:
184,140,28034,1,2,0:0:0:0:
108,256,28200,2,0,P|102:280|106:308,1,53.9999983520508,0|0,3:0|0:0,0:0:0:0:
20,332,28367,2,0,P|10:274|44:193,1,107.999996704102,0|2,1:0|0:0,0:0:0:0:
48,136,28617,1,2,0:0:0:0:
48,136,28700,6,0,P|59:83|50:30,1,107.999996704102,0|0,3:0|0:0,0:0:0:0:
164,112,29034,1,0,1:0:0:0:
287,52,29200,2,0,P|313:44|340:46,1,53.9999983520508,0|0,3:0|3:0,0:0:0:0:
408,76,29367,1,2,0:0:0:0:
480,200,29534,2,0,L|480:272,1,53.9999983520508,0|0,3:0|0:0,0:0:0:0:
436,324,29700,2,0,P|385:340|334:325,1,107.999996704102,0|2,1:0|0:0,0:0:0:0:
272,268,29950,1,2,0:0:0:0:
272,268,30034,6,0,L|269:214,3,53.9999983520508,0|2|2|0,3:0|0:0|0:0|1:0,0:0:0:0:
216,152,30367,2,0,L|213:98,3,53.9999983520508,0|2|0|0,1:0|0:0|3:0|3:0,0:0:0:0:
156,40,30700,5,2,0:0:0:0:
126,25,30784,1,2,0:0:0:0:
94,32,30867,1,0,3:0:0:0:
71,55,30950,1,2,0:0:0:0:
63,86,31034,1,0,1:0:0:0:
71,117,31117,1,2,0:0:0:0:
86,145,31200,1,2,0:0:0:0:
96,176,31284,1,2,0:0:0:0:
110,204,31367,6,0,P|109:236|96:271,1,53.9999983520508,0|2,3:0|0:0,0:0:0:0:
16,338,31534,1,2,0:0:0:0:
16,338,31617,1,2,0:0:0:0:
16,338,31700,2,0,P|44:322|81:316,1,53.9999983520508,0|2,1:0|0:0,0:0:0:0:
179,351,31867,1,0,3:0:0:0:
179,351,31950,1,0,3:0:0:0:
179,351,32033,2,0,P|151:334|127:305,1,53.9999983520508,0|2,3:0|0:0,0:0:0:0:
110,204,32200,2,0,P|127:176|156:152,1,53.9999983520508,0|2,3:0|0:0,0:0:0:0:
247,101,32367,6,2,L|366:106,1,90,0|0,0:0|0:0,0:0:0:0:
452,268,32700,6,0,P|404:192|408:136,1,107.999996704102,4|0,0:0|0:0,0:0:0:0:
310,204,32950,1,0,1:0:0:0:
310,204,33034,2,0,P|310:147|339:104,1,107.999996704102,0|0,3:0|0:0,0:0:0:0:
404,17,33284,1,0,1:0:0:0:
404,16,33367,2,0,P|351:27|297:24,1,107.999996704102,0|0,3:0|0:0,0:0:0:0:
220,16,33617,1,0,3:0:0:0:
220,16,33700,2,0,L|132:12,1,53.9999983520508,2|0,0:0|0:0,0:0:0:0:
40,40,33867,2,0,L|93:42,1,53.9999983520508,0|0,3:0|0:0,0:0:0:0:
164,120,34034,6,0,P|179:165|156:240,1,107.999996704102,2|0,3:2|0:0,0:0:0:0:
248,272,34284,1,0,1:0:0:0:
248,272,34367,2,0,P|213:304|135:315,1,107.999996704102,0|0,3:0|0:0,0:0:0:0:
72,304,34617,1,0,1:0:0:0:
72,304,34700,2,0,P|40:269|29:191,1,107.999996704102,0|0,3:0|0:0,0:0:0:0:
60,128,34950,1,0,3:0:0:0:
60,128,35034,2,0,L|56:48,1,53.9999983520508,2|0,0:0|0:0,0:0:0:0:
128,156,35200,2,0,L|130:209,1,53.9999983520508,0|0,3:0|0:0,0:0:0:0:
180,96,35367,6,0,P|220:80|300:100,1,107.999996704102,2|0,3:2|0:0,0:0:0:0:
348,140,35617,1,0,1:0:0:0:
348,140,35700,2,0,P|388:156|468:136,1,107.999996704102,0|0,3:0|0:0,0:0:0:0:
509,96,35950,1,0,1:0:0:0:
509,96,36034,2,0,L|506:222,1,107.999996704102,0|0,3:0|0:0,0:0:0:0:
444,296,36284,1,0,3:0:0:0:
444,296,36367,2,0,L|442:242,1,53.9999983520508,2|0,0:0|0:0,0:0:0:0:
364,272,36534,2,0,L|324:235,1,53.9999983520508,0|0,3:0|0:0,0:0:0:0:
296,316,36700,5,2,3:2:0:0:
296,316,36784,1,2,0:0:0:0:
296,316,36867,2,0,L|242:317,1,53.9999983520508,2|0,0:0|1:0,0:0:0:0:
112,320,37034,5,0,3:0:0:0:
112,320,37118,1,2,0:0:0:0:
112,320,37201,2,0,L|166:319,1,53.9999983520508,2|0,0:0|1:0,0:0:0:0:
232,240,37367,6,0,P|246:209|244:184,2,53.9999983520508,0|2|2,3:0|0:0|0:0,0:0:0:0:
164,192,37617,2,0,P|153:160|132:143,2,53.9999983520508,0|2|2,3:0|0:0|0:0,0:0:0:0:
84,204,37867,1,0,3:0:0:0:
84,204,37950,1,2,0:0:0:0:
84,204,38034,6,0,B|80:84,1,107.999996704102,2|0,3:2|0:0,0:0:0:0:
68,16,38284,1,0,1:0:0:0:
68,16,38367,2,0,L|132:24,1,53.9999983520508,0|0,3:0|0:0,0:0:0:0:
204,64,38534,2,0,L|257:57,1,53.9999983520508,2|0,0:0|1:0,0:0:0:0:
343,29,38700,2,0,P|383:64|389:116,1,107.999996704102,0|0,3:0|0:0,0:0:0:0:
464,140,38950,1,0,3:0:0:0:
464,140,39034,2,0,P|450:163|409:188,1,53.9999983520508,2|0,0:0|0:0,0:0:0:0:
464,248,39200,2,0,P|438:255|390:244,1,53.9999983520508,0|0,3:0|0:0,0:0:0:0:
324,200,39367,6,0,B|336:256|336:256|324:305,1,107.999996704102,2|0,3:2|0:0,0:0:0:0:
256,352,39617,1,0,1:0:0:0:
257,352,39700,2,0,L|189:348,1,53.9999983520508,0|0,3:0|0:0,0:0:0:0:
124,276,39867,2,0,L|192:272,1,53.9999983520508,2|0,0:0|1:0,0:0:0:0:
196,180,40034,2,0,P|144:167|94:186,1,107.999996704102,0|0,3:0|0:0,0:0:0:0:
24,240,40284,1,0,3:0:0:0:
24,240,40367,2,0,L|28:316,1,53.9999983520508,2|0,0:0|0:0,0:0:0:0:
126,329,40534,2,0,L|124:276,1,53.9999983520508,0|0,3:0|0:0,0:0:0:0:
27,294,40700,6,0,L|30:347,3,53.9999983520508,2|2|2|0,3:2|0:0|0:0|1:0,0:0:0:0:
124,276,41034,2,0,L|120:204,3,53.9999983520508,0|0|2|0,3:0|0:0|0:0|1:0,0:0:0:0:
180,120,41366,5,0,3:0:0:0:
209,87,41450,1,2,0:0:0:0:
251,79,41533,1,2,0:0:0:0:
290,96,41616,1,0,3:0:0:0:
313,132,41700,1,2,0:0:0:0:
309,174,41783,1,2,0:0:0:0:
296,215,41866,1,0,3:0:0:0:
302,258,41950,1,2,0:0:0:0:
332,303,42034,6,0,L|410:302,1,53.9999983520508,0|0,3:0|0:0,0:0:0:0:
253,342,42200,1,0,1:0:0:0:
253,342,42284,2,0,L|175:341,1,53.9999983520508,0|0,3:0|0:0,0:0:0:0:
102,281,42450,5,0,1:0:0:0:
108,272,42534,1,0,3:0:0:0:
136,256,42617,1,0,1:0:0:0:
144,248,42700,1,0,3:0:0:0:
152,240,42784,1,0,3:0:0:0:
182,228,42867,1,0,1:0:0:0:
190,220,42950,1,0,3:0:0:0:
216,200,43034,6,0,P|221:173|217:147,1,53.9999983520508,2|0,0:0|0:0,0:0:0:0:
117,68,43200,2,0,P|137:85|162:95,1,53.9999983520508,2|0,0:0|0:0,0:0:0:0:
277,36,43367,5,4,0:0:0:0:
256,192,43450,12,0,45367,0:0:0:0:
