osu file format v14

[General]
AudioFilename: audio.mp3
AudioLeadIn: 0
PreviewTime: 22034
Countdown: 0
SampleSet: Soft
StackLeniency: 0.7
Mode: 0
LetterboxInBreaks: 0
WidescreenStoryboard: 0

[Editor]
DistanceSpacing: 1.4
BeatDivisor: 4
GridSize: 4
TimelineZoom: 1.9

[Metadata]
Title:176 - ikazuchi_B
TitleUnicode:176 - ikazuchi_B
Artist:saradisk
ArtistUnicode:saradisk
Creator:Nozhomi
Version:Advanced
Source:艦隊これくしょん -艦これ-
Tags:remix kancolle kantai collection 雷 lolicore Pachiru Spotty Krfawy
BeatmapID:1621988
BeatmapSetID:724704

[Difficulty]
HPDrainRate:4
CircleSize:3.6
OverallDifficulty:5
ApproachRate:6.6
SliderMultiplier:1.3
SliderTickRate:1

[Events]
//Background and Video events
0,0,"ikazuchi.jpg",0,0
//Break Periods
//Storyboard Layer 0 (Background)
//Storyboard Layer 1 (Fail)
//Storyboard Layer 2 (Pass)
//Storyboard Layer 3 (Foreground)
//Storyboard Sound Samples

[TimingPoints]
701,333.333333333333,4,2,1,70,1,0
22034,-100,4,2,1,70,0,1
32367,-100,4,2,1,70,0,0
32700,-100,4,2,1,70,0,1
43034,-100,4,2,1,70,0,0
43700,-100,4,2,1,65,0,0
43867,-100,4,2,1,60,0,0
44034,-100,4,2,1,55,0,0
44200,-100,4,2,1,50,0,0
44367,-100,4,2,1,45,0,0
44534,-100,4,2,1,40,0,0
44700,-100,4,2,1,35,0,0
44867,-100,4,2,1,30,0,0
45034,-100,4,2,1,25,0,0
45200,-100,4,2,1,20,0,0
45284,-100,4,2,1,5,0,0

[Colours]
Combo1 : 214,145,112
Combo2 : 128,255,255
Combo3 : 216,210,7
Combo4 : 231,99,102
Combo5 : 63,157,226

[HitObjects]
440,56,701,6,0,L|437:120,1,65,4|0,3:2|1:0,0:0:0:0:
376,180,1034,2,0,L|373:244,1,65,0|0,3:0|1:0,0:0:0:0:
340,324,1367,2,0,P|380:324|448:356,2,97.5,0|0|0,3:0|3:0|3:0,0:0:0:0:
260,352,2034,6,0,P|220:364|172:352,1,65,2|0,3:2|1:0,0:0:0:0:
124,320,2367,2,0,P|99:286|93:237,1,65,0|0,3:0|1:0,0:0:0:0:
80,180,2700,2,0,L|84:76,2,97.5,0|0|0,3:0|3:0|3:0,0:0:0:0:
164,168,3367,6,0,B|167:98,1,65,2|0,3:2|1:0,0:0:0:0:
244,68,3700,2,0,B|246:132,1,65,0|0,3:0|1:0,0:0:0:0:
292,204,4034,2,0,B|340:212|340:212|388:204,2,97.5,0|0|0,3:0|3:0|3:0,0:0:0:0:
246,132,4700,5,2,3:2:0:0:
192,196,4867,2,0,P|204:251|265:300,1,130,0|0,1:0|3:0,0:0:0:0:
340,320,5367,2,0,L|404:316,1,65,0|0,3:0|3:0,0:0:0:0:
472,268,5700,1,0,3:0:0:0:
472,268,5867,1,2,3:2:0:0:
424,196,6034,6,0,P|416:160|432:112,1,65,2|0,3:2|1:0,0:0:0:0:
400,52,6367,2,0,P|372:76|323:87,1,65,0|0,3:0|1:0,0:0:0:0:
264,96,6700,2,0,B|152:92,2,97.5,0|0|0,3:0|3:0|3:0,0:0:0:0:
316,164,7367,6,0,P|315:196|304:227,1,65,2|0,3:2|1:0,0:0:0:0:
252,292,7700,2,0,P|226:312|196:323,1,65,0|0,3:0|1:0,0:0:0:0:
112,332,8034,2,0,L|-4:324,2,97.5,0|0|0,3:0|3:0|3:0,0:0:0:0:
147,254,8700,6,0,L|82:249,1,65,2|0,3:2|1:0,0:0:0:0:
19,191,9034,2,0,P|20:159|34:130,1,65,0|0,3:0|1:0,0:0:0:0:
95,71,9367,2,0,P|49:57|9:29,2,97.5,0|0|0,3:0|3:0|3:0,0:0:0:0:
180,84,10034,6,0,B|244:80,1,65,2|2,3:2|0:0,0:0:0:0:
328,72,10367,1,2,0:0:0:0:
332,300,10700,2,0,B|268:304,1,65,0|2,3:0|0:0,0:0:0:0:
184,308,11034,2,0,B|156:356,2,32.5,2|0|2,0:0|0:0|0:0,0:0:0:0:
222,232,11367,6,0,P|219:199|232:164,1,65,2|0,3:2|1:0,0:0:0:0:
280,104,11700,2,0,P|306:85|343:78,1,65,0|0,3:0|1:0,0:0:0:0:
416,116,12034,2,0,B|424:232,2,97.5,0|0|0,3:0|3:0|3:0,0:0:0:0:
500,96,12700,6,0,B|505:164,1,65,2|0,3:2|1:0,0:0:0:0:
500,244,13034,2,0,B|505:312,1,65,0|0,3:0|1:0,0:0:0:0:
420,300,13367,2,0,P|366:279|306:301,2,97.5,0|0|0,3:0|3:0|3:0,0:0:0:0:
364,364,14034,6,0,B|296:372,1,65,2|0,3:2|1:0,0:0:0:0:
244,308,14367,2,0,B|179:300,1,65,0|0,3:0|1:0,0:0:0:0:
108,348,14700,2,0,L|-7:361,2,97.5,0|0|0,3:0|3:0|3:0,0:0:0:0:
180,300,15367,5,2,3:2:0:0:
124,236,15534,2,0,P|112:200|116:168,2,65,0|0|2,1:0|3:0|0:0,0:0:0:0:
197,192,16034,2,0,P|210:163|234:141,2,65,0|0|2,1:0|3:0|3:2,0:0:0:0:
279,215,16534,1,2,3:2:0:0:
324,144,16700,6,0,P|316:107|284:64,1,65,2|0,3:2|1:0,0:0:0:0:
228,40,17034,2,0,P|193:25|139:26,1,65,0|0,3:0|1:0,0:0:0:0:
100,72,17367,2,0,L|0:64,2,97.5,0|0|0,3:0|3:0|3:0,0:0:0:0:
76,152,18034,6,0,B|-14:145,1,65,2|0,3:2|1:0,0:0:0:0:
4,232,18367,2,0,B|68:237,1,65,0|0,3:0|1:0,0:0:0:0:
148,204,18700,2,0,P|184:180|240:168,2,97.5,0|0|0,3:0|3:0|3:0,0:0:0:0:
136,288,19367,6,0,B|148:360,1,65,2|0,3:2|1:0,0:0:0:0:
228,380,19700,2,0,B|238:315,1,65,0|0,3:0|1:0,0:0:0:0:
312,272,20034,2,0,L|328:368,2,97.5,0|0|0,3:0|3:0|3:0,0:0:0:0:
296,188,20700,6,0,P|335:239|394:263,1,130,2|0,3:2|3:0,0:0:0:0:
480,248,21200,1,0,3:0:0:0:
416,192,21367,2,0,P|384:180|356:136,2,65,0|0|2,3:0|3:0|3:2,0:0:0:0:
496,164,21867,1,2,1:2:0:0:
424,80,22034,6,4,L|276:88,1,130,4|0,3:2|1:0,0:0:0:0:
204,96,22534,1,0,3:0:0:0:
204,96,22700,2,0,P|172:60|112:36,2,97.5,2|0|2,0:0|0:0|0:0,0:0:0:0:
212,188,23367,2,4,L|208:284,1,65,0|0,3:0|0:0,0:0:0:0:
128,216,23700,2,4,L|130:151,1,65,0|0,1:0|3:0,0:0:0:0:
204,96,24034,2,0,P|252:93|294:69,2,97.5,2|0|2,0:0|0:0|0:0,0:0:0:0:
128,38,24700,6,4,P|80:38|40:118,1,130,0|0,3:0|1:0,0:0:0:0:
64,188,25200,1,0,3:0:0:0:
64,188,25367,2,0,B|76:232|76:232|64:288,2,97.5,2|0|2,0:0|0:0|0:0,0:0:0:0:
151,215,26034,6,4,P|180:230|212:235,1,65,0|2,3:0|0:0,0:0:0:0:
220,328,26367,2,4,P|256:317|293:281,1,65,0|2,1:0|3:2,0:0:0:0:
352,244,26700,2,4,P|378:225|409:216,1,65,0|0,3:0|3:0,0:0:0:0:
416,310,27033,2,4,P|448:314|476:329,1,65,0|2,1:0|0:0,0:0:0:0:
352,374,27367,6,0,L|352:244,1,130,0|0,3:0|1:0,0:0:0:0:
356,152,27867,1,0,3:0:0:0:
356,152,28033,2,0,B|400:128|400:128|426:75,2,97.5,2|0|2,0:0|0:0|0:0,0:0:0:0:
264,136,28700,2,0,P|200:112|120:128,1,130,0|0,3:0|1:0,0:0:0:0:
76,184,29200,1,0,3:0:0:0:
76,184,29366,2,0,L|79:281,2,97.5,2|0|2,0:0|0:0|0:0,0:0:0:0:
164,208,30034,6,0,L|170:347,1,130,0|0,3:0|1:0,0:0:0:0:
84,372,30534,1,0,3:0:0:0:
79,281,30700,2,4,L|76:216,1,65,2|0,0:0|3:0,0:0:0:0:
16,144,31034,2,4,L|13:79,1,65,0|2,1:0|0:0,0:0:0:0:
100,108,31367,2,0,P|148:112|216:84,2,97.5,0|2|0,3:0|0:0|3:0,0:0:0:0:
112,16,32034,2,0,P|142:7|174:10,1,65,0|0,3:0|3:0,0:0:0:0:
278,33,32367,5,2,0:1:0:0:
194,97,32534,1,2,0:1:0:0:
304,136,32700,5,4,0:0:0:0:
436,260,33034,2,4,P|444:304|424:348,1,65,0|0,3:0|0:0,0:0:0:0:
360,368,33367,2,0,L|244:372,2,97.5,0|0|0,3:0|3:0|3:0,0:0:0:0:
439,323,34034,1,2,3:2:0:0:
280,236,34367,2,4,P|252:204|248:160,1,65,0|0,3:0|0:0,0:0:0:0:
276,96,34700,2,0,P|324:64|344:16,2,97.5,0|0|0,3:0|3:0|3:0,0:0:0:0:
172,109,35367,5,2,3:2:0:0:
4,40,35700,2,4,L|8:104,1,65,0|0,3:0|0:0,0:0:0:0:
44,188,36034,2,0,B|38:290,2,97.5,0|0|0,3:0|3:0|3:0,0:0:0:0:
120,140,36700,6,4,P|152:148|180:172,1,65,2|2,3:2|0:0,0:0:0:0:
204,264,37034,2,4,P|200:300|220:352,1,65,0|2,3:0|0:0,0:0:0:0:
305,327,37367,2,4,P|311:295|307:263,1,65,0|2,3:0|0:0,0:0:0:0:
335,167,37700,2,4,P|360:147|392:140,1,65,2|0,0:0|3:0,0:0:0:0:
496,152,38034,5,2,3:2:0:0:
448,228,38200,1,0,0:0:0:0:
508,296,38367,2,4,P|516:327|509:358,1,65,0|2,3:0|0:0,0:0:0:0:
424,328,38701,2,0,P|380:297|328:296,2,97.5,0|0|0,3:0|3:0|3:0,0:0:0:0:
352,384,39367,1,2,3:2:0:0:
267,351,39534,1,0,0:0:0:0:
338,294,39700,2,0,L|338:229,1,65,0|2,3:0|0:0,0:0:0:0:
340,136,40034,2,0,P|384:124|432:84,2,97.5,0|0|0,3:0|3:0|3:0,0:0:0:0:
256,104,40700,6,4,P|219:88|176:92,1,65,2|2,3:2|0:0,0:0:0:0:
203,180,41034,2,4,P|165:194|137:228,1,65,0|2,3:0|0:0,0:0:0:0:
217,271,41367,2,4,P|201:308|205:351,1,65,0|2,3:0|0:0,0:0:0:0:
292,324,41700,2,4,P|306:361|340:389,1,65,2|0,0:0|3:0,0:0:0:0:
380,308,42034,6,0,B|376:260,2,32.5,0|0|0,3:0|0:0|1:0,0:0:0:0:
440,212,42367,2,0,B|444:164,2,32.5,0|0|0,0:0|1:0|3:0,0:0:0:0:
360,132,42700,2,0,B|356:84,2,32.5,0|0|0,3:0|3:0|1:0,0:0:0:0:
432,44,43034,1,2,0:0:0:0:
228,204,43367,5,4,0:0:0:0:
256,192,43450,12,0,45367,0:0:0:0:
