osu file format v14

[General]
AudioFilename: audio.mp3
AudioLeadIn: 0
PreviewTime: 22499
Countdown: 1
SampleSet: Normal
StackLeniency: 0.7
Mode: 1
LetterboxInBreaks: 0
WidescreenStoryboard: 0

[Editor]
Bookmarks: 16999
DistanceSpacing: 0.8
BeatDivisor: 4
GridSize: 4
TimelineZoom: 1

[Metadata]
Title:176 - ikazuchi_B
TitleUnicode:176 - ikazuchi_B
Artist:saradisk
ArtistUnicode:saradisk
Creator:Idealism
Version:Inner Oni
Source:艦隊これくしょん -艦これ-
Tags:kancolle kantai collection remix
BeatmapID:1408303
BeatmapSetID:665438

[Difficulty]
HPDrainRate:5
CircleSize:2
OverallDifficulty:6
ApproachRate:0
SliderMultiplier:1.4
SliderTickRate:1

[Events]
//Background and Video events
0,0,"!etu.png",0,0
//Break Periods
//Storyboard Layer 0 (Background)
//Storyboard Layer 1 (Fail)
//Storyboard Layer 2 (Pass)
//Storyboard Layer 3 (Foreground)
//Storyboard Sound Samples

[TimingPoints]
666,333.333333333333,4,1,0,100,1,0
32665,-71.4285714285714,4,1,0,100,0,1
43332,-71.4285714285714,4,1,0,100,0,0

[HitObjects]
256,196,666,5,8,0:0:0:0:
256,196,749,1,0,0:0:0:0:
256,196,832,1,0,0:0:0:0:
256,196,999,1,8,0:0:0:0:
256,196,1082,1,0,0:0:0:0:
256,196,1165,1,0,0:0:0:0:
256,196,1332,1,8,0:0:0:0:
256,196,1415,1,0,0:0:0:0:
256,196,1582,1,8,0:0:0:0:
256,196,1665,1,0,0:0:0:0:
256,196,1832,1,8,0:0:0:0:
256,196,1915,1,8,0:0:0:0:
256,196,1999,1,8,0:0:0:0:
256,196,2082,1,0,0:0:0:0:
256,196,2165,1,0,0:0:0:0:
256,196,2332,1,8,0:0:0:0:
256,196,2415,1,0,0:0:0:0:
256,196,2499,1,0,0:0:0:0:
256,196,2665,1,8,0:0:0:0:
256,196,2749,1,0,0:0:0:0:
256,196,2915,1,8,0:0:0:0:
256,196,2999,1,0,0:0:0:0:
256,196,3165,1,8,0:0:0:0:
256,196,3249,1,8,0:0:0:0:
256,196,3332,1,8,0:0:0:0:
256,196,3415,1,0,0:0:0:0:
256,196,3499,1,0,0:0:0:0:
256,196,3665,1,8,0:0:0:0:
256,196,3749,1,0,0:0:0:0:
256,196,3832,1,0,0:0:0:0:
256,196,3999,1,8,0:0:0:0:
256,196,4082,1,0,0:0:0:0:
256,196,4249,1,8,0:0:0:0:
256,196,4332,1,0,0:0:0:0:
256,196,4499,1,8,0:0:0:0:
256,196,4582,1,8,0:0:0:0:
256,196,4665,1,8,0:0:0:0:
256,196,4832,1,8,0:0:0:0:
256,196,4999,1,0,0:0:0:0:
256,196,5165,1,0,0:0:0:0:
256,196,5332,1,0,0:0:0:0:
256,196,5415,1,8,0:0:0:0:
256,196,5499,1,0,0:0:0:0:
256,196,5666,1,0,0:0:0:0:
256,196,5832,1,0,0:0:0:0:
256,196,5999,1,0,0:0:0:0:
256,196,6082,1,0,0:0:0:0:
256,196,6165,1,8,0:0:0:0:
256,196,6332,1,0,0:0:0:0:
256,196,6415,1,0,0:0:0:0:
256,196,6499,1,8,0:0:0:0:
256,196,6665,1,0,0:0:0:0:
256,196,6749,1,0,0:0:0:0:
256,196,6832,1,8,0:0:0:0:
256,196,6915,1,0,0:0:0:0:
256,196,7082,1,0,0:0:0:0:
256,196,7165,1,8,0:0:0:0:
256,196,7249,1,8,0:0:0:0:
256,196,7332,1,0,0:0:0:0:
256,196,7415,1,0,0:0:0:0:
256,196,7499,1,8,0:0:0:0:
256,196,7665,1,0,0:0:0:0:
256,196,7749,1,0,0:0:0:0:
256,196,7832,1,8,0:0:0:0:
256,196,7999,1,0,0:0:0:0:
256,196,8082,1,0,0:0:0:0:
256,196,8165,1,8,0:0:0:0:
256,196,8249,1,0,0:0:0:0:
256,196,8415,1,0,0:0:0:0:
256,196,8499,1,8,0:0:0:0:
256,196,8582,1,8,0:0:0:0:
256,196,8665,1,0,0:0:0:0:
256,196,8749,1,0,0:0:0:0:
256,196,8832,1,8,0:0:0:0:
256,196,8999,1,0,0:0:0:0:
256,196,9082,1,0,0:0:0:0:
256,196,9165,1,8,0:0:0:0:
252,200,9332,1,0,0:0:0:0:
252,200,9415,1,0,0:0:0:0:
252,200,9499,1,8,0:0:0:0:
252,200,9582,1,0,0:0:0:0:
252,200,9749,1,0,0:0:0:0:
252,200,9832,1,0,0:0:0:0:
252,200,9915,1,8,0:0:0:0:
252,200,9999,1,0,0:0:0:0:
256,196,10332,1,8,0:0:0:0:
256,196,10665,1,8,0:0:0:0:
256,196,10999,1,8,0:0:0:0:
256,196,11082,1,0,0:0:0:0:
256,196,11165,1,8,0:0:0:0:
256,196,11249,1,0,0:0:0:0:
256,196,11332,1,8,0:0:0:0:
256,196,11415,1,0,0:0:0:0:
256,196,11499,1,0,0:0:0:0:
256,196,11665,1,8,0:0:0:0:
256,196,11749,1,0,0:0:0:0:
256,196,11832,1,0,0:0:0:0:
256,196,11999,1,8,0:0:0:0:
256,196,12082,1,0,0:0:0:0:
256,196,12249,1,8,0:0:0:0:
256,196,12332,1,0,0:0:0:0:
256,196,12499,1,8,0:0:0:0:
256,196,12582,1,8,0:0:0:0:
256,196,12666,1,8,0:0:0:0:
256,196,12749,1,0,0:0:0:0:
256,196,12832,1,0,0:0:0:0:
256,196,12999,1,8,0:0:0:0:
256,196,13082,1,0,0:0:0:0:
256,196,13166,1,0,0:0:0:0:
256,196,13332,1,8,0:0:0:0:
256,196,13415,1,0,0:0:0:0:
256,196,13582,1,8,0:0:0:0:
256,196,13665,1,0,0:0:0:0:
256,196,13832,1,8,0:0:0:0:
256,196,13915,1,8,0:0:0:0:
256,196,13999,1,8,0:0:0:0:
256,196,14082,1,0,0:0:0:0:
256,196,14165,1,0,0:0:0:0:
256,196,14332,1,8,0:0:0:0:
256,196,14415,1,0,0:0:0:0:
256,196,14499,1,0,0:0:0:0:
256,196,14665,1,8,0:0:0:0:
256,196,14748,1,0,0:0:0:0:
256,196,14915,1,8,0:0:0:0:
256,196,14998,1,0,0:0:0:0:
256,196,15165,1,8,0:0:0:0:
256,196,15248,1,8,0:0:0:0:
256,196,15332,1,8,0:0:0:0:
256,196,15415,1,0,0:0:0:0:
256,196,15498,1,8,0:0:0:0:
256,196,15582,1,0,0:0:0:0:
256,196,15665,1,0,0:0:0:0:
256,196,15749,1,8,0:0:0:0:
256,196,15832,1,0,0:0:0:0:
256,196,15915,1,0,0:0:0:0:
256,196,15999,1,8,0:0:0:0:
256,196,16082,1,8,0:0:0:0:
256,196,16165,1,0,0:0:0:0:
256,196,16249,1,0,0:0:0:0:
256,196,16332,1,0,0:0:0:0:
256,196,16415,1,0,0:0:0:0:
260,200,16499,1,0,0:0:0:0:
260,200,16665,1,0,0:0:0:0:
260,200,16748,1,0,0:0:0:0:
260,200,16832,1,8,0:0:0:0:
256,196,16999,1,0,0:0:0:0:
256,196,17082,1,0,0:0:0:0:
256,196,17166,1,8,0:0:0:0:
256,196,17332,1,0,0:0:0:0:
256,196,17416,1,0,0:0:0:0:
256,196,17499,1,8,0:0:0:0:
256,196,17582,1,0,0:0:0:0:
256,196,17749,1,0,0:0:0:0:
256,196,17832,1,8,0:0:0:0:
256,196,17916,1,8,0:0:0:0:
256,196,17999,1,0,0:0:0:0:
256,196,18082,1,0,0:0:0:0:
256,196,18166,1,8,0:0:0:0:
256,196,18332,1,0,0:0:0:0:
256,196,18415,1,0,0:0:0:0:
256,196,18499,1,8,0:0:0:0:
256,196,18665,1,0,0:0:0:0:
256,196,18749,1,0,0:0:0:0:
256,196,18832,1,8,0:0:0:0:
256,196,18915,1,0,0:0:0:0:
256,196,19082,1,0,0:0:0:0:
256,196,19165,1,8,0:0:0:0:
256,196,19249,1,8,0:0:0:0:
256,196,19332,1,0,0:0:0:0:
256,196,19415,1,0,0:0:0:0:
256,196,19499,1,8,0:0:0:0:
256,196,19665,1,0,0:0:0:0:
256,196,19749,1,0,0:0:0:0:
256,196,19832,1,8,0:0:0:0:
256,196,19999,1,0,0:0:0:0:
256,196,20082,1,0,0:0:0:0:
256,196,20165,1,8,0:0:0:0:
256,196,20249,1,0,0:0:0:0:
256,196,20415,1,0,0:0:0:0:
256,196,20499,1,0,0:0:0:0:
256,196,20582,1,8,0:0:0:0:
256,196,20665,1,0,0:0:0:0:
256,196,20832,1,8,0:0:0:0:
256,196,20915,1,0,0:0:0:0:
256,196,21082,1,8,0:0:0:0:
256,196,21165,1,0,0:0:0:0:
256,196,21249,1,8,0:0:0:0:
256,196,21332,1,0,0:0:0:0:
256,196,21415,1,8,0:0:0:0:
256,196,21499,1,0,0:0:0:0:
256,196,21582,1,0,0:0:0:0:
256,196,21665,1,8,0:0:0:0:
256,196,21749,1,0,0:0:0:0:
256,196,21832,1,8,0:0:0:0:
256,196,21915,1,0,0:0:0:0:
256,196,21999,1,0,0:0:0:0:
256,196,22165,1,0,0:0:0:0:
256,196,22249,1,8,0:0:0:0:
256,196,22332,1,0,0:0:0:0:
256,196,22499,1,0,0:0:0:0:
256,196,22665,1,8,0:0:0:0:
256,196,22748,1,0,0:0:0:0:
256,196,22915,1,8,0:0:0:0:
256,196,22999,1,0,0:0:0:0:
256,196,23165,1,8,0:0:0:0:
256,196,23248,1,8,0:0:0:0:
256,196,23332,1,8,0:0:0:0:
256,196,23499,1,0,0:0:0:0:
256,196,23582,1,8,0:0:0:0:
256,196,23665,1,0,0:0:0:0:
256,196,23832,1,8,0:0:0:0:
256,196,23998,1,8,0:0:0:0:
256,196,24081,1,0,0:0:0:0:
256,196,24248,1,8,0:0:0:0:
256,196,24332,1,0,0:0:0:0:
256,196,24498,1,8,0:0:0:0:
256,196,24582,1,8,0:0:0:0:
256,196,24665,1,8,0:0:0:0:
256,196,24832,1,0,0:0:0:0:
256,196,24915,1,0,0:0:0:0:
256,196,24999,1,0,0:0:0:0:
256,196,25165,1,0,0:0:0:0:
256,196,25332,1,8,0:0:0:0:
256,196,25416,1,0,0:0:0:0:
256,196,25582,1,8,0:0:0:0:
256,196,25665,1,0,0:0:0:0:
256,196,25832,1,8,0:0:0:0:
256,196,25915,1,8,0:0:0:0:
256,196,25998,1,8,0:0:0:0:
256,196,26082,1,0,0:0:0:0:
256,196,26165,1,8,0:0:0:0:
256,196,26332,1,8,0:0:0:0:
256,196,26415,1,0,0:0:0:0:
256,196,26498,1,8,0:0:0:0:
256,196,26665,1,8,0:0:0:0:
256,196,26748,1,0,0:0:0:0:
256,196,26832,1,8,0:0:0:0:
256,196,26998,1,8,0:0:0:0:
256,196,27082,1,0,0:0:0:0:
256,196,27165,1,8,0:0:0:0:
256,196,27332,1,0,0:0:0:0:
256,196,27499,1,0,0:0:0:0:
256,196,27582,1,0,0:0:0:0:
256,196,27665,1,8,0:0:0:0:
256,196,27832,1,0,0:0:0:0:
256,196,27999,1,8,0:0:0:0:
256,196,28082,1,0,0:0:0:0:
256,196,28249,1,8,0:0:0:0:
256,196,28332,1,0,0:0:0:0:
256,196,28499,1,8,0:0:0:0:
256,196,28582,1,8,0:0:0:0:
256,196,28665,1,0,0:0:0:0:
256,196,28832,1,0,0:0:0:0:
256,196,28915,1,0,0:0:0:0:
256,196,28999,1,8,0:0:0:0:
256,196,29165,1,0,0:0:0:0:
256,196,29332,1,8,0:0:0:0:
256,196,29415,1,0,0:0:0:0:
256,196,29582,1,8,0:0:0:0:
256,196,29665,1,0,0:0:0:0:
256,196,29832,1,8,0:0:0:0:
256,196,29915,1,8,0:0:0:0:
256,196,29999,1,0,0:0:0:0:
256,196,30165,1,0,0:0:0:0:
256,196,30249,1,0,0:0:0:0:
256,196,30332,1,8,0:0:0:0:
256,196,30499,1,0,0:0:0:0:
256,196,30665,1,8,0:0:0:0:
256,196,30749,1,0,0:0:0:0:
256,196,30915,1,8,0:0:0:0:
256,196,30999,1,0,0:0:0:0:
256,196,31165,1,8,0:0:0:0:
256,196,31249,1,8,0:0:0:0:
256,196,31332,1,0,0:0:0:0:
256,196,31499,1,0,0:0:0:0:
256,196,31582,1,8,0:0:0:0:
256,196,31749,1,0,0:0:0:0:
256,196,31832,1,8,0:0:0:0:
256,196,31999,1,0,0:0:0:0:
256,196,32082,1,0,0:0:0:0:
256,196,32165,1,0,0:0:0:0:
256,196,32249,1,0,0:0:0:0:
256,196,32332,1,0,0:0:0:0:
256,196,32499,1,8,0:0:0:0:
256,196,32665,1,8,0:0:0:0:
256,196,32749,1,0,0:0:0:0:
256,196,32832,1,0,0:0:0:0:
256,196,32998,1,8,0:0:0:0:
256,196,33082,1,0,0:0:0:0:
256,196,33165,1,0,0:0:0:0:
256,196,33332,1,8,0:0:0:0:
256,196,33415,1,0,0:0:0:0:
256,196,33582,1,8,0:0:0:0:
256,196,33665,1,0,0:0:0:0:
256,196,33832,1,8,0:0:0:0:
256,196,33915,1,8,0:0:0:0:
256,196,33999,1,8,0:0:0:0:
256,196,34082,1,0,0:0:0:0:
256,196,34165,1,0,0:0:0:0:
256,196,34332,1,8,0:0:0:0:
256,196,34416,1,0,0:0:0:0:
256,196,34499,1,0,0:0:0:0:
256,196,34666,1,8,0:0:0:0:
256,196,34749,1,0,0:0:0:0:
256,196,34916,1,8,0:0:0:0:
256,196,34999,1,0,0:0:0:0:
256,196,35166,1,8,0:0:0:0:
256,196,35249,1,8,0:0:0:0:
256,196,35333,1,8,0:0:0:0:
256,196,35416,1,0,0:0:0:0:
256,196,35499,1,0,0:0:0:0:
256,196,35665,1,8,0:0:0:0:
256,196,35749,1,0,0:0:0:0:
256,196,35832,1,0,0:0:0:0:
256,196,35999,1,8,0:0:0:0:
256,196,36082,1,0,0:0:0:0:
256,196,36249,1,8,0:0:0:0:
256,196,36332,1,0,0:0:0:0:
256,196,36499,1,8,0:0:0:0:
256,196,36582,1,8,0:0:0:0:
256,196,36666,1,8,0:0:0:0:
256,196,36749,1,0,0:0:0:0:
256,196,36832,1,8,0:0:0:0:
256,196,36999,1,8,0:0:0:0:
256,196,37082,1,0,0:0:0:0:
256,196,37165,1,8,0:0:0:0:
256,196,37332,1,8,0:0:0:0:
256,196,37415,1,0,0:0:0:0:
256,196,37499,1,8,0:0:0:0:
256,196,37665,1,8,0:0:0:0:
256,196,37749,1,0,0:0:0:0:
256,196,37832,1,8,0:0:0:0:
256,196,37999,1,8,0:0:0:0:
256,196,38082,1,0,0:0:0:0:
256,196,38165,1,0,0:0:0:0:
256,196,38332,1,8,0:0:0:0:
256,196,38416,1,0,0:0:0:0:
256,196,38499,1,0,0:0:0:0:
256,196,38666,1,8,0:0:0:0:
256,196,38749,1,0,0:0:0:0:
256,196,38916,1,8,0:0:0:0:
256,196,38999,1,0,0:0:0:0:
256,196,39166,1,8,0:0:0:0:
256,196,39249,1,8,0:0:0:0:
256,196,39333,1,8,0:0:0:0:
256,196,39415,1,0,0:0:0:0:
256,196,39499,1,0,0:0:0:0:
256,196,39665,1,8,0:0:0:0:
256,196,39749,1,0,0:0:0:0:
256,196,39832,1,0,0:0:0:0:
256,196,39999,1,8,0:0:0:0:
256,196,40082,1,0,0:0:0:0:
256,196,40249,1,8,0:0:0:0:
256,196,40332,1,0,0:0:0:0:
256,196,40499,1,8,0:0:0:0:
256,196,40582,1,8,0:0:0:0:
256,196,40666,1,8,0:0:0:0:
256,196,40749,1,0,0:0:0:0:
256,196,40832,1,0,0:0:0:0:
256,196,40999,1,8,0:0:0:0:
256,196,41083,1,0,0:0:0:0:
256,196,41166,1,0,0:0:0:0:
256,196,41333,1,8,0:0:0:0:
256,196,41416,1,0,0:0:0:0:
256,196,41583,1,8,0:0:0:0:
256,196,41666,1,0,0:0:0:0:
256,196,41833,1,8,0:0:0:0:
256,196,41916,1,8,0:0:0:0:
256,196,42000,1,8,0:0:0:0:
256,196,42165,1,8,0:0:0:0:
256,196,42249,1,0,0:0:0:0:
256,196,42415,1,8,0:0:0:0:
256,196,42499,1,0,0:0:0:0:
256,196,42582,1,8,0:0:0:0:
256,196,42665,1,0,0:0:0:0:
256,196,42749,1,0,0:0:0:0:
256,196,42832,1,8,0:0:0:0:
256,196,42915,1,0,0:0:0:0:
256,196,42999,1,8,0:0:0:0:
256,196,43332,1,4,0:0:0:0:
