osu file format v14

[General]
AudioFilename: audio.mp3
AudioLeadIn: 0
PreviewTime: 27456
Countdown: 1
SampleSet: None
StackLeniency: 0.7
Mode: 0
LetterboxInBreaks: 0
WidescreenStoryboard: 1

[Editor]
DistanceSpacing: 1.3
BeatDivisor: 4
GridSize: 4
TimelineZoom: 2.4

[Metadata]
Title:176 - ikazuchi
TitleUnicode:176 - ikazuchi
Artist:saradisk
ArtistUnicode:saradisk
Creator:unko
Version:I`m on Go in god MOd ???
Source:艦隊これくしょん -艦これ-
Tags:kantai collection kancolle remix
BeatmapID:1357564
BeatmapSetID:639717

[Difficulty]
HPDrainRate:6
CircleSize:4
OverallDifficulty:10
ApproachRate:10
SliderMultiplier:2.2
SliderTickRate:1

[Events]
//Background and Video events
0,0,"Akatsuki.(Kantai.Collection).full.1847500.jpg",0,0
//Break Periods
//Storyboard Layer 0 (Background)
//Storyboard Layer 1 (Fail)
//Storyboard Layer 2 (Pass)
//Storyboard Layer 3 (Foreground)
//Storyboard Sound Samples

[TimingPoints]
456,428.571428571429,4,2,0,100,1,0
27884,-76.9230769230769,4,2,0,100,0,0
33027,-66.6666666666667,4,2,0,100,0,0
34741,-76.9230769230769,4,2,0,100,0,0
46741,-66.6666666666667,4,2,0,100,0,0
48456,-76.9230769230769,4,2,0,100,0,0
55420,-76.9230769230769,4,2,0,5,0,0

[Colours]
Combo1 : 214,145,112
Combo2 : 128,255,255
Combo3 : 240,235,9
Combo4 : 231,99,102
Combo5 : 63,157,226

[HitObjects]
45,73,456,6,0,P|104:58|172:78,1,110,8|0,0:0|0:0,0:0:0:0:
42,168,777,1,0,0:0:0:0:
236,154,884,2,0,L|115:161,1,110,8|0,0:0|0:0,0:0:0:0:
256,66,1206,1,0,0:0:0:0:
334,8,1313,6,0,P|352:71|328:132,1,110,8|0,0:0|0:0,0:0:0:0:
293,208,1634,2,0,L|294:349,1,110,8|0,0:0|0:0,0:0:0:0:
206,248,1956,1,2,0:0:0:0:
387,214,2063,1,0,0:0:0:0:
207,291,2170,6,0,L|84:287,1,110,8|0,0:0|0:0,0:0:0:0:
377,292,2598,2,0,L|504:283,1,110,8|0,0:0|0:0,0:0:0:0:
429,53,3027,6,0,P|419:105|439:187,1,110,8|0,0:0|0:0,0:0:0:0:
489,9,3348,2,0,L|359:1,1,110,8|0,0:0|0:0,0:0:0:0:
321,87,3670,1,2,0:0:0:0:
509,121,3777,1,0,0:0:0:0:
318,123,3884,6,0,L|324:247,1,110,8|0,0:0|0:0,0:0:0:0:
245,341,4313,2,0,L|241:221,1,110,8|0,0:0|0:0,0:0:0:0:
137,145,4741,6,0,P|201:129|258:152,1,110,8|0,0:0|0:0,0:0:0:0:
97,90,5063,2,0,L|97:236,1,110,8|0,0:0|0:0,0:0:0:0:
51,343,5384,1,2,0:0:0:0:
161,281,5598,5,4,0:0:0:0:
469,302,7313,6,0,L|314:308,1,110,8|0,0:0|0:0,0:0:0:0:
399,206,7741,2,0,L|257:209,1,110,8|0,0:0|0:0,0:0:0:0:
205,368,8170,6,0,P|200:249|194:233,1,110,8|0,0:0|0:0,0:0:0:0:
111,134,8491,1,8,0:0:0:0:
95,247,8598,2,0,L|90:341,1,55
19,363,8813,1,8,0:0:0:0:
191,345,8920,1,0,0:0:0:0:
191,132,9027,6,0,L|184:249,1,110,8|0,0:0|0:0,0:0:0:0:
32,41,9456,2,0,L|36:180,1,110,8|0,0:0|0:0,0:0:0:0:
256,38,9884,6,0,P|191:26|142:40,1,110,8|0,0:0|0:0,0:0:0:0:
116,126,10206,1,8,0:0:0:0:
332,129,10313,2,0,L|248:122,1,55
256,38,10527,1,8,0:0:0:0:
337,31,10634,1,0,0:0:0:0:
416,24,10741,6,0,L|410:161,1,110,8|0,0:0|0:0,0:0:0:0:
463,349,11170,2,0,L|456:230,1,110,8|0,0:0|0:0,0:0:0:0:
253,224,11598,6,0,L|376:227,1,110,8|0,0:0|0:0,0:0:0:0:
213,143,11920,1,8,0:0:0:0:
187,311,12027,1,0,0:0:0:0:
355,309,12134,2,0,L|287:304,1,55,0|8,0:0|0:0,0:0:0:0:
133,224,12348,1,0,0:0:0:0:
133,224,12456,6,0,L|14:222,1,110,12|0,0:0|0:0,0:0:0:0:
133,224,12884,6,0,L|14:222,1,110
133,224,13313,6,0,L|14:222,1,110
139,345,13741,5,2,0:0:0:0:
71,123,13848,1,0,0:0:0:0:
56,359,13956,1,2,0:0:0:0:
25,56,14063,1,0,0:0:0:0:
260,102,14170,6,0,L|140:100,1,110,8|0,0:0|0:0,0:0:0:0:
123,181,14491,1,0,0:0:0:0:
203,221,14598,2,0,P|259:231|340:208,1,110,8|0,0:0|0:0,0:0:0:0:
341,142,14920,1,0,0:0:0:0:
203,221,15027,6,0,L|198:349,1,110,8|0,0:0|0:0,0:0:0:0:
271,352,15348,2,0,P|217:344|163:349,1,110,8|0,0:0|0:0,0:0:0:0:
105,305,15670,1,2,0:0:0:0:
317,291,15777,1,0,0:0:0:0:
316,147,15884,6,0,L|311:266,1,110,8|0,0:0|0:0,0:0:0:0:
266,80,16313,2,0,P|317:64|385:100,1,110,8|0,0:0|0:0,0:0:0:0:
245,167,16741,2,0,L|117:163,1,110,8|0,0:0|0:0,0:0:0:0:
329,169,17063,1,8,0:0:0:0:
471,186,17170,6,0,L|350:185,1,110,0|2,0:0|0:0,0:0:0:0:
428,78,17491,1,0,0:0:0:0:
412,320,17598,6,0,P|418:246|400:192,1,110,8|0,0:0|0:0,0:0:0:0:
197,339,18027,2,0,L|328:336,1,110,8|0,0:0|0:0,0:0:0:0:
127,277,18456,6,0,L|16:281,1,110,8|0,0:0|0:0,0:0:0:0:
116,360,18777,1,8,0:0:0:0:
202,264,18884,2,0,P|221:210|203:152,1,110
95,72,19206,1,2,0:0:0:0:
28,200,19313,5,12,0:0:0:0:
28,200,19527,1,0,0:0:0:0:
28,200,19741,1,8,0:0:0:0:
28,200,19956,1,0,0:0:0:0:
28,200,20170,1,8,0:0:0:0:
28,200,20384,1,0,0:0:0:0:
28,160,20491,5,8,0:0:0:0:
27,261,20706,1,0,0:0:0:0:
29,90,20813,1,8,0:0:0:0:
25,344,20920,1,8,0:0:0:0:
169,177,21027,6,0,P|113:168|40:183,1,110,12|0,0:0|0:0,0:0:0:0:
169,177,21456,2,0,P|113:168|40:183,1,110,8|0,0:0|0:0,0:0:0:0:
132,368,21884,6,0,L|116:219,1,110,8|0,0:0|0:0,0:0:0:0:
11,269,22206,1,8,0:0:0:0:
216,339,22313,1,0,0:0:0:0:
203,248,22420,1,0,0:0:0:0:
0,352,22527,2,0,L|55:349,1,55,8|0,0:0|0:0,0:0:0:0:
386,290,22741,6,0,P|327:281|269:286,1,110,8|0,0:0|0:0,0:0:0:0:
479,324,23170,1,8,0:0:0:0:
342,357,23277,1,0,0:0:0:0:
448,237,23384,1,0,0:0:0:0:
350,84,23598,6,0,L|357:216,1,110,8|0,0:0|0:0,0:0:0:0:
266,84,23920,1,8,0:0:0:0:
274,172,24027,1,0,0:0:0:0:
259,0,24134,1,0,0:0:0:0:
187,61,24241,1,8,0:0:0:0:
339,10,24348,1,0,0:0:0:0:
188,145,24456,6,0,L|185:278,1,110,8|0,0:0|0:0,0:0:0:0:
63,366,24884,2,0,L|51:232,1,110,8|0,0:0|0:0,0:0:0:0:
29,11,25313,2,0,L|16:132,1,110,8|0,0:0|0:0,0:0:0:0:
119,182,25634,1,8,0:0:0:0:
231,99,25848,5,0,0:0:0:0:
91,95,25956,1,8,0:0:0:0:
227,8,26063,1,0,0:0:0:0:
275,192,26170,6,0,L|200:189,1,55,8|8,0:0|0:0,0:0:0:0:
344,116,26384,1,8,0:0:0:0:
344,116,26491,1,8,0:0:0:0:
339,234,26598,6,0,L|264:231,1,55
408,158,26812,1,0,0:0:0:0:
408,158,26919,1,0,0:0:0:0:
86,329,27027,5,8,0:0:0:0:
373,345,27134,1,0,0:0:0:0:
373,345,27188,1,0,0:0:0:0:
373,345,27241,1,8,0:0:0:0:
231,377,27348,1,0,0:0:0:0:
156,120,27456,5,2,0:0:0:0:
292,279,27563,1,0,0:0:0:0:
273,18,27670,1,2,0:0:0:0:
203,310,27777,1,0,0:0:0:0:
439,188,27884,6,0,P|360:167|275:206,1,142.99999345398,4|0,0:0|0:0,0:0:0:0:
250,273,28206,1,0,0:0:0:0:
512,299,28313,2,0,L|364:263,1,142.99999345398,8|0,0:0|0:0,0:0:0:0:
497,209,28634,1,0,0:0:0:0:
366,365,28741,5,8,0:0:0:0:
364,93,28848,1,0,0:0:0:0:
473,349,28956,1,0,0:0:0:0:
258,194,29063,1,8,0:0:0:0:
477,37,29170,1,0,0:0:0:0:
390,212,29277,1,0,0:0:0:0:
364,93,29384,2,0,L|369:8,1,71.4999967269899,2|0,0:0|0:0,0:0:0:0:
152,187,29598,6,0,P|218:214|304:184,1,142.99999345398,8|0,0:0|0:0,0:0:0:0:
139,68,29920,1,0,0:0:0:0:
126,353,30027,1,8,0:0:0:0:
91,247,30134,1,0,0:0:0:0:
292,304,30241,2,0,L|208:302,1,71.4999967269899
55,329,30456,5,8,0:0:0:0:
145,142,30563,1,0,0:0:0:0:
147,362,30670,1,0,0:0:0:0:
36,157,30777,1,8,0:0:0:0:
189,258,30884,1,0,0:0:0:0:
8,254,30991,1,0,0:0:0:0:
114,45,31098,2,0,L|112:154,1,71.4999967269899,10|8,0:0|0:0,0:0:0:0:
351,64,31313,6,0,P|266:49|182:88,1,142.99999345398,8|0,0:0|0:0,0:0:0:0:
237,236,31634,1,0,0:0:0:0:
392,155,31741,1,8,0:0:0:0:
262,144,31848,1,0,0:0:0:0:
433,168,31956,1,0,0:0:0:0:
303,157,32063,1,0,0:0:0:0:
331,237,32170,6,0,L|342:313,1,71.4999967269899,8|0,0:0|0:0,0:0:0:0:
402,356,32384,1,0,0:0:0:0:
361,227,32491,2,0,L|372:303,1,71.4999967269899,8|0,0:0|0:0,0:0:0:0:
432,346,32705,1,0,0:0:0:0:
245,313,32813,1,2,0:0:0:0:
493,261,32920,1,0,0:0:0:0:
266,95,33027,6,0,L|261:233,1,82.5000031471254,8|0,0:0|0:0,0:0:0:0:
166,218,33241,1,2,0:0:0:0:
380,104,33348,1,0,0:0:0:0:
179,21,33456,2,0,L|184:119,1,82.5000031471254,8|0,0:0|0:0,0:0:0:0:
78,148,33670,1,2,0:0:0:0:
294,157,33777,1,0,0:0:0:0:
43,317,33884,6,0,L|27:215,1,82.5000031471254,8|0,0:0|0:0,0:0:0:0:
17,135,34098,1,2,0:0:0:0:
107,375,34206,1,8,0:0:0:0:
106,148,34313,1,0,0:0:0:0:
7,349,34420,1,0,0:0:0:0:
263,242,34527,1,8,0:0:0:0:
42,218,34634,1,0,0:0:0:0:
214,357,34741,6,0,P|295:334|360:354,1,142.99999345398,4|0,0:0|0:0,0:0:0:0:
123,368,35063,1,0,0:0:0:0:
176,195,35170,2,0,L|167:72,1,71.4999967269899,8|0,0:0|0:0,0:0:0:0:
282,253,35384,1,2,0:1:0:0:
63,278,35491,1,0,0:0:0:0:
349,162,35598,6,0,L|256:156,1,71.4999967269899,8|0,0:0|0:0,0:0:0:0:
449,99,35813,1,0,0:0:0:0:
260,69,35920,2,0,L|331:64,1,71.4999967269899,8|0,0:0|0:0,0:0:0:0:
160,6,36134,1,0,0:0:0:0:
184,243,36241,1,8,0:0:0:0:
89,94,36348,1,0,0:0:0:0:
334,163,36456,6,0,P|249:147|183:175,1,142.99999345398,4|0,0:0|0:0,0:0:0:0:
52,205,36777,1,0,0:0:0:0:
189,278,36884,2,0,L|299:266,1,71.4999967269899,8|0,0:0|0:0,0:0:0:0:
369,338,37098,1,2,0:1:0:0:
104,346,37206,1,0,0:0:0:0:
352,180,37313,6,0,L|348:257,1,71.4999967269899,8|0,0:0|0:0,0:0:0:0:
389,77,37527,1,0,0:0:0:0:
383,209,37634,2,0,L|379:286,1,71.4999967269899,8|0,0:0|0:0,0:0:0:0:
420,106,37848,1,0,0:0:0:0:
503,199,37956,5,8,0:0:0:0:
304,105,38063,1,8,0:0:0:0:
395,277,38170,6,0,L|401:364,1,71.4999967269899
229,317,38384,1,0,0:0:0:0:
295,230,38491,1,0,0:0:0:0:
299,376,38598,1,8,0:0:0:0:
218,164,38706,1,0,0:0:0:0:
374,306,38813,1,2,0:1:0:0:
153,266,38920,1,0,0:0:0:0:
276,52,39027,5,8,0:0:0:0:
248,354,39134,1,0,0:0:0:0:
359,51,39241,1,0,0:0:0:0:
168,318,39348,1,8,0:0:0:0:
385,197,39456,1,0,0:0:0:0:
110,176,39563,1,0,0:0:0:0:
320,37,39670,1,8,0:0:0:0:
171,351,39777,1,0,0:0:0:0:
443,143,39884,5,8,0:0:0:0:
42,327,39991,1,0,0:0:0:0:
271,4,40098,1,0,0:0:0:0:
309,367,40206,1,8,0:0:0:0:
102,76,40313,1,0,0:0:0:0:
477,293,40420,1,0,0:0:0:0:
101,202,40527,1,8,0:0:0:0:
372,17,40634,1,0,0:0:0:0:
225,376,40741,5,8,0:0:0:0:
67,8,40848,1,8,0:0:0:0:
507,243,40956,1,8,0:0:0:0:
10,267,41063,1,8,0:0:0:0:
291,0,41170,5,0,0:0:0:0:
237,369,41384,1,0,0:0:0:0:
490,82,41598,6,0,P|474:168|492:228,1,142.99999345398,4|0,0:0|0:0,0:0:0:0:
512,323,41920,1,0,0:0:0:0:
322,221,42027,2,0,L|437:223,1,71.4999967269899,8|0,0:0|0:0,0:0:0:0:
236,263,42241,1,2,0:0:0:0:
362,314,42348,1,0,0:0:0:0:
246,93,42456,6,0,L|250:174,1,71.4999967269899,8|0,0:0|0:0,0:0:0:0:
165,61,42670,1,0,0:0:0:0:
340,134,42777,2,0,L|338:222,1,71.4999967269899,8|0,0:0|0:0,0:0:0:0:
170,41,42991,1,0,0:0:0:0:
74,185,43098,1,2,0:1:0:0:
300,20,43206,1,0,0:0:0:0:
181,150,43313,6,0,P|185:230|142:280,1,142.99999345398,4|0,0:0|0:0,0:0:0:0:
81,135,43634,1,0,0:0:0:0:
19,277,43741,2,0,L|23:358,1,71.4999967269899,8|0,0:0|0:0,0:0:0:0:
84,221,43956,1,0,0:0:0:0:
102,360,44063,1,0,0:0:0:0:
272,337,44170,6,0,L|181:347,1,71.4999967269899,8|0,0:0|0:0,0:0:0:0:
374,325,44384,1,0,0:0:0:0:
226,262,44491,2,0,L|324:255,1,71.4999967269899,8|0,0:0|0:0,0:0:0:0:
351,131,44706,1,0,0:0:0:0:
372,358,44813,1,2,0:1:0:0:
470,123,44920,1,0,0:0:0:0:
512,227,45027,6,0,P|430:208|372:235,1,142.99999345398,4|0,0:0|0:0,0:0:0:0:
493,333,45348,1,0,0:0:0:0:
280,237,45456,1,8,0:0:0:0:
431,73,45563,1,0,0:0:0:0:
398,361,45670,1,2,0:0:0:0:
512,227,45777,1,0,0:0:0:0:
261,141,45884,6,0,L|355:135,1,71.4999967269899,8|0,0:0|0:0,0:0:0:0:
186,212,46098,1,0,0:0:0:0:
299,35,46206,1,8,0:0:0:0:
311,269,46313,1,0,0:0:0:0:
183,66,46420,1,0,0:0:0:0:
46,139,46527,2,0,L|159:141,1,71.4999967269899,2|0,0:1|0:0,0:0:0:0:
151,328,46741,6,0,L|43:333,1,82.5000031471254,8|0,0:0|0:0,0:0:0:0:
15,227,46956,1,2,0:0:0:0:
145,245,47063,1,0,0:0:0:0:
7,178,47170,6,0,L|109:169,1,82.5000031471254,8|0,0:0|0:0,0:0:0:0:
181,50,47384,1,2,0:0:0:0:
4,77,47491,1,0,0:0:0:0:
284,164,47598,6,0,L|172:151,1,82.5000031471254,8|0,0:0|0:0,0:0:0:0:
286,67,47813,1,2,0:0:0:0:
232,285,47920,1,8,0:0:0:0:
411,172,48027,1,0,0:0:0:0:
162,215,48134,1,0,0:0:0:0:
361,27,48241,1,2,0:0:0:0:
336,319,48348,1,0,0:0:0:0:
476,233,48456,6,0,P|397:215|331:226,1,142.99999345398,4|0,0:0|0:0,0:0:0:0:
454,336,48777,1,0,0:0:0:0:
202,355,48884,2,0,L|303:346,1,71.4999967269899,8|0,0:0|0:0,0:0:0:0:
238,186,49098,1,2,0:1:0:0:
362,341,49206,1,0,0:0:0:0:
329,69,49313,6,0,L|325:161,1,71.4999967269899,8|0,0:0|0:0,0:0:0:0:
260,268,49527,1,0,0:0:0:0:
405,25,49634,2,0,L|401:117,1,71.4999967269899,8|0,0:0|0:0,0:0:0:0:
336,224,49848,1,0,0:0:0:0:
256,65,49956,1,8,0:0:0:0:
469,227,50063,1,0,0:0:0:0:
228,197,50170,6,0,P|155:182|81:204,1,142.99999345398,4|0,0:0|0:0,0:0:0:0:
33,340,50491,1,0,0:0:0:0:
19,129,50598,1,8,0:0:0:0:
140,308,50706,1,0,0:0:0:0:
14,227,50813,1,2,0:1:0:0:
241,278,50920,1,0,0:0:0:0:
167,111,51027,6,0,L|157:189,1,71.4999967269899,8|0,0:0|0:0,0:0:0:0:
95,40,51241,1,0,0:0:0:0:
259,224,51348,1,8,0:0:0:0:
22,186,51456,1,0,0:0:0:0:
301,128,51563,1,0,0:0:0:0:
190,6,51670,2,0,L|294:1,1,71.4999967269899,2|0,0:0|0:0,0:0:0:0:
488,69,51884,6,0,P|407:51|340:75,1,142.99999345398,4|0,0:0|0:0,0:0:0:0:
368,206,52206,1,0,0:0:0:0:
496,258,52313,2,0,L|501:166,1,71.4999967269899,8|0,0:0|0:0,0:0:0:0:
375,265,52527,2,0,L|380:359,1,71.4999967269899,2|0,0:1|0:0,0:0:0:0:
249,193,52741,5,8,0:0:0:0:
442,137,52848,1,0,0:0:0:0:
281,350,52956,1,0,0:0:0:0:
308,76,53063,1,8,0:0:0:0:
407,289,53170,1,0,0:0:0:0:
165,247,53277,1,0,0:0:0:0:
319,204,53384,2,0,L|240:191,1,71.4999967269899,2|0,0:0|0:0,0:0:0:0:
115,31,53598,6,0,P|85:95|127:170,1,142.99999345398,8|0,0:0|0:0,0:0:0:0:
149,166,53866,1,0,0:0:0:0:
171,132,53920,1,8,0:0:0:0:
1,110,54027,1,0,0:0:0:0:
122,292,54134,1,0,0:0:0:0:
217,208,54241,2,0,L|293:202,1,71.4999967269899,8|0,0:0|0:0,0:0:0:0:
296,88,54456,5,8,0:0:0:0:
467,232,54563,1,0,0:0:0:0:
241,335,54670,1,8,0:0:0:0:
512,216,54777,1,0,0:0:0:0:
211,24,54884,5,0,0:0:0:0:
374,343,54991,1,2,0:0:0:0:
257,191,55313,5,4,0:0:0:0:
256,192,55420,12,0,57777,0:0:0:0:
