osu file format v14

[General]
AudioFilename: 176 - ikazuchi.mp3
AudioLeadIn: 0
PreviewTime: 27884
Countdown: 0
SampleSet: None
StackLeniency: 0.7
Mode: 0
LetterboxInBreaks: 0
WidescreenStoryboard: 1

[Editor]
DistanceSpacing: 1.2
BeatDivisor: 8
GridSize: 4
TimelineZoom: 2.899999

[Metadata]
Title:176 - ikazuchi
TitleUnicode:176 - ikazuchi
Artist:saradisk
ArtistUnicode:saradisk
Creator:DoKito
Version:HentaiAR10
Source:艦隊これくしょん -艦これ-
Tags:kantai collection kancolle remix
BeatmapID:1154571
BeatmapSetID:544862

[Difficulty]
HPDrainRate:6
CircleSize:4
OverallDifficulty:9
ApproachRate:10
SliderMultiplier:3.59999990463257
SliderTickRate:1

[Events]
//Background and Video events
0,0,"BG.jpg",0,0
//Break Periods
//Storyboard Layer 0 (Background)
//Storyboard Layer 1 (Fail)
//Storyboard Layer 2 (Pass)
//Storyboard Layer 3 (Foreground)
//Storyboard Sound Samples

[TimingPoints]
456,428.571428571429,4,2,0,50,1,0
5598,-10000,4,2,0,50,0,0
7313,-100,4,2,0,50,0,0
12456,-250,4,2,0,50,0,0
13741,-125,4,2,0,50,0,0
14170,-100,4,2,0,50,0,0
19313,-250,4,2,0,50,0,0
21027,-100,4,2,0,50,0,0
26170,-166.666666666667,4,2,0,50,0,0
27027,-83.3333333333333,4,2,0,50,0,0
27884,-71.4285714285715,4,2,0,50,0,0
27991,-71.4285714285714,4,2,0,50,0,1
33027,-100,4,2,0,50,0,1
34741,-71.4285714285714,4,2,0,50,0,1
38598,-66.6666666666667,4,2,0,50,0,1
39027,-62.5,4,2,0,50,0,1
39456,-58.8235294117647,4,2,0,50,0,1
39884,-55.5555555555556,4,2,0,50,0,1
40313,-52.6315789473684,4,2,0,50,0,1
40741,-50,4,2,0,50,0,1
41170,-250,4,2,0,50,0,0
41598,-62.5,4,2,0,50,0,1
46741,-100,4,2,0,50,0,1
48456,-55.5555555555556,4,2,0,50,0,1
54884,-250,4,2,0,50,0,0

[HitObjects]
57,71,456,6,0,L|334:46,1,269.999992847443
462,155,884,2,0,L|185:130,1,269.999992847443
145,63,1313,2,0,L|349:44,1,179.999995231629
372,147,1634,2,0,L|167:128,1,179.999995231629
233,55,1956,2,0,L|335:45,1,89.9999976158143
508,206,2170,6,0,L|231:231,1,269.999992847443
103,122,2598,2,0,L|380:147,1,269.999992847443
420,214,3027,2,0,L|215:232,1,179.999995231629
193,130,3348,2,0,L|397:148,1,179.999995231629
332,222,3670,2,0,L|229:231,1,89.9999976158143
17,146,3884,6,0,L|294:121,1,269.999992847443
422,230,4312,2,0,L|145:205,1,269.999992847443
105,138,4741,2,0,L|309:119,1,179.999995231629
332,222,5062,2,0,L|127:203,1,179.999995231629
193,130,5384,2,0,L|295:120,1,89.9999976158143
498,101,5598,6,0,L|502:238,1,134.999996423721
503,250,7313,6,0,P|410:272|332:139,1,269.999992847443
434,168,7741,2,0,P|388:285|262:277,1,269.999992847443
502,249,8170,2,0,P|410:271|333:139,1,179.999995231629
434,168,8491,2,0,P|389:284|264:276,1,179.999995231629
268,275,8813,2,0,P|233:251|180:244,1,89.9999976158143
87,368,9027,6,0,P|114:276|268:275,1,269.999992847443
192,349,9455,2,0,P|112:250|182:145,1,269.999992847443
87,368,9884,2,0,P|114:277|266:276,1,179.999995231629
192,350,10205,2,0,P|113:252|182:148,1,179.999995231629
208,203,10527,2,0,P|246:184|278:142,1,89.9999976158143
218,0,10741,6,0,P|283:69|207:203,1,269.999992847443
181,100,11169,2,0,P|305:80|361:193,1,269.999992847443
218,0,11598,2,0,P|282:68|207:201,1,179.999995231629
181,99,11919,2,0,P|304:79|359:191,1,179.999995231629
304,190,12241,2,0,P|300:232|321:281,1,89.9999976158143
458,339,12456,6,0,L|468:264,1,71.9999980926514
458,339,12884,6,0,L|468:264,1,71.9999980926514
458,339,13313,6,0,L|468:264,1,71.9999980926514
458,339,13741,6,0,L|468:264,1,71.9999980926514
458,339,13956,2,0,L|468:264,1,71.9999980926514
458,339,14170,6,0,L|494:63,1,269.999992847443
322,26,14598,2,0,L|356:293,1,269.999992847443
470,250,15027,2,0,L|498:29,1,179.999995231629
333,114,15348,2,0,L|360:328,1,179.999995231629
482,163,15670,2,0,L|496:52,1,89.9999976158143
353,106,15884,6,0,L|319:374,1,269.999992847443
217,328,16312,2,0,L|183:61,1,269.999992847443
354,106,16741,2,0,L|331:285,1,179.999995231629
217,327,17062,2,0,L|194:149,1,179.999995231629
354,108,17384,2,0,L|343:198,1,89.9999976158143
186,373,17598,6,0,L|220:105,1,269.999992847443
50,60,18026,2,0,L|84:327,1,269.999992847443
197,283,18455,2,0,L|220:104,1,179.999995231629
60,147,18776,2,0,L|83:325,1,179.999995231629
210,197,19098,2,0,L|221:107,1,89.9999976158143
380,39,19313,6,0,P|399:77|399:114,1,71.9999980926514
380,39,19741,6,0,P|399:77|399:114,1,71.9999980926514
380,39,20170,6,0,P|399:77|399:114,1,71.9999980926514
380,39,20598,6,0,P|399:77|399:114,1,71.9999980926514
401,119,20920,1,0,0:0:0:0:
399,135,21027,6,0,P|430:224|461:112,1,269.999992847443
315,147,21456,2,0,P|346:236|377:124,1,269.999992847443
236,135,21884,2,0,P|259:202|283:117,1,179.999995231629
157,123,22206,2,0,P|180:190|204:105,1,179.999995231629
118,117,22527,2,0,P|129:150|141:108,1,89.9999976158143
156,122,22741,6,0,P|90:189|109:74,1,269.999992847443
227,168,23170,2,0,P|161:235|180:120,1,269.999992847443
303,190,23598,2,0,P|252:241|267:154,1,179.999995231629
380,213,23920,2,0,P|329:264|344:177,1,179.999995231629
418,224,24241,2,0,P|392:249|400:206,1,89.9999976158143
380,212,24456,6,0,P|410:301|442:189,1,269.999992847443
296,223,24885,2,0,P|326:312|358:200,1,269.999992847443
218,211,25313,2,0,P|241:278|265:193,1,179.999995231629
138,199,25635,2,0,P|161:266|185:181,1,179.999995231629
99,193,25956,2,0,P|110:226|122:184,1,89.9999976158143
137,198,26170,6,0,P|149:233|147:257,1,53.9999969215394
155,325,26384,2,0,P|165:300|167:273,1,53.9999969215394
138,208,26598,2,0,P|152:242|153:266,1,53.9999969215394
166,333,26812,2,0,P|175:307|174:280,1,53.9999969215394
140,218,27027,6,0,P|157:250|159:274,1,53.9999969215394
179,340,27134,2,0,P|185:314|182:287,1,53.9999969215394
143,228,27241,2,0,P|163:259|167:282,1,53.9999969215394
192,346,27348,2,0,P|196:320|191:293,1,53.9999969215394
208,184,27456,6,0,L|229:69,1,107.999993843079
447,10,27670,2,0,L|466:116,1,107.999993843079
289,255,27884,6,0,P|156:277|165:83,1,377.999978450776
415,167,28313,2,0,P|458:290|405:394,1,251.999985633851
29,70,28741,2,0,B|151:38|151:38|273:70,1,251.999985633851
466,208,29063,2,0,L|207:138,1,251.999985633851
107,171,29384,2,0,P|98:219|122:298,1,125.999992816925
454,328,29598,6,0,B|466:207|466:207|451:238|417:252,1,188.999989225388
338,210,29813,2,0,P|313:148|394:171,1,188.999989225388
477,156,30027,2,0,P|441:85|336:43,1,188.999989225388
290,97,30241,2,0,P|239:113|274:34,1,188.999989225388
365,128,30456,2,0,L|392:325,1,188.999989225388
393,332,30670,1,0,0:0:0:0:
226,369,30777,2,0,L|251:181,1,188.999989225388
254,169,30991,1,0,0:0:0:0:
302,271,31098,1,0,0:0:0:0:
188,259,31206,1,0,0:0:0:0:
255,156,31313,6,0,P|341:168|427:303,1,251.999985633851
85,297,31741,2,0,P|139:188|257:156,1,251.999985633851
88,361,32170,2,0,L|76:96,1,251.999985633851
256,22,32491,2,0,L|244:273,1,251.999985633851
82,236,32813,2,0,L|75:85,1,125.999992816925
338,55,33027,6,0,P|287:102|184:76,1,179.999995231629
338,55,33456,6,0,P|287:102|184:76,1,179.999995231629
338,55,33884,6,0,P|287:102|184:76,1,179.999995231629
338,55,34313,6,0,P|287:102|184:76,1,179.999995231629
168,0,34634,1,0,0:0:0:0:
254,18,34741,6,0,B|317:93|262:198|262:198|203:307|278:397,1,377.999978450776
455,210,35170,2,0,B|404:276|322:274|322:274|308:357|391:329|391:326,1,251.999985633851
284,101,35598,2,0,P|400:127|343:193,1,251.999985633851
186,137,35920,2,0,P|70:163|127:229,1,251.999985633851
253,338,36241,2,0,L|385:350,1,125.999992816925
505,172,36456,6,0,L|307:190,1,188.999989225388
237,197,36670,2,0,B|186:111|186:111|235:88|243:44,1,188.999989225388
165,22,36884,2,0,B|136:5|106:3|66:14|47:46|47:46|53:72|38:102,1,188.999989225388
111,133,37098,2,0,B|103:155|85:170|85:170|103:203|103:203|77:258|91:322,1,188.999989225388
173,267,37313,2,0,P|199:340|328:288,1,251.999985633851
430,131,37634,2,0,P|364:39|238:57,1,251.999985633851
182,164,37956,1,0,0:0:0:0:
313,149,38063,1,0,0:0:0:0:
117,89,38170,6,0,P|92:122|86:150,1,62.9999964084627
84,217,38277,2,0,P|90:258|106:282,1,62.9999964084627
152,331,38384,2,0,P|186:356|214:362,1,62.9999964084627
281,363,38491,2,0,P|322:357|346:341,1,62.9999964084627
395,295,38598,6,0,P|420:262|429:231,1,67.5000007867814
424,151,38706,2,0,P|415:111|397:84,1,67.5000007867814
333,37,38813,2,0,P|296:18|264:14,1,67.5000007867814
187,33,38920,2,0,P|148:49|125:71,1,67.5000007867814
90,142,39027,6,0,P|77:182|81:221,1,71.9999980926514
120,299,39134,2,0,P|145:332|179:351,1,71.9999980926514
266,364,39241,2,0,P|307:362|343:346,1,71.9999980926514
403,282,39348,2,0,P|425:247|432:209,1,71.9999980926514
414,123,39456,6,0,P|398:84|368:54,1,76.4999994325638
290,22,39563,2,0,P|250:13|207:21,1,76.4999994325638
136,66,39670,2,0,P|106:94|88:133,1,76.4999994325638
84,217,39777,2,0,P|90:258|112:296,1,76.4999994325638
178,346,39884,6,0,P|215:365|267:368,1,80.9999953823091
351,336,39991,2,0,P|386:313|413:270,1,80.9999953823091
428,181,40098,2,0,P|426:140|402:94,1,80.9999953823091
333,37,40206,2,0,P|296:18|245:16,1,80.9999953823091
160,47,40313,6,0,P|125:70|96:126,1,85.4999954519273
84,217,40420,2,0,P|90:258|128:309,1,85.4999954519273
206,357,40527,2,0,P|246:370|308:356,1,85.4999954519273
385,306,40634,2,0,P|413:276|427:214,1,85.4999954519273
414,123,40741,6,0,P|398:84|344:46,1,89.9999976158143
245,19,40848,2,0,P|204:21|148:59,1,89.9999976158143
90,142,40956,2,0,P|77:182|94:247,1,89.9999976158143
152,331,41063,2,0,P|185:356|252:362,1,89.9999976158143
358,346,41170,6,0,L|427:367,1,71.9999980926514
489,207,41598,6,0,B|386:183|386:183|352:169|326:142|316:98|326:51|345:20|379:0|429:0|462:27|466:67|424:91,1,431.999988555908
260,157,42027,2,0,B|200:174|134:155|112:122|96:93|96:93|33:112|24:171,1,287.999992370606
0,320,42348,1,0,0:0:0:0:
180,344,42456,2,0,L|469:375,1,287.999992370606
512,136,42777,2,0,L|223:167,1,287.999992370606
36,188,43098,2,0,P|19:158|40:45,1,143.999996185303
304,49,43313,6,0,B|316:128|316:128|342:100|371:102|371:102|393:130|441:120,1,215.999994277954
512,161,43527,2,0,B|483:195|441:204|410:199|410:199|409:261|458:293,1,215.999994277954
378,335,43741,2,0,B|332:262|337:196|337:196|321:271,1,215.999994277954
246,255,43956,2,0,L|296:43,1,215.999994277954
211,67,44170,2,0,P|158:124|31:7,1,287.999992370606
288,172,44491,2,0,P|341:229|468:112,1,287.999992370606
211,35,44813,1,0,0:0:0:0:
203,165,44920,1,0,0:0:0:0:
194,294,45027,6,0,L|420:324,1,215.999994277954
472,276,45241,2,0,P|438:247|349:374,1,215.999994277954
228,360,45456,2,0,L|220:127,1,215.999994277954
343,22,45670,2,0,L|335:237,1,215.999994277954
212,344,45884,2,0,B|207:195|207:195|228:210|228:210|260:145|336:185,1,287.999992370606
444,88,46206,2,0,P|322:40|167:62,1,287.999992370606
32,204,46527,2,0,P|97:243|182:239,1,143.999996185303
422,215,46741,6,0,L|510:242,1,89.9999976158143
422,215,46956,6,0,L|510:242,1,89.9999976158143
422,215,47170,6,0,L|510:242,1,89.9999976158143
422,215,47384,6,0,L|510:242,1,89.9999976158143
422,215,47598,6,0,L|510:242,1,89.9999976158143
422,215,47813,6,0,L|510:242,1,89.9999976158143
422,215,48027,6,0,L|510:242,1,89.9999976158143
422,215,48241,6,0,L|510:242,1,89.9999976158143
422,215,48456,6,0,B|508:242|508:242|489:305|507:354|507:354|423:306|312:310|239:369,1,485.999972293855
43,379,48884,2,0,L|8:218,1,161.999990764618
169,2,49098,2,0,L|203:160,1,161.999990764618
363,329,49313,2,0,P|443:336|360:222,1,323.999981529237
179,330,49634,1,0,0:0:0:0:
11,186,49741,2,0,P|-15:89|18:42,1,161.999990764618
318,150,49956,2,0,P|353:220|323:292,1,161.999990764618
52,214,50170,6,0,B|103:201|152:214|152:214|202:237|256:223|256:223|541:238,1,485.999972293855
463,61,50598,2,0,L|297:52,1,161.999990764618
280,353,50813,2,0,L|441:361,1,161.999990764618
494,98,51027,2,0,P|434:38|351:206,1,323.999981529237
487,349,51348,1,0,0:0:0:0:
270,334,51456,2,0,L|101:360,1,161.999990764618
8,115,51670,2,0,L|177:141,1,161.999990764618
378,182,51884,6,0,B|420:65|420:65|349:91|307:60|307:60|285:20|244:11|204:26,1,323.999981529237
49,51,52206,1,0,0:0:0:0:
179,201,52313,2,0,P|196:266|166:364,1,161.999990764618
63,69,52527,2,0,P|122:17|214:29,1,161.999990764618
362,85,52741,6,0,B|391:84|391:84|420:94|420:94|477:95|514:56,1,161.999990764618
208,160,52956,1,0,0:0:0:0:
150,220,53063,2,0,B|120:219|120:219|92:229|92:229|35:230|-2:191,1,161.999990764618
304,299,53277,1,0,0:0:0:0:
362,359,53384,2,0,B|392:358|392:358|420:368|420:368|477:369|514:330,1,161.999990764618
487,55,53598,6,0,L|325:78,1,161.999990764618
15,148,53813,2,0,L|177:171,1,161.999990764618
509,240,54027,2,0,L|347:263,1,161.999990764618
0,334,54242,2,0,L|162:357,1,161.999990764618
429,354,54456,5,0,0:0:0:0:
476,165,54563,1,0,0:0:0:0:
346,20,54670,1,0,0:0:0:0:
151,23,54777,1,0,0:0:0:0:
116,49,54884,6,0,L|106:95,2,35.9999990463257
128,22,55206,5,0,0:0:0:0:
141,33,55313,5,0,0:0:0:0:
