osu file format v14

[General]
AudioFilename: ute.mp3
AudioLeadIn: 0
PreviewTime: 27456
Countdown: 0
SampleSet: Soft
StackLeniency: 0.7
Mode: 2
LetterboxInBreaks: 0
WidescreenStoryboard: 0

[Editor]
Bookmarks: 142001
DistanceSpacing: 1.7
BeatDivisor: 4
GridSize: 8
TimelineZoom: 3.199999

[Metadata]
Title:176 - ikazuchi
TitleUnicode:176 - ikazuchi
Artist:saradisk
ArtistUnicode:saradisk
Creator:Ascendance
Version:Platter
Source:艦隊これくしょん -艦これ-
Tags:kantai collection kancolle remix fii mbomb Magic_bomb magic_girl kaitlin -wwwww
BeatmapID:925756
BeatmapSetID:424208

[Difficulty]
HPDrainRate:5
CircleSize:3.5
OverallDifficulty:8
ApproachRate:8
SliderMultiplier:1.54
SliderTickRate:2

[Events]
//Background and Video events
0,0,"stretched-1366-768-578555.jpg",0,0
//Break Periods
//Storyboard Layer 0 (Background)
//Storyboard Layer 1 (Fail)
//Storyboard Layer 2 (Pass)
//Storyboard Layer 3 (Foreground)
//Storyboard Sound Samples

[TimingPoints]
456,428.571428571429,4,2,1,60,1,0
7313,-100,4,2,1,80,0,0
12456,-100,4,2,1,70,0,0
14170,-100,4,2,1,80,0,0
27884,-100,4,2,1,80,0,1
27991,-100,4,2,1,90,0,1
41170,-100,4,2,1,90,0,0
41598,-100,4,2,1,80,0,1
41706,-100,4,2,1,100,0,1
54884,-100,4,2,1,100,0,0
55313,-100,4,2,2,70,0,0
57777,-100,4,2,2,5,0,0

[Colours]
Combo1 : 214,145,112
Combo2 : 128,255,255
Combo3 : 240,235,9
Combo4 : 231,99,102
Combo5 : 63,157,226

[HitObjects]
48,96,456,5,8,0:0:0:0:
288,96,884,1,8,0:0:0:0:
128,96,1313,2,0,L|243:96,2,115.5,8|0|0,0:0|0:0|0:0,0:0:0:0:
432,96,2170,5,10,0:0:0:0:
192,96,2598,1,8,0:0:0:0:
336,96,3027,2,0,L|464:96,2,115.5,8|8|8,0:0|0:0|0:0,0:0:0:0:
32,96,3884,5,10,0:0:0:0:
256,96,4313,1,8,0:0:0:0:
144,96,4741,2,0,L|16:96,2,115.5,8|8|8,0:0|0:0|0:0,0:0:0:0:
448,96,5598,5,10,0:0:0:0:
128,256,7313,6,0,L|80:160,1,77,4|2,1:0|0:0,0:0:0:0:
224,176,7741,2,0,L|256:96,1,77,8|2,0:0|0:0,0:0:0:0:
112,96,8170,2,0,L|-16:96,2,115.5,8|8|8,0:0|0:0|0:0,0:0:0:0:
392,96,9027,6,0,L|504:96,1,77,8|2,0:0|0:0,0:0:0:0:
304,176,9456,2,0,L|400:176,1,77,8|2,0:0|0:0,0:0:0:0:
480,176,9884,2,0,L|352:176,2,115.5,8|8|8,0:0|0:0|0:0,0:0:0:0:
192,288,10741,6,0,L|96:288,1,77,8|2,0:0|0:0,0:0:0:0:
0,288,11170,2,0,L|80:288,1,77,8|2,0:0|0:0,0:0:0:0:
368,288,11598,2,0,L|483:288,2,115.5,8|8|8,0:0|0:0|0:0,0:0:0:0:
48,144,12456,6,0,L|128:144,1,77,8|2,0:0|0:0,0:0:0:0:
320,144,12884,2,0,L|224:144,1,77,0|2,0:0|0:0,0:0:0:0:
48,160,13313,2,0,L|51:80,1,77,0|2,0:0|0:0,0:0:0:0:
352,224,13741,1,2,0:1:0:0:
400,176,13848,1,0,0:0:0:0:
400,112,13956,1,2,0:1:0:0:
352,64,14063,1,0,0:0:0:0:
264,56,14170,5,4,1:0:0:0:
32,64,14598,1,8,0:0:0:0:
208,64,15027,2,0,L|80:64,2,115.5,8|8|8,0:0|0:0|0:0,0:0:0:0:
496,48,15884,5,8,0:0:0:0:
176,48,16313,1,8,0:0:0:0:
368,48,16741,2,0,L|496:48,2,115.5,8|8|8,0:0|0:0|0:0,0:0:0:0:
48,48,17598,5,8,0:0:0:0:
352,48,18027,1,8,0:0:0:0:
163,48,18456,2,0,L|35:48,2,115.5,8|8|8,0:0|0:0|0:0,0:0:0:0:
448,128,19313,6,0,L|368:64,1,77,8|2,0:0|0:0,0:0:0:0:
284,96,19741,2,0,L|364:160,1,77,8|2,0:0|0:0,0:0:0:0:
240,192,20170,2,0,L|192:272,1,77,0|8,0:0|0:0,0:0:0:0:
320,240,20598,2,0,L|368:160,1,77,0|8,0:0|0:0,0:0:0:0:
80,128,21027,6,0,L|0:128,1,77,4|2,1:0|0:0,0:0:0:0:
96,128,21456,2,0,L|176:128,1,77,8|2,0:0|0:0,0:0:0:0:
472,128,21884,2,0,L|356:128,2,115.5,8|8|8,0:0|0:0|0:0,0:0:0:0:
96,160,22741,6,0,L|0:160,1,77,8|2,0:0|0:0,0:0:0:0:
173,160,23170,2,0,L|96:160,1,77,8|2,0:0|0:0,0:0:0:0:
384,128,23598,2,0,L|512:128,2,115.5,8|8|8,0:0|0:0|0:0,0:0:0:0:
96,48,24456,6,0,P|32:104|160:216,1,308,8|8,0:0|0:0,0:0:0:0:
8,272,25634,1,8,0:0:0:0:
128,272,25956,1,8,0:0:0:0:
432,272,26170,5,8,0:0:0:0:
480,224,26277,1,0,3:0:0:0:
472,160,26384,1,0,3:0:0:0:
424,120,26491,1,0,3:0:0:0:
360,112,26598,1,2,0:0:0:0:
136,112,26813,1,0,0:0:0:0:
216,24,27027,5,10,0:0:0:0:
280,24,27134,1,8,0:0:0:0:
344,24,27241,1,8,0:0:0:0:
408,24,27348,1,8,0:0:0:0:
472,32,27456,1,2,0:1:0:0:
344,24,27670,1,2,0:1:0:0:
48,176,27884,6,0,L|16:256,1,77,4|0,0:0|0:0,0:0:0:0:
416,176,28313,2,0,L|464:96,1,77,8|0,0:0|0:0,0:0:0:0:
320,128,28741,1,8,0:0:0:0:
448,128,29063,1,8,0:0:0:0:
64,112,29384,2,0,P|16:160|88:200,1,154,2|0,0:0|0:0,0:0:0:0:
272,240,30027,2,0,L|368:240,1,77,8|0,0:0|0:0,0:0:0:0:
64,240,30456,5,8,0:0:0:0:
288,240,30777,1,8,0:0:0:0:
144,240,31098,2,0,L|80:240,2,38.5,10|8|8,0:0|0:0|0:0,0:0:0:0:
368,240,31741,1,8,0:0:0:0:
160,176,32170,2,0,L|32:176,1,115.5,8|8,0:0|0:0,0:0:0:0:
448,176,32813,1,2,0:0:0:0:
352,176,33027,6,0,L|256:176,1,77,8|2,0:0|0:0,0:0:0:0:
144,288,33456,2,0,L|224:288,1,77,8|2,0:0|0:0,0:0:0:0:
336,272,33884,2,0,L|288:176,1,77,8|2,0:0|0:0,0:0:0:0:
416,176,34313,2,0,L|448:96,1,77,0|8,0:0|0:0,0:0:0:0:
144,64,34741,6,0,P|112:112|176:192,1,154,4|8,1:0|0:0,0:0:0:0:
296,192,35384,1,0,0:0:0:0:
16,192,35598,2,0,L|144:192,2,115.5,8|8|2,0:0|0:0|0:0,0:0:0:0:
304,80,36456,2,0,P|336:144|272:208,1,154,8|8,0:0|0:0,0:0:0:0:
80,208,37098,1,0,0:0:0:0:
384,192,37313,2,0,L|512:192,2,115.5,8|8|8,0:0|0:0|0:0,0:0:0:0:
96,208,38170,5,8,0:0:0:0:
32,192,38277,1,0,0:0:0:0:
16,128,38384,1,2,0:0:0:0:
64,80,38491,1,0,0:0:0:0:
128,96,38598,1,8,0:0:0:0:
176,128,38706,1,0,0:0:0:0:
240,128,38813,1,2,0:0:0:0:
256,64,38920,1,0,0:0:0:0:
208,32,39027,5,8,0:0:0:0:
160,64,39134,1,0,0:0:0:0:
128,128,39241,1,2,0:0:0:0:
160,192,39348,1,8,0:0:0:0:
224,192,39456,1,0,0:0:0:0:
288,208,39563,1,0,0:0:0:0:
320,272,39670,1,8,0:0:0:0:
272,320,39777,1,0,0:0:0:0:
144,320,39884,6,0,L|16:320,2,115.5,8|8|8,0:0|0:0|0:0,0:0:0:0:
448,112,40741,2,0,P|496:168|440:224,1,154,8|2,0:0|0:1,0:0:0:0:
352,256,41384,1,0,0:0:0:0:
32,256,41598,6,0,L|144:256,1,77,4|0,0:0|0:0,0:0:0:0:
403,160,42027,2,0,L|483:160,2,77,8|0|8,0:0|0:0|0:0,0:0:0:0:
168,160,42777,1,8,0:0:0:0:
432,80,43098,6,0,L|512:80,2,77,2|8|0,0:0|0:0|0:0,0:0:0:0:
272,208,43741,2,0,L|352:208,1,77,8|0,0:0|0:0,0:0:0:0:
32,208,44170,5,8,0:0:0:0:
256,208,44491,1,8,0:0:0:0:
80,208,44813,2,0,L|32:208,2,38.5,10|8|8,0:0|0:0|0:0,0:0:0:0:
400,208,45456,1,8,0:0:0:0:
208,208,45884,2,0,L|80:208,2,115.5,8|8|2,0:0|0:0|0:0,0:0:0:0:
64,96,46741,6,0,L|160:96,1,77,8|2,0:0|0:0,0:0:0:0:
256,128,47170,2,0,L|208:208,1,77,8|2,0:0|0:0,0:0:0:0:
344,208,47598,2,0,L|392:272,1,77,8|2,0:0|0:0,0:0:0:0:
240,312,48027,2,0,L|144:312,1,77,0|8,0:0|0:0,0:0:0:0:
448,80,48456,6,0,P|480:160|416:224,1,154,4|8,1:0|0:0,0:0:0:0:
352,208,49098,1,0,0:0:0:0:
16,208,49313,2,0,L|144:208,2,115.5,8|8|2,0:0|0:0|0:0,0:0:0:0:
352,192,50170,6,0,L|480:192,2,115.5,8|0|0,0:0|0:0|0:0,0:0:0:0:
144,176,51027,1,8,0:0:0:0:
304,176,51241,2,0,L|368:176,1,38.5,0|8,0:0|0:0,0:0:0:0:
144,96,51563,2,0,L|96:96,2,38.5,0|2|8,0:0|0:0|0:0,0:0:0:0:
208,96,51884,6,0,P|240:128|176:208,1,154,8|8,0:0|0:0,0:0:0:0:
32,208,52527,1,0,0:0:0:0:
144,208,52741,2,0,L|272:208,2,115.5,8|8|2,0:0|0:0|0:0,0:0:0:0:
448,208,53598,5,0,3:0:0:0:
272,208,53920,1,0,3:0:0:0:
448,208,54241,1,0,3:0:0:0:
80,272,54456,5,8,0:0:0:0:
40,216,54563,1,8,0:0:0:0:
48,152,54670,1,8,0:0:0:0:
104,104,54777,1,8,0:0:0:0:
168,96,54884,1,2,0:0:0:0:
352,96,55098,1,0,0:0:0:0:
256,192,55313,12,0,57777,0:0:0:0:
