osu file format v14

[General]
AudioFilename: ute.mp3
AudioLeadIn: 0
PreviewTime: 27456
Countdown: 0
SampleSet: Soft
StackLeniency: 0.7
Mode: 2
LetterboxInBreaks: 0
WidescreenStoryboard: 0

[Editor]
Bookmarks: 142001
DistanceSpacing: 1.7
BeatDivisor: 4
GridSize: 16
TimelineZoom: 3.199999

[Metadata]
Title:176 - ikazuchi
TitleUnicode:176 - ikazuchi
Artist:saradisk
ArtistUnicode:saradisk
Creator:Ascendance
Version:Destroyer
Source:艦隊これくしょん -艦これ-
Tags:kantai collection kancolle remix fii mbomb Magic_bomb magic_girl kaitlin -wwwww
BeatmapID:925648
BeatmapSetID:424208

[Difficulty]
HPDrainRate:7
CircleSize:4.4
OverallDifficulty:9.5
ApproachRate:9.5
SliderMultiplier:2.24
SliderTickRate:4

[Events]
//Background and Video events
0,0,"cropped-1366-768-567651.jpg",0,0
//Break Periods
//Storyboard Layer 0 (Background)
//Storyboard Layer 1 (Fail)
//Storyboard Layer 2 (Pass)
//Storyboard Layer 3 (Foreground)
//Storyboard Sound Samples

[TimingPoints]
456,428.571428571429,4,2,24,80,1,0
563,-100,4,2,24,70,0,0
7313,-100,4,2,24,70,0,0
12456,-100,4,2,24,90,0,0
13741,-100,4,2,24,70,0,0
14170,-100,4,2,1,70,0,0
14277,-100,4,2,24,70,0,0
19527,-100,4,2,24,80,0,0
19741,-100,4,2,24,70,0,0
19956,-100,4,2,24,80,0,0
20170,-100,4,2,24,70,0,0
20384,-100,4,2,24,80,0,0
20491,-100,4,2,24,70,0,0
21027,-100,4,2,1,70,0,0
21134,-100,4,2,24,70,0,0
27027,-100,4,2,1,70,0,0
27456,-100,4,2,24,70,0,0
27884,-100,4,2,24,80,0,1
27991,-100,4,2,24,70,0,1
33241,-100,4,2,24,90,0,1
33456,-100,4,2,24,70,0,1
33670,-100,4,2,24,90,0,1
33884,-100,4,2,24,70,0,1
34098,-100,4,2,24,90,0,1
34206,-100,4,2,24,70,0,1
34527,-100,4,2,24,90,0,1
34634,-100,4,2,24,70,0,1
40206,-100,4,2,24,80,0,1
40527,-100,4,2,24,85,0,1
40741,-100,4,2,1,70,0,1
41170,-100,4,2,24,70,0,0
41598,-100,4,2,25,85,0,1
41706,-100,4,2,25,85,0,1
53920,-100,4,2,25,90,0,1
54241,-100,4,2,25,95,0,1
54456,-100,4,2,1,85,0,1
54884,-100,4,2,24,70,0,0
55098,-100,4,2,24,100,0,0
55313,-100,4,2,24,80,0,0
55741,-100,4,2,1,55,0,0
56170,-100,4,2,1,40,0,0
56598,-100,4,2,1,20,0,0
57027,-100,4,2,1,15,0,0
57456,-100,4,2,1,10,0,0

[Colours]
Combo1 : 214,145,112
Combo2 : 128,255,255
Combo3 : 240,235,9
Combo4 : 231,99,102
Combo5 : 63,157,226

[HitObjects]
224,96,27,5,0,0:0:0:0:
48,96,241,1,0,0:0:0:0:
480,80,456,6,0,P|490:135|464:208,1,112,12|2,0:0|0:0,0:0:0:0:
208,176,884,2,0,L|320:176,1,112,8|2,0:0|0:0,0:0:0:0:
32,80,1313,2,0,P|32:144|80:192,1,112,8|0,0:0|0:0,0:0:0:0:
320,160,1634,2,0,L|384:272,1,112,8|0,0:0|0:0,0:0:0:0:
144,240,1956,2,0,L|112:288,1,56,8|8,0:0|0:0,0:0:0:0:
368,128,2170,6,0,L|496:128,1,112,8|2,0:0|0:0,0:0:0:0:
208,64,2598,2,0,P|176:128|240:160,1,112,8|2,0:0|0:0,0:0:0:0:
496,176,3027,2,0,L|368:176,1,112,8|0,0:0|0:0,0:0:0:0:
144,128,3348,2,0,L|256:128,1,112,8|0,0:0|0:0,0:0:0:0:
80,224,3670,2,0,L|16:224,1,56,8|0,0:0|0:0,0:0:0:0:
320,128,3884,6,0,L|224:192,1,112,8|2,0:0|0:0,0:0:0:0:
496,192,4313,2,0,L|416:272,1,112,8|2,0:0|0:0,0:0:0:0:
48,192,4741,2,0,L|160:128,1,112,8|0,0:0|0:0,0:0:0:0:
320,208,5063,2,0,L|208:176,1,112,8|0,0:0|0:0,0:0:0:0:
400,128,5384,2,0,L|464:128,1,56,8|0,0:0|0:0,0:0:0:0:
48,144,5599,5,8,0:0:0:0:
80,224,7313,6,0,L|16:224,2,56,8|0|2,0:0|0:0|0:0,0:0:0:0:
160,224,7634,1,0,0:0:0:0:
400,224,7741,2,0,L|464:224,2,56,8|0|2,0:0|0:0|0:0,0:0:0:0:
336,224,8063,1,0,0:0:0:0:
112,144,8170,6,0,L|48:144,1,56,8|0,0:0|0:0,0:0:0:0:
224,144,8384,1,0,0:0:0:0:
432,144,8491,2,0,L|496:144,1,56,8|0,0:0|0:0,0:0:0:0:
320,144,8706,1,0,0:0:0:0:
112,144,8813,2,0,L|176:144,1,56,8|0,0:0|0:0,0:0:0:0:
384,80,9027,5,8,0:0:0:0:
432,144,9134,1,0,0:0:0:0:
416,224,9241,1,2,0:0:0:0:
336,256,9348,1,0,0:0:0:0:
64,256,9456,5,8,0:0:0:0:
144,256,9563,1,0,0:0:0:0:
448,256,9670,1,2,0:0:0:0:
368,256,9777,1,0,0:0:0:0:
144,64,9884,5,8,0:0:0:0:
96,128,9991,1,0,0:0:0:0:
144,192,10098,1,0,0:0:0:0:
352,192,10206,5,8,0:0:0:0:
432,192,10313,1,0,0:0:0:0:
352,192,10420,1,0,0:0:0:0:
160,256,10527,2,0,L|96:256,1,56,8|0,0:0|0:0,0:0:0:0:
320,176,10741,6,0,P|367:142|400:80,1,112,8|2,0:0|0:0,0:0:0:0:
320,80,11063,1,0,0:0:0:0:
80,96,11170,2,0,L|176:176,1,112,8|2,0:0|0:0,0:0:0:0:
96,160,11491,1,0,0:0:0:0:
336,160,11598,6,0,L|400:160,2,56,8|0|0,0:0|0:0|0:0,0:0:0:0:
96,240,11920,2,0,L|16:240,2,56,8|0|0,0:0|0:0|0:0,0:0:0:0:
288,240,12241,2,0,L|224:240,1,56,8|0,0:0|0:0,0:0:0:0:
400,240,12456,6,0,L|512:240,1,112,0|0,0:0|0:0,0:0:0:0:
464,240,12777,1,0,0:0:0:0:
272,240,12884,2,0,L|144:240,1,112,0|0,0:0|0:0,0:0:0:0:
208,240,13206,1,0,0:0:0:0:
464,176,13313,6,0,L|336:176,1,112,0|0,0:0|0:0,0:0:0:0:
400,176,13634,1,0,0:0:0:0:
112,256,13741,2,0,L|48:256,1,56,2|0,0:1|0:0,0:0:0:0:
368,128,13956,2,0,L|432:128,1,56,2|0,0:1|0:0,0:0:0:0:
128,80,14170,6,0,L|208:192,1,112,4|2,0:1|0:0,0:0:0:0:
384,144,14598,2,0,L|320:256,1,112,8|2,0:0|0:0,0:0:0:0:
128,256,15027,2,0,L|240:256,1,112,8|0,0:0|0:0,0:0:0:0:
432,128,15348,2,0,L|320:128,1,112,8|0,0:0|0:0,0:0:0:0:
128,96,15670,2,0,L|192:96,1,56,8|0,0:0|0:0,0:0:0:0:
432,96,15884,6,0,L|320:96,1,112,8|2,0:0|0:0,0:0:0:0:
32,272,16313,2,0,P|16:208|32:160,1,112,8|2,0:0|0:0,0:0:0:0:
336,128,16741,2,0,L|448:176,1,112,8|0,0:0|0:0,0:0:0:0:
160,208,17063,2,0,P|112:240|160:288,1,112,8|0,0:0|0:0,0:0:0:0:
432,288,17384,1,8,0:0:0:0:
256,288,17491,1,0,0:0:0:0:
64,288,17598,6,0,L|32:176,1,112,8|2,0:0|0:0,0:0:0:0:
400,192,18027,2,0,L|464:96,1,112,8|2,0:0|0:0,0:0:0:0:
144,96,18456,2,0,L|32:96,1,112,8|0,0:0|0:0,0:0:0:0:
272,144,18777,2,0,L|128:144,1,112,8|0,0:0|0:0,0:0:0:0:
432,256,19098,2,0,L|368:256,1,56,8|0,0:0|0:0,0:0:0:0:
96,256,19313,5,10,0:0:0:0:
48,192,19420,1,0,0:0:0:0:
144,192,19527,1,2,0:1:0:0:
432,272,19741,1,10,0:0:0:0:
480,208,19848,1,0,0:0:0:0:
384,208,19956,1,2,0:1:0:0:
96,112,20170,5,10,0:0:0:0:
16,112,20277,1,0,0:0:0:0:
224,112,20384,1,2,0:1:0:0:
144,112,20491,1,8,0:0:0:0:
368,112,20598,5,2,0:1:0:0:
448,112,20705,1,0,0:0:0:0:
208,112,20812,1,10,0:0:0:0:
288,112,20920,1,8,0:0:0:0:
48,160,21027,6,0,P|16:208|64:224,1,112,4|2,0:1|0:0,0:0:0:0:
416,160,21456,2,0,P|448:208|400:224,1,112,8|2,0:0|0:0,0:0:0:0:
131,227,21884,2,0,L|19:227,1,112,8|0,0:0|0:0,0:0:0:0:
288,192,22206,2,0,L|400:128,1,112,8|0,0:0|0:0,0:0:0:0:
160,112,22527,2,0,L|96:112,1,56,8|0,0:0|0:0,0:0:0:0:
304,112,22741,6,0,L|192:112,1,112,8|2,0:0|0:0,0:0:0:0:
464,224,23170,2,0,L|464:336,1,112,8|2,0:0|0:0,0:0:0:0:
176,288,23598,2,0,L|304:288,1,112,8|0,0:0|0:0,0:0:0:0:
96,160,23920,2,0,L|0:96,1,112,8|0,0:0|0:0,0:0:0:0:
224,64,24241,2,0,L|288:64,1,56,8|0,0:0|0:0,0:0:0:0:
112,128,24456,6,0,L|64:240,1,112,8|2,0:0|0:0,0:0:0:0:
384,224,24884,2,0,L|496:224,1,112,8|2,0:0|0:0,0:0:0:0:
144,128,25313,2,0,L|96:240,1,112,8|0,0:0|0:0,0:0:0:0:
336,128,25634,2,0,L|224:128,1,112,8|0,0:0|0:0,0:0:0:0:
432,224,25956,2,0,L|496:224,1,56,8|0,0:0|0:0,0:0:0:0:
80,64,26170,5,8,0:0:0:0:
32,144,26277,1,0,0:0:0:0:
96,208,26384,1,8,0:0:0:0:
272,208,26491,1,0,0:0:0:0:
448,208,26598,2,0,L|512:208,1,56,8|0,0:0|0:0,0:0:0:0:
96,272,26813,2,0,L|16:272,1,56,8|0,0:0|0:0,0:0:0:0:
336,272,27027,5,8,0:0:0:0:
384,208,27134,1,8,0:0:0:0:
384,128,27241,1,8,0:0:0:0:
320,80,27348,1,8,0:0:0:0:
112,64,27456,2,0,L|32:64,1,56,2|0,0:1|0:0,0:0:0:0:
424,64,27670,2,0,L|368:64,1,56,2|0,0:1|0:0,0:0:0:0:
112,144,27884,6,0,P|64:208|128:256,1,168,14|0,0:1|0:0,0:0:0:0:
288,256,28313,2,0,L|368:256,1,56,10|0,0:1|0:0,0:0:0:0:
160,256,28527,2,0,L|96:256,1,56,2|0,0:0|0:0,0:0:0:0:
384,80,28741,5,10,0:1:0:0:
464,80,28848,1,0,0:0:0:0:
384,96,28956,1,0,0:0:0:0:
176,80,29063,1,10,0:1:0:0:
128,144,29170,2,0,L|208:144,1,56,0|0,0:0|0:0,0:0:0:0:
416,256,29384,2,0,L|320:256,1,56,10|0,0:1|0:0,0:0:0:0:
24,160,29598,6,0,L|80:160,1,56,10|0,0:1|0:0,0:0:0:0:
304,160,29813,2,0,L|360:160,1,56,2|0,0:1|0:0,0:0:0:0:
160,192,30027,2,0,L|32:192,1,112,10|2,0:0|0:1,0:0:0:0:
96,192,30348,1,0,0:0:0:0:
448,192,30456,6,0,L|512:192,2,56,10|0|0,0:1|0:0|0:0,0:0:0:0:
192,192,30777,2,0,L|128:192,2,56,10|0|2,0:1|0:0|0:1,0:0:0:0:
400,192,31098,2,0,L|464:192,1,56,10|0,0:1|0:0,0:0:0:0:
128,80,31313,6,0,P|76:114|48:176,1,112,10|2,0:1|0:1,0:0:0:0:
112,160,31634,1,0,0:0:0:0:
352,128,31741,2,0,L|432:224,1,112,10|2,0:0|0:1,0:0:0:0:
368,240,32063,1,0,0:0:0:0:
112,224,32170,6,0,L|48:224,2,56,10|0|0,0:1|0:0|0:0,0:0:0:0:
368,96,32491,1,10,0:1:0:0:
432,176,32598,1,0,0:0:0:0:
368,240,32706,1,0,0:0:0:0:
176,240,32813,2,0,L|96:240,1,56,10|0,0:1|0:0,0:0:0:0:
384,160,33027,6,0,L|464:80,1,112,10|2,0:1|0:1,0:0:0:0:
400,80,33348,1,0,0:0:0:0:
64,80,33456,2,0,L|160:192,1,112,10|2,0:0|0:1,0:0:0:0:
80,176,33777,1,0,0:0:0:0:
320,144,33884,6,0,L|256:256,1,112,10|2,0:1|0:1,0:0:0:0:
320,240,34206,1,8,0:0:0:0:
112,64,34313,2,0,L|64:176,1,112,2|10,0:1|0:1,0:0:0:0:
128,160,34634,1,8,0:0:0:0:
416,80,34741,6,0,P|432:160|368:256,1,168,10|0,0:1|0:0,0:0:0:0:
128,224,35170,2,0,L|256:224,1,112,10|2,0:1|0:0,0:0:0:0:
192,224,35491,1,0,0:0:0:0:
416,208,35598,6,0,L|480:208,2,56,10|0|0,0:1|0:0|0:0,0:0:0:0:
128,112,35920,2,0,L|64:112,2,56,10|0|0,0:1|0:0|0:0,0:0:0:0:
336,112,36241,2,0,L|400:112,1,56,10|0,0:1|0:0,0:0:0:0:
112,160,36456,6,0,P|64:224|128:256,1,168,10|0,0:1|0:0,0:0:0:0:
400,272,36884,2,0,L|288:272,1,112,10|2,0:1|0:0,0:0:0:0:
336,272,37206,1,0,0:0:0:0:
80,80,37313,5,10,0:1:0:0:
16,144,37420,1,0,0:0:0:0:
80,208,37527,1,0,0:0:0:0:
384,208,37634,1,10,0:1:0:0:
448,160,37741,1,0,0:0:0:0:
384,112,37848,1,2,0:1:0:0:
96,48,37956,2,0,L|40:48,1,56,10|0,0:1|0:0,0:0:0:0:
416,48,38170,6,0,L|472:48,1,56,10|2,0:1|0:0,0:0:0:0:
240,112,38384,1,2,0:0:0:0:
192,192,38491,1,0,0:0:0:0:
416,192,38598,1,10,0:1:0:0:
448,272,38706,1,2,0:0:0:0:
240,272,38813,2,0,L|176:272,1,56,2|0,0:0|0:0,0:0:0:0:
0,272,39027,6,0,L|56:272,1,56,10|2,0:1|0:0,0:0:0:0:
224,272,39241,1,2,0:0:0:0:
304,272,39348,1,10,0:1:0:0:
512,224,39456,1,2,0:0:0:0:
432,224,39563,1,2,0:0:0:0:
224,192,39670,2,0,L|288:192,1,56,10|2,0:1|0:0,0:0:0:0:
64,48,39884,6,0,L|48:192,1,112,10|0,0:1|0:0,0:0:0:0:
384,128,40206,2,0,L|400:272,1,112,10|0,0:0|0:0,0:0:0:0:
96,144,40527,2,0,L|0:144,1,56,10|0,0:0|0:0,0:0:0:0:
272,144,40741,2,0,L|352:144,1,56,8|8,0:0|0:0,0:0:0:0:
504,144,40956,2,0,L|448:144,1,56,8|0,0:0|0:0,0:0:0:0:
96,80,41170,2,0,P|85:142|128:208,1,112,2|2,0:1|0:0,0:0:0:0:
432,160,41598,6,0,P|480:224|416:256,1,168,10|0,0:1|0:0,0:0:0:0:
144,256,42027,2,0,L|112:176,1,56,10|0,0:1|0:0,0:0:0:0:
384,112,42241,2,0,L|400:48,1,56,2|0,0:0|0:0,0:0:0:0:
176,64,42456,5,10,0:1:0:0:
128,128,42563,1,0,0:0:0:0:
176,192,42670,1,2,0:0:0:0:
352,192,42777,1,10,0:1:0:0:
432,176,42884,2,0,L|496:176,1,56,0|0,0:0|0:0,0:0:0:0:
112,192,43098,2,0,L|32:192,1,56,10|0,0:1|0:0,0:0:0:0:
368,64,43313,5,10,0:1:0:0:
416,144,43420,1,0,0:0:0:0:
416,240,43527,1,2,0:1:0:0:
352,320,43634,1,0,0:0:0:0:
176,224,43741,2,0,L|48:224,1,112,10|2,0:0|0:1,0:0:0:0:
112,224,44063,1,0,0:0:0:0:
336,192,44170,6,0,L|400:80,1,112,10|2,0:1|0:1,0:0:0:0:
112,112,44491,2,0,L|192:208,1,112,10|2,0:1|0:1,0:0:0:0:
352,96,44813,2,0,L|288:96,1,56,10|2,0:1|0:1,0:0:0:0:
80,96,45027,5,10,0:1:0:0:
160,160,45134,1,0,0:1:0:0:
80,208,45241,1,2,0:1:0:0:
160,256,45348,1,0,0:0:0:0:
432,240,45456,2,0,L|320:240,1,112,10|2,0:1|0:1,0:0:0:0:
368,240,45777,1,0,0:0:0:0:
64,224,45884,6,0,L|144:128,1,112,10|2,0:1|0:0,0:0:0:0:
384,192,46206,2,0,L|304:96,1,112,10|0,0:1|0:0,0:0:0:0:
80,208,46527,2,0,L|160:208,1,56,10|0,0:1|0:0,0:0:0:0:
384,256,46741,6,0,L|496:256,1,112,10|2,0:1|0:1,0:0:0:0:
448,256,47063,1,0,0:0:0:0:
96,80,47170,2,0,L|240:80,1,112,10|2,0:1|0:1,0:0:0:0:
160,80,47491,1,0,0:0:0:0:
336,96,47598,6,0,L|448:96,1,112,10|2,0:1|0:1,0:0:0:0:
400,96,47920,1,10,0:1:0:0:
64,160,48027,2,0,L|176:160,1,112,2|10,0:1|0:1,0:0:0:0:
128,160,48348,1,8,0:0:0:0:
384,144,48456,6,0,P|432:208|352:240,1,168,10|0,0:1|0:0,0:0:0:0:
112,240,48884,2,0,L|48:240,1,56,10|0,0:1|0:0,0:0:0:0:
224,144,49098,2,0,L|240:80,1,56,2|0,0:0|0:0,0:0:0:0:
416,96,49313,6,0,L|448:224,1,112,10|2,0:1|0:0,0:0:0:0:
192,160,49634,2,0,L|144:272,1,112,10|0,0:1|0:0,0:0:0:0:
336,256,49956,2,0,L|400:256,1,56,10|0,0:1|0:0,0:0:0:0:
128,80,50170,6,0,P|96:160|160:192,1,168,10|0,0:1|0:0,0:0:0:0:
464,176,50598,2,0,L|352:176,1,112,10|2,0:1|0:0,0:0:0:0:
416,176,50920,1,0,0:0:0:0:
128,192,51027,6,0,L|64:192,2,56,10|0|2,0:1|0:0|0:0,0:0:0:0:
384,192,51348,2,0,L|448:192,2,56,10|2|2,0:1|0:0|0:1,0:0:0:0:
176,128,51670,2,0,L|112:128,1,56,10|8,0:1|0:0,0:0:0:0:
448,96,51884,6,0,L|512:96,1,56,2|0,0:1|0:0,0:0:0:0:
288,112,52098,2,0,L|272:48,1,56,2|0,0:1|0:0,0:0:0:0:
112,160,52313,2,0,L|-16:160,1,112,2|2,0:1|0:1,0:0:0:0:
48,160,52634,1,0,0:0:0:0:
320,160,52741,6,0,L|400:64,1,112,2|2,0:1|0:0,0:0:0:0:
144,128,53063,2,0,P|95:103|48:48,1,112,2|0,0:1|0:0,0:0:0:0:
384,192,53384,2,0,L|448:192,1,56,2|0,0:1|0:0,0:0:0:0:
96,176,53598,6,0,L|48:304,1,112,10|0,0:1|0:0,0:0:0:0:
368,192,53920,2,0,L|432:96,1,112,8|0,0:0|0:0,0:0:0:0:
176,128,54241,2,0,L|208:208,1,56,8|0,0:0|0:0,0:0:0:0:
384,160,54456,5,8,0:0:0:0:
480,160,54563,1,8,0:0:0:0:
112,160,54670,1,8,0:0:0:0:
32,160,54777,1,8,0:0:0:0:
304,160,54884,6,0,L|384:160,1,56,2|2,0:1|0:0,0:0:0:0:
96,160,55098,1,0,0:0:0:0:
240,160,55313,1,4,0:0:0:0:
256,192,55420,12,0,57777,0:0:0:0:
