osu file format v14

[General]
AudioFilename: ute.mp3
AudioLeadIn: 0
PreviewTime: 27456
Countdown: 0
SampleSet: Soft
StackLeniency: 0.7
Mode: 2
LetterboxInBreaks: 0
WidescreenStoryboard: 0

[Editor]
Bookmarks: 142001
DistanceSpacing: 1.7
BeatDivisor: 4
GridSize: 16
TimelineZoom: 3.199999

[Metadata]
Title:176 - ikazuchi
TitleUnicode:176 - ikazuchi
Artist:saradisk
ArtistUnicode:saradisk
Creator:Ascendance
Version:Cup
Source:艦隊これくしょん -艦これ-
Tags:kantai collection kancolle remix fii mbomb Magic_bomb magic_girl kaitlin -wwwww
BeatmapID:925699
BeatmapSetID:424208

[Difficulty]
HPDrainRate:3
CircleSize:2.5
OverallDifficulty:6
ApproachRate:6
SliderMultiplier:1.14
SliderTickRate:2

[Events]
//Background and Video events
0,0,"stretched-1366-768-578555.jpg",0,0
//Break Periods
//Storyboard Layer 0 (Background)
//Storyboard Layer 1 (Fail)
//Storyboard Layer 2 (Pass)
//Storyboard Layer 3 (Foreground)
//Storyboard Sound Samples

[TimingPoints]
456,428.571428571429,4,2,1,60,1,0
7313,-100,4,2,1,80,0,0
12456,-100,4,2,1,70,0,0
14170,-100,4,2,1,80,0,0
27884,-100,4,2,1,80,0,1
27991,-100,4,2,1,90,0,1
41170,-100,4,2,1,90,0,0
41598,-100,4,2,1,80,0,1
41706,-100,4,2,1,100,0,1
54884,-100,4,2,1,100,0,0
55313,-100,4,2,2,70,0,0
57777,-100,4,2,2,5,0,0

[Colours]
Combo1 : 214,145,112
Combo2 : 128,255,255
Combo3 : 240,235,9
Combo4 : 231,99,102
Combo5 : 63,157,226

[HitObjects]
80,64,456,6,0,P|32:128|128:224,1,228,12|8,0:0|0:0,0:0:0:0:
240,224,1634,1,0,0:0:0:0:
368,80,2170,6,0,P|416:144|320:240,1,228,10|8,0:0|0:0,0:0:0:0:
208,240,3348,1,8,0:0:0:0:
336,240,3884,6,0,L|480:48,1,228,10|8,0:0|0:0,0:0:0:0:
352,48,5063,1,8,0:0:0:0:
160,48,5598,1,10,0:0:0:0:
256,240,7313,6,0,L|304:128,1,114,4|8,1:0|0:0,0:0:0:0:
192,128,8170,2,0,L|160:48,2,85.5,8|8|8,0:0|0:0|0:0,0:0:0:0:
288,192,9027,2,0,L|416:192,1,114,8|8,0:0|0:0,0:0:0:0:
272,192,9884,2,0,L|224:112,2,85.5,8|8|8,0:0|0:0|0:0,0:0:0:0:
176,256,10741,6,0,L|48:256,1,114,8|8,0:0|0:0,0:0:0:0:
176,192,11598,2,0,L|240:112,2,85.5,8|8|8,0:0|0:0|0:0,0:0:0:0:
272,272,12456,6,0,L|400:272,1,114,8|0,0:0|0:0,0:0:0:0:
272,176,13313,2,0,L|272:48,1,114,0|2,0:0|0:1,0:0:0:0:
432,96,14170,6,0,P|464:144|384:288,1,228,4|8,1:0|0:0,0:0:0:0:
256,288,15348,1,8,0:0:0:0:
399,283,15884,2,0,L|239:107,1,228,8|8,0:0|0:0,0:0:0:0:
352,96,17063,1,8,0:0:0:0:
176,96,17598,6,0,P|128:144|224:224,1,228,8|8,0:0|0:0,0:0:0:0:
352,240,18777,1,8,0:0:0:0:
224,240,19313,5,8,0:0:0:0:
64,240,19741,1,8,0:0:0:0:
224,240,20170,1,0,0:0:0:0:
400,240,20598,1,0,0:0:0:0:
288,160,21027,6,0,L|384:80,1,114,4|8,1:0|0:0,0:0:0:0:
240,64,21884,2,0,L|144:64,2,85.5,8|8|8,0:0|0:0|0:0,0:0:0:0:
368,80,22741,2,0,L|288:176,1,114,8|8,0:0|0:0,0:0:0:0:
176,176,23598,2,0,L|80:176,2,85.5,8|8|8,0:0|0:0|0:0,0:0:0:0:
288,240,24456,6,0,P|352:224|240:80,1,342,8|0,0:0|0:0,0:0:0:0:
128,64,26170,2,0,L|16:64,2,85.5,8|0|0,0:0|3:0|0:0,0:0:0:0:
224,64,27027,2,0,L|320:64,2,85.5,10|8|2,0:0|0:0|0:1,0:0:0:0:
110,64,27884,6,0,L|238:64,1,114,4|8,0:0|0:0,0:0:0:0:
112,224,28741,1,8,0:0:0:0:
240,224,29063,1,8,0:0:0:0:
112,224,29384,2,0,P|64:192|112:112,1,171,2|8,0:0|0:0,0:0:0:0:
256,112,30456,6,0,L|368:112,2,85.5,8|8|10,0:0|0:0|0:0,0:0:0:0:
160,112,31313,2,0,L|32:112,1,114,8|8,0:0|0:0,0:0:0:0:
144,192,32170,2,0,L|80:272,2,85.5,8|8|2,0:0|0:0|0:0,0:0:0:0:
272,112,33027,6,0,L|400:112,1,114,8|8,0:0|0:0,0:0:0:0:
288,224,33884,2,0,L|160:224,1,114,8|0,0:0|0:0,0:0:0:0:
16,224,34741,6,0,L|144:224,1,114,4|8,1:0|0:0,0:0:0:0:
272,224,35598,2,0,L|384:224,2,85.5,8|8|2,0:0|0:0|0:0,0:0:0:0:
144,176,36456,2,0,L|64:96,1,114,8|8,0:0|0:0,0:0:0:0:
224,80,37313,2,0,L|138:80,2,85.5,8|8|8,0:0|0:0|0:0,0:0:0:0:
352,80,38170,6,0,L|480:80,1,114,8|8,0:0|0:0,0:0:0:0:
384,80,38813,1,2,0:0:0:0:
272,80,39027,2,0,L|144:80,1,114,8|0,0:0|0:0,0:0:0:0:
224,80,39670,1,8,0:0:0:0:
96,160,39884,6,0,L|0:160,2,85.5,8|8|8,0:0|0:0|0:0,0:0:0:0:
224,160,40741,2,0,P|256:208|288:272,1,114,8|2,0:0|0:1,0:0:0:0:
112,272,41598,6,0,P|64:240|0:192,1,114,4|8,0:0|0:0,0:0:0:0:
128,192,42456,1,8,0:0:0:0:
256,192,42777,1,8,0:0:0:0:
128,192,43098,2,0,L|304:192,1,171,2|8,0:0|0:0,0:0:0:0:
176,128,44170,2,0,L|80:96,2,85.5,8|8|10,0:0|0:0|0:0,0:0:0:0:
288,128,45027,6,0,L|416:128,1,114,8|8,0:0|0:0,0:0:0:0:
304,224,45884,2,0,L|208:224,2,85.5,8|8|2,0:0|0:0|0:0,0:0:0:0:
416,224,46741,5,8,0:0:0:0:
311,144,47170,1,8,0:0:0:0:
151,144,47598,1,8,0:0:0:0:
16,144,48027,1,0,0:0:0:0:
208,144,48456,6,0,L|336:144,1,114,4|8,1:0|0:0,0:0:0:0:
192,144,49313,2,0,L|112:192,2,85.5,8|8|2,0:0|0:0|0:0,0:0:0:0:
304,144,50170,2,0,P|336:192|288:240,1,114,8|8,0:0|0:0,0:0:0:0:
176,240,51027,2,0,L|80:240,2,85.5,8|8|2,0:0|0:0|0:0,0:0:0:0:
288,240,51884,6,0,P|304:208|272:128,1,114,8|8,0:0|0:0,0:0:0:0:
128,128,52741,2,0,L|32:128,2,85.5,8|8|2,0:0|0:0|0:0,0:0:0:0:
240,128,53598,2,0,L|352:128,2,85.5,0|0|0,3:0|3:0|3:0,0:0:0:0:
144,128,54456,2,0,L|80:128,1,57,8|8,0:0|0:0,0:0:0:0:
192,128,54884,5,2,0:0:0:0:
256,192,55313,12,0,57777,0:0:0:0:
