osu file format v14

[General]
AudioFilename: audio192.mp3
AudioLeadIn: 0
PreviewTime: 27456
Countdown: 0
SampleSet: Normal
StackLeniency: 0.6
Mode: 0
LetterboxInBreaks: 0
WidescreenStoryboard: 1

[Editor]
Bookmarks: 456,7313,14170,21027,27884,34741,41598,48456,54884
DistanceSpacing: 1.1
BeatDivisor: 4
GridSize: 4
TimelineZoom: 2.099999

[Metadata]
Title:176 - ikazuchi
TitleUnicode:176 - ikazuchi
Artist:saradisk
ArtistUnicode:saradisk
Creator:[-obee58-]
Version:Hyper (WIP)
Source:
Tags:slider anime kancolle fleet girls gd plz need thancc
BeatmapID:1464279
BeatmapSetID:587421

[Difficulty]
HPDrainRate:5.5
CircleSize:3.8
OverallDifficulty:7
ApproachRate:7.5
SliderMultiplier:1.8
SliderTickRate:1

[Events]
//Background and Video events
0,0,"moebg.jpg",0,0
//Break Periods
//Storyboard Layer 0 (Background)
//Storyboard Layer 1 (Fail)
//Storyboard Layer 2 (Pass)
//Storyboard Layer 3 (Foreground)
//Storyboard Sound Samples

[TimingPoints]
129,428.571428571429,4,1,1,60,1,0
129,-133.333333333333,4,1,1,60,0,0
558,428.571428571429,4,1,2,80,1,1
558,-90.9090909090909,4,1,2,80,0,1
665,-90.9090909090909,4,1,1,80,0,1
986,-90.9090909090909,4,1,1,80,0,0
5700,-100,4,1,1,80,0,0
6129,-100,4,1,1,20,0,0
7415,-90.9090909090909,4,1,1,80,0,0
12558,-111.111111111111,4,1,1,80,0,0
13843,-111.111111111111,4,1,3,80,0,0
14272,-90.9090909090909,4,1,1,80,0,0
19415,-100,4,1,3,80,0,0
21129,-90.9090909090909,4,1,1,80,0,0
27558,-90.9090909090909,4,1,3,80,0,0
27986,-83.3333333333333,4,1,2,80,0,0
33129,-83.3333333333333,4,1,3,80,0,0
34843,-83.3333333333333,4,1,2,80,0,0
41272,-100,4,1,3,80,0,0
41700,-83.3333333333333,4,1,1,80,0,1
41915,-83.3333333333333,4,1,3,80,0,1
48558,-83.3333333333333,4,1,1,80,0,1
48665,-83.3333333333333,4,1,3,80,0,1
54986,-83.3333333333333,4,1,3,80,0,0
55415,-83.3333333333333,4,1,2,80,0,1
55843,-83.3333333333333,4,1,1,60,0,0
56272,-83.3333333333333,4,1,1,40,0,0
56700,-83.3333333333333,4,1,1,30,0,0
57129,-83.3333333333333,4,1,1,20,0,0
57558,-83.3333333333333,4,1,1,10,0,0
57986,-83.3333333333333,4,1,1,5,0,0

[HitObjects]
474,253,129,5,2,0:0:0:0:
474,253,558,6,2,B|427:234|427:234|379:241,1,99.0000030212403,14|0,0:0|0:0,0:0:0:0:
279,306,986,2,2,B|231:312|231:312|184:294,1,99.0000030212403,10|0,0:0|0:0,0:0:0:0:
72,251,1415,2,2,P|56:208|65:152,1,99.0000030212403,10|0,0:0|0:0,0:0:0:0:
103,128,1736,2,2,P|119:85|110:29,1,99.0000030212403,10|0,0:0|0:0,0:0:0:0:
75,0,2058,1,10,0:0:0:0:
191,23,2272,6,2,L|292:11,1,99.0000030212403,10|0,0:0|0:0,0:0:0:0:
384,82,2700,2,2,L|482:93,1,99.0000030212403,10|0,0:0|0:0,0:0:0:0:
423,197,3129,2,2,P|380:213|324:204,1,99.0000030212403,10|0,0:0|0:0,0:0:0:0:
300,167,3450,2,2,P|257:151|201:160,1,99.0000030212403,10|0,0:0|0:0,0:0:0:0:
171,195,3772,2,2,L|166:247,1,49.5000015106202,10|8,0:0|0:0,0:0:0:0:
161,298,3986,6,2,B|207:280|207:280|259:290,1,99.0000030212403,10|0,0:0|0:0,0:0:0:0:
363,308,4415,2,2,B|411:317|411:317|457:299,1,99.0000030212403,10|0,0:0|0:0,0:0:0:0:
475,192,4843,2,2,P|484:142|469:96,1,99.0000030212403,10|0,0:0|0:0,0:0:0:0:
431,65,5165,2,2,P|381:56|335:71,1,99.0000030212403,10|0,0:0|0:0,0:0:0:0:
304,108,5486,1,2,0:0:0:0:
304,108,5700,1,4,0:0:0:0:
128,348,7415,6,8,P|122:315|144:253,1,99.0000030212403,8|2,0:0|0:0,0:0:0:0:
75,170,7843,2,8,P|85:138|75:73,1,99.0000030212403,8|2,0:0|0:0,0:0:0:0:
168,16,8272,2,0,L|272:24,1,99.0000030212403,8|2,0:0|0:0,0:0:0:0:
306,60,8593,2,0,L|410:52,1,99.0000030212403,8|2,0:0|0:0,0:0:0:0:
459,47,8915,2,0,L|451:102,1,49.5000015106202,8|2,0:0|0:0,0:0:0:0:
443,149,9129,6,8,P|410:154|348:132,1,99.0000030212403,8|2,0:0|0:0,0:0:0:0:
254,187,9557,2,8,P|222:176|157:186,1,99.0000030212403,8|2,0:0|0:0,0:0:0:0:
71,252,9986,2,0,L|73:351,1,99.0000030212403,8|2,0:0|0:0,0:0:0:0:
121,376,10308,2,0,L|220:374,1,99.0000030212403,8|2,0:0|0:0,0:0:0:0:
269,350,10629,1,8,0:0:0:0:
269,350,10736,1,10,0:0:0:0:
269,350,10843,6,0,P|281:314|279:254,1,99.0000030212403,8|2,0:0|0:0,0:0:0:0:
325,154,11272,2,0,P|313:118|315:58,1,99.0000030212403,8|2,0:0|0:0,0:0:0:0:
208,79,11700,2,0,L|107:94,1,99.0000030212403,8|2,0:0|0:0,0:0:0:0:
55,101,12022,2,0,L|70:202,1,99.0000030212403,8|2,0:0|0:0,0:0:0:0:
79,252,12343,2,0,L|133:243,1,49.5000015106202,8|2,0:0|0:0,0:0:0:0:
172,236,12558,5,8,0:0:0:0:
209,61,12986,1,0,0:0:0:0:
339,183,13415,1,0,0:0:0:0:
165,144,13843,1,4,0:0:0:0:
136,147,13950,1,0,0:0:0:0:
107,150,14058,1,4,0:0:0:0:
79,154,14165,1,0,0:0:0:0:
52,158,14272,6,0,B|36:203|36:203|49:256,1,99.0000030212403,14|0,0:0|0:0,0:0:0:0:
131,337,14700,2,0,B|176:353|176:353|229:340,1,99.0000030212403,10|0,0:0|0:0,0:0:0:0:
340,307,15129,2,0,L|351:208,1,99.0000030212403,10|0,0:0|0:0,0:0:0:0:
390,178,15450,2,0,L|379:79,1,99.0000030212403,10|0,0:0|0:0,0:0:0:0:
373,30,15772,1,10,0:0:0:0:
308,129,15986,6,0,B|261:145|261:145|214:132,1,99.0000030212403,10|0,0:0|0:0,0:0:0:0:
101,89,16415,2,0,B|54:73|54:73|7:86,1,99.0000030212403,10|0,0:0|0:0,0:0:0:0:
51,195,16843,2,0,P|64:246|51:295,1,99.0000030212403,10|0,0:0|0:0,0:0:0:0:
22,329,17165,2,0,P|73:316|122:329,1,99.0000030212403,10|0,0:0|0:0,0:0:0:0:
157,355,17486,2,8,L|211:347,1,49.5000015106202,10|8,0:0|0:0,0:0:0:0:
251,317,17700,6,0,L|353:332,1,99.0000030212403,10|0,0:0|0:0,0:0:0:0:
372,214,18129,2,0,L|274:199,1,99.0000030212403,10|0,0:0|0:0,0:0:0:0:
170,258,18558,2,0,B|121:270|121:270|77:248,1,99.0000030212403,10|0,0:0|0:0,0:0:0:0:
44,211,18879,2,0,B|32:162|32:162|54:118,1,99.0000030212403,10|0,0:0|0:0,0:0:0:0:
79,76,19200,1,10,0:0:0:0:
182,109,19415,6,0,L|280:101,1,90,12|0,0:0|0:0,0:0:0:0:
355,133,19843,2,0,L|444:125,1,90,12|0,0:0|0:0,0:0:0:0:
453,215,20272,6,0,L|363:222,1,90,12|0,0:0|0:0,0:0:0:0:
280,191,20593,1,8,0:0:0:0:
280,191,20700,2,0,L|190:198,1,90,4|8,0:0|0:0,0:0:0:0:
145,205,21022,1,0,0:0:0:0:
145,205,21129,6,0,P|134:256|144:302,1,99.0000030212403,8|2,0:0|0:0,0:0:0:0:
241,349,21558,2,0,P|252:298|242:252,1,99.0000030212403,8|2,0:0|0:0,0:0:0:0:
323,180,21986,2,0,L|422:171,1,99.0000030212403,8|2,0:0|0:0,0:0:0:0:
476,165,22308,2,0,L|467:66,1,99.0000030212403,8|2,0:0|0:0,0:0:0:0:
461,12,22629,2,0,L|411:16,1,49.5000015106202,8|2,0:0|0:0,0:0:0:0:
368,48,22843,6,0,P|316:44|268:56,1,99.0000030212403,8|2,0:0|0:0,0:0:0:0:
208,144,23272,2,0,P|159:155|110:150,1,99.0000030212403,8|2,0:0|0:0,0:0:0:0:
53,242,23700,2,0,L|65:346,1,99.0000030212403,8|2,0:0|0:0,0:0:0:0:
110,369,24022,2,0,P|160:375|214:357,1,99.0000030212403,8|2,0:0|0:0,0:0:0:0:
242,321,24343,1,8,0:0:0:0:
242,321,24450,1,8,0:0:0:0:
256,192,24558,12,8,26272,0:0:0:0:
217,99,26700,6,0,L|114:112,1,99.0000030212403,0|10,0:0|0:0,0:0:0:0:
181,200,27129,1,8,0:0:0:0:
184,224,27236,1,8,0:0:0:0:
187,248,27343,1,10,0:0:0:0:
190,272,27450,1,8,0:0:0:0:
194,296,27558,2,0,B|238:318|238:318|297:300,1,99.0000030212403,4|4,0:0|0:0,0:0:0:0:
