osu file format v14

[General]
AudioFilename: audio.mp3
AudioLeadIn: 0
PreviewTime: 19207
Countdown: 0
SampleSet: Normal
StackLeniency: 0.7
Mode: 1
LetterboxInBreaks: 0
WidescreenStoryboard: 0

[Editor]
DistanceSpacing: 0.5
BeatDivisor: 4
GridSize: 32
TimelineZoom: 1.5

[Metadata]
Title:168 - 401
TitleUnicode:168 - 401
Artist:saradisk
ArtistUnicode:saradisk
Creator:Jaltzu
Version:0n1
Source:
Tags:japanese novelty video game electronic saradisc kancolle kankore kantai collection 皿 sara 艦隊これくしょん -艦これ-
BeatmapID:2310349
BeatmapSetID:1105381

[Difficulty]
HPDrainRate:5
CircleSize:2
OverallDifficulty:5.5
ApproachRate:0
SliderMultiplier:1.4
SliderTickRate:1

[Events]
//Background and Video events
0,0,"kankore.jpg",0,0
//Break Periods
//Storyboard Layer 0 (Background)
//Storyboard Layer 1 (Fail)
//Storyboard Layer 2 (Pass)
//Storyboard Layer 3 (Foreground)
//Storyboard Layer 4 (Overlay)
//Storyboard Sound Samples

[TimingPoints]
82,300,4,1,0,80,1,0
17012,-100,4,1,0,70,0,0
17087,-100,4,1,0,65,0,0
17162,-100,4,1,0,60,0,0
17312,-100,4,1,0,50,0,0
17387,-100,4,1,0,45,0,0
17462,-100,4,1,0,40,0,0
17537,-100,4,1,0,45,0,0
17612,-100,4,1,0,50,0,0
17762,-100,4,1,0,60,0,0
17912,-100,4,1,0,70,0,0
17987,-100,4,1,0,75,0,0
18062,-100,4,1,0,80,0,0
26537,-100,4,1,0,75,0,0
26612,-100,4,1,0,70,0,0
26687,-100,4,1,0,65,0,0
26762,-100,4,1,0,60,0,0
26912,-100,4,1,0,50,0,0
26987,-100,4,1,0,45,0,0
27062,-100,4,1,0,40,0,0
27212,-100,4,1,0,50,0,0
27362,-100,4,1,0,60,0,0
27512,-100,4,1,0,70,0,0
27587,-100,4,1,0,75,0,0
27662,-100,4,1,0,80,0,0
36212,-100,4,1,0,70,0,0
36287,-100,4,1,0,65,0,0
36362,-100,4,1,0,60,0,0
36512,-100,4,1,0,50,0,0
36587,-100,4,1,0,45,0,0
36662,-100,4,1,0,40,0,0
36737,-100,4,1,0,45,0,0
36812,-100,4,1,0,50,0,0
36962,-100,4,1,0,60,0,0
37112,-100,4,1,0,70,0,0
37187,-100,4,1,0,75,0,0
37262,-100,4,1,0,80,0,0
38482,-100,4,1,0,80,0,1
45737,-100,4,1,0,75,0,1
45812,-100,4,1,0,70,0,1
45887,-100,4,1,0,65,0,1
45962,-100,4,1,0,60,0,1
46112,-100,4,1,0,50,0,1
46187,-100,4,1,0,45,0,1
46262,-100,4,1,0,40,0,1
46337,-100,4,1,0,45,0,1
46412,-100,4,1,0,50,0,1
46562,-100,4,1,0,60,0,1
46712,-100,4,1,0,70,0,1
46787,-100,4,1,0,75,0,1
46862,-100,4,1,0,80,0,1
47762,-100,4,1,0,80,0,1
55337,-100,4,1,0,75,0,1
55412,-100,4,1,0,70,0,1
55487,-100,4,1,0,65,0,1
55562,-100,4,1,0,60,0,1
55712,-100,4,1,0,50,0,1
55787,-100,4,1,0,45,0,1
55862,-100,4,1,0,40,0,1
56012,-100,4,1,0,50,0,1
56162,-100,4,1,0,60,0,1
56312,-100,4,1,0,70,0,1
56387,-100,4,1,0,75,0,1
56462,-100,4,1,0,80,0,1
57682,-100,4,1,0,80,0,0
66362,-102.040816326531,4,1,0,80,0,0
66662,-108.695652173913,4,1,0,80,0,0
66812,-112.359550561798,4,1,0,80,0,0
66962,-116.279069767442,4,2,0,80,0,0
67262,-125,4,1,0,70,0,0

[HitObjects]
256,192,82,5,4,0:0:0:0:
256,192,382,1,8,0:0:0:0:
256,192,532,1,0,0:0:0:0:
256,192,607,1,0,0:0:0:0:
256,192,682,1,0,0:0:0:0:
256,192,832,1,0,0:0:0:0:
256,192,982,1,8,0:0:0:0:
256,192,1282,1,0,0:0:0:0:
256,192,1432,1,0,0:0:0:0:
256,192,1582,1,8,0:0:0:0:
256,192,1732,1,0,0:0:0:0:
256,192,1882,1,8,0:0:0:0:
256,192,1957,1,8,0:0:0:0:
256,192,2032,1,0,0:0:0:0:
256,192,2182,1,8,0:0:0:0:
256,192,2332,1,8,0:0:0:0:
256,192,2482,1,0,0:0:0:0:
256,192,2782,1,8,0:0:0:0:
256,192,2932,1,0,0:0:0:0:
256,192,3007,1,0,0:0:0:0:
256,192,3082,1,0,0:0:0:0:
256,192,3232,1,0,0:0:0:0:
256,192,3382,1,8,0:0:0:0:
256,192,3682,1,0,0:0:0:0:
256,192,3832,1,8,0:0:0:0:
256,192,3982,1,8,0:0:0:0:
256,192,4132,1,0,0:0:0:0:
256,192,4207,1,0,0:0:0:0:
256,192,4282,1,0,0:0:0:0:
256,192,4432,1,0,0:0:0:0:
256,192,4582,1,8,0:0:0:0:
256,192,4657,1,8,0:0:0:0:
256,192,4732,1,0,0:0:0:0:
256,192,4882,1,0,0:0:0:0:
256,192,5182,1,8,0:0:0:0:
256,192,5332,1,0,0:0:0:0:
256,192,5407,1,0,0:0:0:0:
256,192,5482,1,0,0:0:0:0:
256,192,5632,1,0,0:0:0:0:
256,192,5782,1,8,0:0:0:0:
256,192,6082,1,0,0:0:0:0:
256,192,6232,1,0,0:0:0:0:
256,192,6382,1,8,0:0:0:0:
256,192,6532,1,0,0:0:0:0:
256,192,6682,1,8,0:0:0:0:
256,192,6757,1,8,0:0:0:0:
256,192,6832,1,0,0:0:0:0:
256,192,6982,1,8,0:0:0:0:
256,192,7132,1,8,0:0:0:0:
256,192,7282,1,0,0:0:0:0:
256,192,7582,1,8,0:0:0:0:
256,192,7732,1,0,0:0:0:0:
256,192,7807,1,0,0:0:0:0:
256,192,7882,1,0,0:0:0:0:
256,192,8032,1,0,0:0:0:0:
256,192,8182,1,8,0:0:0:0:
256,192,8332,1,0,0:0:0:0:
256,192,8407,1,0,0:0:0:0:
256,192,8482,1,8,0:0:0:0:
256,192,8632,1,0,0:0:0:0:
256,192,8782,1,0,0:0:0:0:
256,192,8857,1,8,0:0:0:0:
256,192,9082,1,8,0:0:0:0:
256,192,9382,1,8,0:0:0:0:
256,192,9457,1,8,0:0:0:0:
256,192,9532,1,8,0:0:0:0:
256,192,9682,5,4,0:0:0:0:
256,192,9982,1,8,0:0:0:0:
256,192,10132,1,0,0:0:0:0:
256,192,10207,1,0,0:0:0:0:
256,192,10282,1,0,0:0:0:0:
256,192,10432,1,0,0:0:0:0:
256,192,10582,1,8,0:0:0:0:
256,192,10882,1,0,0:0:0:0:
256,192,11032,1,8,0:0:0:0:
256,192,11182,1,8,0:0:0:0:
256,192,11332,1,0,0:0:0:0:
256,192,11407,1,0,0:0:0:0:
256,192,11482,1,0,0:0:0:0:
256,192,11557,1,8,0:0:0:0:
256,192,11632,1,0,0:0:0:0:
256,192,11782,1,8,0:0:0:0:
256,192,11932,1,8,0:0:0:0:
256,192,12082,1,0,0:0:0:0:
256,192,12382,1,8,0:0:0:0:
256,192,12532,1,0,0:0:0:0:
256,192,12607,1,0,0:0:0:0:
256,192,12682,1,0,0:0:0:0:
256,192,12832,1,0,0:0:0:0:
256,192,12982,1,8,0:0:0:0:
256,192,13282,1,0,0:0:0:0:
256,192,13432,1,8,0:0:0:0:
256,192,13507,1,0,0:0:0:0:
256,192,13582,1,8,0:0:0:0:
256,192,13732,1,0,0:0:0:0:
256,192,13807,1,8,0:0:0:0:
256,192,13882,1,0,0:0:0:0:
256,192,14032,1,0,0:0:0:0:
256,192,14182,1,8,0:0:0:0:
256,192,14257,1,8,0:0:0:0:
256,192,14332,1,0,0:0:0:0:
256,192,14407,1,8,0:0:0:0:
256,192,14482,1,0,0:0:0:0:
256,192,14782,1,8,0:0:0:0:
256,192,14932,1,0,0:0:0:0:
256,192,15007,1,0,0:0:0:0:
256,192,15082,1,0,0:0:0:0:
256,192,15232,1,0,0:0:0:0:
256,192,15382,1,8,0:0:0:0:
256,192,15682,1,0,0:0:0:0:
256,192,15832,1,0,0:0:0:0:
256,192,15982,1,8,0:0:0:0:
256,192,16132,1,0,0:0:0:0:
256,192,16207,1,0,0:0:0:0:
256,192,16282,1,0,0:0:0:0:
256,192,16357,1,8,0:0:0:0:
256,192,16432,1,0,0:0:0:0:
256,192,16582,1,8,0:0:0:0:
256,192,16882,1,0,0:0:0:0:
256,192,17032,1,0,0:0:0:0:
256,192,17107,1,0,0:0:0:0:
256,192,17182,1,0,0:0:0:0:
256,192,17332,1,8,0:0:0:0:
256,192,17407,1,8,0:0:0:0:
256,192,17482,1,0,0:0:0:0:
256,192,17557,1,0,0:0:0:0:
256,192,17632,1,8,0:0:0:0:
256,192,17782,1,8,0:0:0:0:
256,192,17932,1,0,0:0:0:0:
256,192,18007,1,0,0:0:0:0:
256,192,18082,1,8,0:0:0:0:
256,192,18232,1,0,0:0:0:0:
256,192,18382,1,0,0:0:0:0:
256,192,18457,1,8,0:0:0:0:
256,192,18682,1,8,0:0:0:0:
256,192,18982,1,12,0:0:0:0:
256,192,19282,5,0,0:0:0:0:
256,192,19582,1,8,0:0:0:0:
256,192,19732,1,8,0:0:0:0:
256,192,19807,1,0,0:0:0:0:
256,192,19882,1,0,0:0:0:0:
256,192,20032,1,0,0:0:0:0:
256,192,20182,1,8,0:0:0:0:
256,192,20332,1,8,0:0:0:0:
256,192,20482,1,0,0:0:0:0:
256,192,20632,1,0,0:0:0:0:
256,192,20782,1,8,0:0:0:0:
256,192,20932,1,0,0:0:0:0:
256,192,21007,1,0,0:0:0:0:
256,192,21082,1,8,0:0:0:0:
256,192,21157,1,8,0:0:0:0:
256,192,21232,1,0,0:0:0:0:
256,192,21382,1,8,0:0:0:0:
256,192,21682,1,0,0:0:0:0:
256,192,21982,1,8,0:0:0:0:
256,192,22132,1,8,0:0:0:0:
256,192,22207,1,0,0:0:0:0:
256,192,22282,1,0,0:0:0:0:
256,192,22432,1,0,0:0:0:0:
256,192,22582,1,8,0:0:0:0:
256,192,22732,1,8,0:0:0:0:
256,192,22882,1,0,0:0:0:0:
256,192,23032,1,8,0:0:0:0:
256,192,23107,1,0,0:0:0:0:
256,192,23182,1,8,0:0:0:0:
256,192,23332,1,0,0:0:0:0:
256,192,23482,1,8,0:0:0:0:
256,192,23557,1,8,0:0:0:0:
256,192,23632,1,8,0:0:0:0:
256,192,23707,1,8,0:0:0:0:
256,192,23782,1,0,0:0:0:0:
256,192,23932,1,8,0:0:0:0:
256,192,24082,1,0,0:0:0:0:
256,192,24382,1,8,0:0:0:0:
256,192,24532,1,8,0:0:0:0:
256,192,24607,1,0,0:0:0:0:
256,192,24682,1,0,0:0:0:0:
256,192,24832,1,0,0:0:0:0:
256,192,24982,1,8,0:0:0:0:
256,192,25132,1,8,0:0:0:0:
256,192,25282,1,0,0:0:0:0:
256,192,25432,1,0,0:0:0:0:
256,192,25582,1,8,0:0:0:0:
256,192,25732,1,0,0:0:0:0:
256,192,25807,1,0,0:0:0:0:
256,192,25882,1,8,0:0:0:0:
256,192,25957,1,8,0:0:0:0:
256,192,26032,1,0,0:0:0:0:
256,192,26182,1,8,0:0:0:0:
256,192,26482,1,0,0:0:0:0:
256,192,26557,1,0,0:0:0:0:
256,192,26632,1,0,0:0:0:0:
256,192,26707,1,0,0:0:0:0:
256,192,26782,1,8,0:0:0:0:
256,192,26932,1,0,0:0:0:0:
256,192,27007,1,0,0:0:0:0:
256,192,27082,1,0,0:0:0:0:
256,192,27232,1,0,0:0:0:0:
256,192,27382,1,8,0:0:0:0:
256,192,27532,1,0,0:0:0:0:
256,192,27607,1,0,0:0:0:0:
256,192,27682,1,8,0:0:0:0:
256,192,27832,1,0,0:0:0:0:
256,192,27982,1,0,0:0:0:0:
256,192,28057,1,8,0:0:0:0:
256,192,28282,1,8,0:0:0:0:
256,192,28582,1,12,0:0:0:0:
256,192,28882,1,0,0:0:0:0:
256,192,29182,1,8,0:0:0:0:
256,192,29332,1,0,0:0:0:0:
256,192,29482,1,0,0:0:0:0:
256,192,29557,1,8,0:0:0:0:
256,192,29632,1,0,0:0:0:0:
256,192,29782,1,8,0:0:0:0:
256,192,29932,1,0,0:0:0:0:
256,192,30082,1,0,0:0:0:0:
256,192,30232,1,0,0:0:0:0:
256,192,30307,1,0,0:0:0:0:
256,192,30382,1,8,0:0:0:0:
256,192,30532,1,8,0:0:0:0:
256,192,30607,1,8,0:0:0:0:
256,192,30682,1,0,0:0:0:0:
256,192,30757,1,0,0:0:0:0:
256,192,30832,1,8,0:0:0:0:
256,192,30982,1,8,0:0:0:0:
256,192,31132,1,8,0:0:0:0:
256,192,31282,1,0,0:0:0:0:
256,192,31582,1,8,0:0:0:0:
256,192,31732,1,0,0:0:0:0:
256,192,31882,1,0,0:0:0:0:
256,192,31957,1,8,0:0:0:0:
256,192,32032,1,0,0:0:0:0:
256,192,32182,1,8,0:0:0:0:
256,192,32332,1,0,0:0:0:0:
256,192,32482,1,0,0:0:0:0:
256,192,32632,1,8,0:0:0:0:
256,192,32707,1,0,0:0:0:0:
256,192,32782,1,8,0:0:0:0:
256,192,32932,1,0,0:0:0:0:
256,192,33082,1,8,0:0:0:0:
256,192,33157,1,8,0:0:0:0:
256,192,33232,1,8,0:0:0:0:
256,192,33307,1,8,0:0:0:0:
256,192,33382,1,0,0:0:0:0:
256,192,33532,1,8,0:0:0:0:
256,192,33682,1,0,0:0:0:0:
256,192,33982,1,8,0:0:0:0:
256,192,34132,1,0,0:0:0:0:
256,192,34282,1,0,0:0:0:0:
256,192,34357,1,8,0:0:0:0:
256,192,34432,1,0,0:0:0:0:
256,192,34582,1,8,0:0:0:0:
256,192,34732,1,0,0:0:0:0:
256,192,34882,1,0,0:0:0:0:
256,192,35032,1,0,0:0:0:0:
256,192,35107,1,0,0:0:0:0:
256,192,35182,1,8,0:0:0:0:
256,192,35332,1,0,0:0:0:0:
256,192,35407,1,0,0:0:0:0:
256,192,35482,1,0,0:0:0:0:
256,192,35557,1,0,0:0:0:0:
256,192,35632,1,8,0:0:0:0:
256,192,35782,1,8,0:0:0:0:
256,192,36082,1,0,0:0:0:0:
256,192,36232,1,0,0:0:0:0:
256,192,36307,1,0,0:0:0:0:
256,192,36382,1,0,0:0:0:0:
256,192,36532,1,8,0:0:0:0:
256,192,36607,1,8,0:0:0:0:
256,192,36682,1,0,0:0:0:0:
256,192,36757,1,0,0:0:0:0:
256,192,36832,1,8,0:0:0:0:
256,192,36982,1,8,0:0:0:0:
256,192,37132,1,0,0:0:0:0:
256,192,37207,1,0,0:0:0:0:
256,192,37282,1,8,0:0:0:0:
256,192,37432,1,0,0:0:0:0:
256,192,37582,1,0,0:0:0:0:
256,192,37657,1,8,0:0:0:0:
256,192,37882,1,8,0:0:0:0:
256,192,38182,1,12,0:0:0:0:
256,192,38482,5,4,0:0:0:0:
256,192,38782,1,8,0:0:0:0:
256,192,38932,1,8,0:0:0:0:
256,192,39082,1,0,0:0:0:0:
256,192,39157,1,8,0:0:0:0:
256,192,39232,1,0,0:0:0:0:
256,192,39382,1,8,0:0:0:0:
256,192,39532,1,0,0:0:0:0:
256,192,39682,1,0,0:0:0:0:
256,192,39832,1,0,0:0:0:0:
256,192,39907,1,0,0:0:0:0:
256,192,39982,1,8,0:0:0:0:
256,192,40132,1,0,0:0:0:0:
256,192,40282,1,0,0:0:0:0:
256,192,40357,1,8,0:0:0:0:
256,192,40432,1,0,0:0:0:0:
256,192,40507,1,0,0:0:0:0:
256,192,40582,1,8,0:0:0:0:
256,192,40882,1,0,0:0:0:0:
256,192,41182,1,8,0:0:0:0:
256,192,41332,1,8,0:0:0:0:
256,192,41407,1,0,0:0:0:0:
256,192,41482,1,0,0:0:0:0:
256,192,41632,1,0,0:0:0:0:
256,192,41782,1,8,0:0:0:0:
256,192,41932,1,0,0:0:0:0:
256,192,42082,1,0,0:0:0:0:
256,192,42232,1,8,0:0:0:0:
256,192,42307,1,0,0:0:0:0:
256,192,42382,1,8,0:0:0:0:
256,192,42532,1,0,0:0:0:0:
256,192,42682,1,8,0:0:0:0:
256,192,42757,1,8,0:0:0:0:
256,192,42832,1,8,0:0:0:0:
256,192,42907,1,8,0:0:0:0:
256,192,42982,1,8,0:0:0:0:
256,192,43132,1,8,0:0:0:0:
256,192,43282,1,0,0:0:0:0:
256,192,43582,1,8,0:0:0:0:
256,192,43732,1,8,0:0:0:0:
256,192,43882,1,0,0:0:0:0:
256,192,43957,1,8,0:0:0:0:
256,192,44032,1,0,0:0:0:0:
256,192,44182,1,8,0:0:0:0:
256,192,44332,1,0,0:0:0:0:
256,192,44482,1,0,0:0:0:0:
256,192,44632,1,0,0:0:0:0:
256,192,44707,1,8,0:0:0:0:
256,192,44782,1,8,0:0:0:0:
256,192,44932,1,0,0:0:0:0:
256,192,45082,1,0,0:0:0:0:
256,192,45157,1,8,0:0:0:0:
256,192,45232,1,0,0:0:0:0:
256,192,45307,1,0,0:0:0:0:
256,192,45382,1,8,0:0:0:0:
256,192,45682,1,0,0:0:0:0:
256,192,45757,1,0,0:0:0:0:
256,192,45832,1,0,0:0:0:0:
256,192,45907,1,0,0:0:0:0:
256,192,45982,1,8,0:0:0:0:
256,192,46132,1,0,0:0:0:0:
256,192,46207,1,0,0:0:0:0:
256,192,46282,1,0,0:0:0:0:
256,192,46357,1,0,0:0:0:0:
256,192,46432,1,0,0:0:0:0:
256,192,46582,1,8,0:0:0:0:
256,192,46732,1,0,0:0:0:0:
256,192,46807,1,0,0:0:0:0:
256,192,46882,1,8,0:0:0:0:
256,192,47032,1,0,0:0:0:0:
256,192,47182,1,0,0:0:0:0:
256,192,47257,1,8,0:0:0:0:
256,192,47482,1,8,0:0:0:0:
256,192,47782,1,12,0:0:0:0:
256,192,48082,1,0,0:0:0:0:
256,192,48382,1,8,0:0:0:0:
256,192,48532,1,8,0:0:0:0:
256,192,48682,1,0,0:0:0:0:
256,192,48757,1,8,0:0:0:0:
256,192,48832,1,0,0:0:0:0:
256,192,48982,1,8,0:0:0:0:
256,192,49132,1,0,0:0:0:0:
256,192,49282,1,0,0:0:0:0:
256,192,49432,1,8,0:0:0:0:
256,192,49507,1,0,0:0:0:0:
256,192,49582,1,8,0:0:0:0:
256,192,49732,1,0,0:0:0:0:
256,192,49882,1,0,0:0:0:0:
256,192,49957,1,8,0:0:0:0:
256,192,50032,1,0,0:0:0:0:
256,192,50107,1,0,0:0:0:0:
256,192,50182,1,8,0:0:0:0:
256,192,50482,1,0,0:0:0:0:
256,192,50782,1,8,0:0:0:0:
256,192,50932,1,8,0:0:0:0:
256,192,51007,1,0,0:0:0:0:
256,192,51082,1,0,0:0:0:0:
256,192,51232,1,0,0:0:0:0:
256,192,51382,1,8,0:0:0:0:
256,192,51532,1,0,0:0:0:0:
256,192,51682,1,0,0:0:0:0:
256,192,51832,1,0,0:0:0:0:
256,192,51907,1,8,0:0:0:0:
256,192,51982,1,8,0:0:0:0:
256,192,52132,1,0,0:0:0:0:
256,192,52282,1,8,0:0:0:0:
256,192,52357,1,8,0:0:0:0:
256,192,52432,1,8,0:0:0:0:
256,192,52507,1,8,0:0:0:0:
256,192,52582,1,8,0:0:0:0:
256,192,52732,1,8,0:0:0:0:
256,192,52882,1,0,0:0:0:0:
256,192,53182,1,8,0:0:0:0:
256,192,53332,1,8,0:0:0:0:
256,192,53482,1,0,0:0:0:0:
256,192,53557,1,8,0:0:0:0:
256,192,53632,1,0,0:0:0:0:
256,192,53782,1,8,0:0:0:0:
256,192,53857,1,8,0:0:0:0:
256,192,53932,1,0,0:0:0:0:
256,192,54082,1,0,0:0:0:0:
256,192,54232,1,0,0:0:0:0:
256,192,54382,1,8,0:0:0:0:
256,192,54532,1,0,0:0:0:0:
256,192,54607,1,0,0:0:0:0:
256,192,54682,1,8,0:0:0:0:
256,192,54757,1,8,0:0:0:0:
256,192,54832,1,0,0:0:0:0:
256,192,54982,1,8,0:0:0:0:
256,192,55282,1,8,0:0:0:0:
256,192,55357,1,0,0:0:0:0:
256,192,55432,1,0,0:0:0:0:
256,192,55507,1,0,0:0:0:0:
256,192,55582,1,0,0:0:0:0:
256,192,55732,1,0,0:0:0:0:
256,192,55807,1,0,0:0:0:0:
256,192,55882,1,8,0:0:0:0:
256,192,56032,1,0,0:0:0:0:
256,192,56182,1,0,0:0:0:0:
256,192,56332,1,0,0:0:0:0:
256,192,56407,1,0,0:0:0:0:
256,192,56482,1,8,0:0:0:0:
256,192,56632,1,0,0:0:0:0:
256,192,56782,1,0,0:0:0:0:
256,192,56857,1,8,0:0:0:0:
256,192,57007,1,0,0:0:0:0:
256,192,57082,1,8,0:0:0:0:
256,192,57232,1,0,0:0:0:0:
256,192,57382,1,12,0:0:0:0:
256,192,57682,5,0,0:0:0:0:
256,192,57982,1,8,0:0:0:0:
256,192,58132,1,0,0:0:0:0:
256,192,58207,1,0,0:0:0:0:
256,192,58282,1,0,0:0:0:0:
256,192,58432,1,0,0:0:0:0:
256,192,58582,1,8,0:0:0:0:
256,192,58882,1,0,0:0:0:0:
256,192,59032,1,0,0:0:0:0:
256,192,59182,1,8,0:0:0:0:
256,192,59332,1,0,0:0:0:0:
256,192,59407,1,0,0:0:0:0:
256,192,59482,1,0,0:0:0:0:
256,192,59632,1,0,0:0:0:0:
256,192,59782,1,8,0:0:0:0:
256,192,60082,1,0,0:0:0:0:
256,192,60382,1,8,0:0:0:0:
256,192,60532,1,0,0:0:0:0:
256,192,60607,1,0,0:0:0:0:
256,192,60682,1,0,0:0:0:0:
256,192,60832,1,0,0:0:0:0:
256,192,60982,1,8,0:0:0:0:
256,192,61282,1,0,0:0:0:0:
256,192,61432,1,0,0:0:0:0:
256,192,61582,1,8,0:0:0:0:
256,192,61732,1,0,0:0:0:0:
256,192,61807,1,0,0:0:0:0:
256,192,61882,1,8,0:0:0:0:
256,192,61957,1,8,0:0:0:0:
256,192,62032,1,0,0:0:0:0:
256,192,62182,1,8,0:0:0:0:
256,192,62482,1,0,0:0:0:0:
256,192,62782,1,8,0:0:0:0:
256,192,62932,1,0,0:0:0:0:
256,192,63007,1,0,0:0:0:0:
256,192,63082,1,0,0:0:0:0:
256,192,63232,1,0,0:0:0:0:
256,192,63382,1,8,0:0:0:0:
256,192,63682,1,0,0:0:0:0:
256,192,63832,1,0,0:0:0:0:
256,192,63982,1,8,0:0:0:0:
256,192,64132,1,0,0:0:0:0:
256,192,64207,1,0,0:0:0:0:
256,192,64282,1,0,0:0:0:0:
256,192,64432,1,0,0:0:0:0:
256,192,64582,1,8,0:0:0:0:
256,192,64882,1,0,0:0:0:0:
256,192,65182,1,8,0:0:0:0:
256,192,65332,1,0,0:0:0:0:
256,192,65407,1,0,0:0:0:0:
256,192,65482,1,0,0:0:0:0:
256,192,65632,1,0,0:0:0:0:
256,192,65782,1,8,0:0:0:0:
256,192,66082,1,0,0:0:0:0:
256,192,66382,1,0,0:0:0:0:
256,192,66682,1,0,0:0:0:0:
256,192,66832,1,0,0:0:0:0:
256,192,66982,1,8,0:0:0:0:
256,192,67282,5,4,0:0:0:0:
256,192,67582,1,0,0:0:0:0:
256,192,67882,1,8,0:0:0:0:
256,192,68032,1,0,0:0:0:0:
256,192,68107,1,0,0:0:0:0:
256,192,68182,1,0,0:0:0:0:
256,192,68332,1,0,0:0:0:0:
256,192,68482,1,8,0:0:0:0:
256,192,68782,1,0,0:0:0:0:
256,192,68932,1,0,0:0:0:0:
256,192,69082,1,8,0:0:0:0:
256,192,69232,1,0,0:0:0:0:
256,192,69682,1,0,0:0:0:0:
256,192,69982,1,0,0:0:0:0:
256,192,70282,1,8,0:0:0:0:
256,192,70432,1,0,0:0:0:0:
256,192,70507,1,0,0:0:0:0:
256,192,70582,1,0,0:0:0:0:
256,192,70732,1,0,0:0:0:0:
256,192,70882,1,8,0:0:0:0:
256,192,71182,1,0,0:0:0:0:
256,192,71332,1,8,0:0:0:0:
256,192,71482,1,8,0:0:0:0:
256,192,71632,1,0,0:0:0:0:
256,192,72082,1,0,0:0:0:0:
256,192,72382,1,0,0:0:0:0:
256,192,72682,1,8,0:0:0:0:
256,192,72832,1,0,0:0:0:0:
256,192,72907,1,0,0:0:0:0:
256,192,72982,1,0,0:0:0:0:
256,192,73132,1,0,0:0:0:0:
256,192,73282,1,8,0:0:0:0:
256,192,73582,1,0,0:0:0:0:
256,192,73732,1,0,0:0:0:0:
256,192,73882,1,8,0:0:0:0:
256,192,74032,1,0,0:0:0:0:
256,192,74482,1,0,0:0:0:0:
256,192,74782,1,0,0:0:0:0:
256,192,75082,1,8,0:0:0:0:
256,192,75232,1,0,0:0:0:0:
256,192,75307,1,0,0:0:0:0:
256,192,75382,1,0,0:0:0:0:
256,192,75532,1,0,0:0:0:0:
256,192,75682,1,8,0:0:0:0:
256,192,75982,1,0,0:0:0:0:
256,192,76282,1,8,0:0:0:0:
256,192,76432,1,0,0:0:0:0:
256,192,76582,1,8,0:0:0:0:
