osu file format v14

[General]
AudioFilename: audio.mp3
AudioLeadIn: 0
PreviewTime:32352
Countdown: 0
SampleSet: Soft
StackLeniency: 0.5
Mode: 0
LetterboxInBreaks: 0
WidescreenStoryboard: 1

[Editor]
Bookmarks:3627,13227,22827,32427,42027,51627
DistanceSpacing: 1
BeatDivisor: 2
GridSize: 4
TimelineZoom: 1

[Metadata]
Title:166 - Suzuya Homerarete Nobiru Type Nandesu.
TitleUnicode:166 - 鈴谷褒められて伸びるタイプなんです。
Artist:saradisk
ArtistUnicode:皿
Creator:hehe
Version:Tomy's Normal
Source:艦隊これくしょん -艦これ-
Tags:kantai collection kancolle kankore handsome tomy tomy56739 electronic japanese video game anime novelty remix
BeatmapID:3913899
BeatmapSetID:1897784

[Difficulty]
HPDrainRate:2
CircleSize:3.5
OverallDifficulty:5
ApproachRate:6
SliderMultiplier:1
SliderTickRate:1

[Events]
//Background and Video events
0,0,"73671896.jpg",0,0
//Break Periods
//Storyboard Layer 0 (Background)
//Storyboard Layer 1 (Fail)
//Storyboard Layer 2 (Pass)
//Storyboard Layer 3 (Foreground)
//Storyboard Layer 4 (Overlay)
//Storyboard Sound Samples

[TimingPoints]
3627,300,4,2,1,40,1,0
3627,-100,4,2,1,40,0,0
8427,-100,4,2,1,55,0,0
13227,-100,4,2,1,70,0,1
22827,-100,4,2,1,65,0,0
32427,-100,4,2,1,75,0,1
42027,-100,4,2,1,80,0,1
51627,-100,4,2,1,80,0,0

[Colours]
Combo1 : 255,191,220
Combo2 : 238,117,255

[HitObjects]
119,98,3627,6,0,P|211:136|312:107,2,200,4|2|0,3:2|0:3|3:0,0:0:0:0:
52,172,5127,1,2,0:0:0:0:
141,216,5427,2,0,L|130:341,1,100,2|2,0:3|0:0,0:0:0:0:
226,282,6027,2,0,L|438:304,2,200,0|2|0,3:0|0:3|0:0,0:0:0:0:
234,182,7527,1,2,0:0:0:0:
333,190,7827,2,0,L|458:201,1,100,2|2,0:3|0:0,0:0:0:0:
468,104,8427,6,0,L|457:-21,1,100,0|2,3:0|0:0,0:0:0:0:
363,40,9027,2,0,L|238:29,1,100,8|2,0:0|0:0,0:0:0:0:
197,106,9627,2,0,L|269:208,1,100,0|2,3:0|0:0,0:0:0:0:
350,158,10227,2,0,L|450:167,1,100,8|2,0:0|0:0,0:0:0:0:
424,263,10827,6,0,L|460:320,2,50,0|0|2,3:0|0:0|0:0,0:0:0:0:
357,332,11427,2,0,L|351:383,2,50,8|0|2,0:0|0:0|0:0,0:0:0:0:
291,256,12027,1,0,3:0:0:0:
203,305,12327,1,0,3:0:0:0:
130,373,12627,2,0,P|99:312|133:260,1,100,8|0,0:0|3:0,0:0:0:0:
100,185,13227,6,0,P|151:174|190:147,1,100,6|10,3:2|3:2,0:0:0:0:
288,164,13827,2,0,P|319:201|364:221,1,100,2|8,3:2|3:2,0:0:0:0:
393,181,14277,1,2,0:2:0:0:
480,131,14577,1,2,0:2:0:0:
507,172,14727,1,10,3:2:0:0:
446,251,15027,2,0,L|429:355,1,100,2|8,3:2|3:2,0:0:0:0:
383,368,15477,1,0,0:0:0:0:
334,354,15627,6,0,P|284:351|211:300,1,100,2|8,3:2|3:2,0:0:0:0:
217,232,16227,2,0,P|167:234|122:256,1,100,2|8,3:2|3:2,0:0:0:0:
101,209,16677,2,0,L|49:217,1,50,2|0,0:2|3:0,0:0:0:0:
3,202,16977,1,2,0:2:0:0:
31,106,17277,2,0,P|85:107|160:127,1,100,2|0,0:2|0:0,0:0:0:0:
179,112,17727,1,10,3:2:0:0:
219,20,18027,6,0,L|339:8,1,100,2|10,3:2|3:2,0:0:0:0:
296,107,18627,2,0,L|416:119,1,100,2|8,3:2|3:2,0:0:0:0:
438,91,19077,1,2,0:2:0:0:
501,168,19377,1,2,0:2:0:0:
501,218,19527,2,0,L|502:338,1,100,8|0,3:2|3:0,0:0:0:0:
454,334,19977,2,2,L|454:383,2,50,2|10|2,0:2|3:2|0:2,0:1:0:0:
411,306,20427,6,0,P|363:276|310:252,1,100,2|10,3:2|3:2,0:0:0:0:
250,189,21027,2,0,P|220:237|231:294,1,100,2|10,3:2|3:2,0:0:0:0:
252,319,21477,1,0,0:0:0:0:
216,353,21627,2,0,L|266:378,2,50,0|0|8,3:0|3:0|3:2,0:0:0:0:
116,345,22227,2,0,L|100:297,1,50,0|0,3:0|3:0,0:0:0:0:
85,248,22527,1,10,3:2:0:0:
13,178,22827,6,0,P|60:163|120:156,1,100,4|8,3:2|3:2,0:0:0:0:
159,145,23277,2,0,P|161:93|154:33,1,100,4|0,0:2|0:0,0:0:0:0:
186,5,23727,1,8,3:2:0:0:
241,88,24027,2,0,P|291:87|340:95,1,100,4|8,3:2|3:2,0:0:0:0:
359,140,24477,2,0,P|407:148|458:147,1,100,4|0,0:0|0:0,0:0:0:0:
505,132,24927,1,8,3:2:0:0:
494,231,25227,6,0,L|489:349,1,100,4|8,3:2|3:2,0:0:0:0:
456,369,25677,2,0,L|338:374,1,100,4|0,0:0|0:0,0:0:0:0:
315,342,26127,1,8,3:2:0:0:
280,248,26427,2,0,P|237:273|216:317,1,100,4|8,3:2|3:2,0:0:0:0:
167,330,26877,2,0,P|118:316|87:279,1,100,4|0,0:0|0:0,0:0:0:0:
38,269,27327,1,8,3:2:0:0:
102,194,27627,6,0,B|67:162|67:162|78:110,2,100,4|8|0,3:2|3:2|3:0,0:0:0:0:
150,182,28377,1,0,0:0:0:0:
190,213,28527,1,12,3:2:0:0:
289,203,28827,2,0,B|323:234|323:234|312:286,2,100,4|8|0,3:2|3:2|3:0,0:0:0:0:
250,170,29577,1,0,0:0:0:0:
202,184,29727,1,8,3:2:0:0:
196,84,30027,6,0,P|156:49|102:42,2,100,4|8|0,3:2|3:2|3:0,0:0:0:0:
246,84,30777,1,0,0:0:0:0:
296,83,30927,2,0,L|391:79,1,50,12|0,3:2|0:0,0:0:0:0:
391,59,31227,2,0,P|435:80|461:122,1,100,4|8,3:2|3:2,0:0:0:0:
387,189,31827,1,0,3:0:0:0:
401,236,31977,1,0,3:0:0:0:
416,284,32127,1,8,3:2:0:0:
409,383,32427,6,0,P|359:366|326:321,1,100,6|10,3:2|3:2,0:0:0:0:
320,231,33027,2,0,P|270:248|237:292,1,100,2|8,3:2|3:2,0:0:0:0:
193,300,33477,1,2,0:0:0:0:
94,317,33777,1,2,0:0:0:0:
52,289,33927,1,10,3:2:0:0:
25,192,34227,2,0,P|85:188|124:213,1,100,0|8,0:0|3:2,0:0:0:0:
160,180,34677,1,0,0:0:0:0:
185,136,34827,6,0,L|299:151,1,100,2|10,3:2|3:2,0:0:0:0:
326,58,35427,2,0,L|440:43,1,100,2|8,3:2|3:2,0:0:0:0:
413,93,35877,2,0,L|394:139,1,50,2|0,0:2|3:0,0:0:0:0:
375,185,36177,1,2,0:2:0:0:
473,167,36477,2,0,P|471:221|440:293,1,100,2|2,0:2|0:0,0:0:0:0:
445,312,36927,1,8,3:2:0:0:
355,270,37227,6,0,P|298:242|260:253,1,100,2|10,3:2|3:2,0:0:0:0:
225,342,37827,2,0,P|172:306|162:268,1,100,2|8,3:2|3:2,0:0:0:0:
144,226,38277,1,2,0:2:0:0:
225,167,38577,1,2,0:0:0:0:
253,125,38727,2,0,L|368:99,1,100,10|0,3:2|3:0,0:0:0:0:
339,54,39177,2,2,L|397:42,2,50,0|8|0,0:0|3:2|0:0,0:1:0:0:
306,15,39627,6,0,P|265:31|165:43,1,100,2|10,3:2|3:2,0:0:0:0:
110,49,40227,2,0,L|93:154,1,100,2|10,3:2|3:2,0:0:0:0:
135,178,40677,1,0,0:0:0:0:
184,171,40827,2,0,L|177:107,2,50,0|0|8,3:0|3:0|3:2,0:0:0:0:
199,269,41427,1,0,3:0:0:0:
232,307,41577,1,8,3:0:0:0:
265,345,41727,1,0,3:0:0:0:
362,324,42027,6,0,L|469:360,2,100,6|10|2,3:2|3:2|3:2,0:0:0:0:
362,274,42777,2,0,L|469:238,2,100
324,240,43527,1,8,3:2:0:0:
233,200,43827,1,0,0:0:0:0:
153,140,44127,1,8,3:2:0:0:
110,165,44277,1,0,0:0:0:0:
61,177,44427,6,0,P|37:110|52:77,2,100,6|10|2,3:2|3:2|3:2,0:0:0:0:
74,225,45177,2,0,P|50:292|65:325,2,100
121,209,45927,1,8,3:2:0:0:
210,254,46227,1,2,3:2:0:0:
306,277,46527,1,10,3:2:0:0:
356,261,46677,1,2,0:2:0:0:
396,291,46827,6,0,L|352:387,2,100,6|10|2,3:2|3:2|3:2,0:0:0:0:
444,279,47577,2,0,L|487:182,2,100
409,243,48327,1,10,3:2:0:0:
346,166,48627,1,2,3:2:0:0:
251,133,48927,1,10,3:2:0:0:
205,154,49077,1,2,0:2:0:0:
159,133,49227,6,0,B|146:82|146:82|164:27,1,100,6|10,3:2|3:2,0:0:0:0:
256,9,49827,1,2,3:2:0:0:
351,36,50127,1,10,3:2:0:0:
256,192,50427,12,12,51627,3:2:0:0:
