osu file format v14

[General]
AudioFilename: audio.mp3
AudioLeadIn: 0
PreviewTime: 17952
Countdown: 0
SampleSet: Soft
StackLeniency: 0.7
Mode: 3
LetterboxInBreaks: 0
SpecialStyle: 0
WidescreenStoryboard: 1

[Editor]
DistanceSpacing: 0.8
BeatDivisor: 4
GridSize: 4
TimelineZoom: 2.1

[Metadata]
Title:166 - Suzuya Homerarete Nobiru Type Nandesu.
TitleUnicode:166 - 鈴谷褒められて伸びるタイプなんです。
Artist:saradisk
ArtistUnicode:皿
Creator:FAMoss
Version:Hydria's Insane
Source:艦隊これくしょん -艦これ-
Tags:kancolle kantai collection hydria syadow-
BeatmapID:1518497
BeatmapSetID:717834

[Difficulty]
HPDrainRate:9.5
CircleSize:4
OverallDifficulty:8.5
ApproachRate:5
SliderMultiplier:1.4
SliderTickRate:1

[Events]
//Background and Video events
0,0,"KUMANO_SUZUYA.jpg",0,0
//Break Periods
//Storyboard Layer 0 (Background)
//Storyboard Layer 1 (Fail)
//Storyboard Layer 2 (Pass)
//Storyboard Layer 3 (Foreground)
//Storyboard Sound Samples
Sample,13077,0,"snare.wav",26

[TimingPoints]
3627,300,4,2,2,40,1,0
13227,-100,4,2,1,60,0,1
22827,-100,4,2,1,60,0,0
42027,-100,4,2,1,60,0,1
51627,-100,4,2,1,60,0,0

[HitObjects]
320,192,3627,5,4,0:0:0:26:
448,192,3627,1,2,0:0:0:26:
320,192,3777,1,0,0:0:0:53:
192,192,3927,1,0,0:0:0:53:
64,192,4227,1,0,0:0:0:26:
320,192,4227,1,0,0:0:0:26:snare.wav
320,192,4527,1,0,0:0:0:53:
448,192,4677,1,0,0:0:0:53:
64,192,4827,1,2,0:0:0:26:
192,192,4827,1,0,0:0:0:26:
320,192,4977,1,0,0:0:0:53:
192,192,5127,1,0,0:0:0:53:
320,192,5427,1,0,0:0:0:26:
448,192,5427,1,0,0:0:0:26:snare.wav
448,192,5727,1,0,0:0:0:53:
320,192,6027,1,2,0:0:0:26:
448,192,6027,1,0,0:0:0:26:
320,192,6177,1,0,0:0:0:53:
192,192,6327,1,0,0:0:0:53:
64,192,6627,1,0,0:0:0:26:
320,192,6627,1,0,0:0:0:26:snare.wav
320,192,6927,1,0,0:0:0:53:
448,192,7077,1,0,0:0:0:53:
64,192,7227,1,2,0:0:0:26:
192,192,7227,1,0,0:0:0:26:
320,192,7377,1,0,0:0:0:53:
192,192,7527,1,0,0:0:0:53:
320,192,7827,1,0,0:0:0:26:
448,192,7827,1,0,0:0:0:26:snare.wav
448,192,8127,1,0,0:0:0:53:
320,192,8427,1,2,0:0:0:26:
448,192,8427,1,0,0:0:0:26:
320,192,8577,1,0,0:0:0:53:
192,192,8727,1,0,0:0:0:53:
64,192,9027,1,2,0:0:0:13:
192,192,9027,1,0,0:0:0:13:
320,192,9027,1,0,0:0:0:13:
448,192,9027,1,0,0:0:0:13:snare.wav
64,192,9327,1,0,0:0:0:53:
192,192,9477,1,0,0:0:0:53:
320,192,9627,1,2,0:0:0:26:
448,192,9627,1,0,0:0:0:26:
320,192,9777,1,0,0:0:0:53:
192,192,9927,1,0,0:0:0:53:
448,192,10227,1,2,0:0:0:13:
192,192,10227,1,0,0:0:0:13:
320,192,10227,1,0,0:0:0:13:
64,192,10227,1,0,0:0:0:13:snare.wav
64,192,10527,1,0,0:0:0:53:
320,192,10827,1,2,0:0:0:26:
448,192,10827,1,0,0:0:0:26:
320,192,10977,1,0,0:0:0:53:
192,192,11127,1,0,0:0:0:53:
64,192,11427,1,2,0:0:0:13:
192,192,11427,1,0,0:0:0:13:
320,192,11427,1,0,0:0:0:13:
448,192,11427,1,0,0:0:0:13:snare.wav
192,192,11727,1,0,0:0:0:53:
320,192,11877,1,0,0:0:0:53:
64,192,12027,1,2,0:0:0:26:
192,192,12027,1,0,0:0:0:26:
192,192,12177,1,0,0:0:0:53:
320,192,12327,1,2,0:0:0:26:
448,192,12327,1,0,0:0:0:26:
320,192,12477,1,0,0:0:0:53:
64,192,12627,1,2,0:0:0:13:
192,192,12627,1,0,0:0:0:13:
320,192,12627,1,0,0:0:0:13:
448,192,12627,1,0,0:0:0:13:snare.wav
192,192,12777,1,2,0:0:0:26:
64,192,12777,1,0,0:0:0:26:
192,192,12852,1,2,0:0:0:26:
64,192,12852,1,0,0:0:0:26:
320,192,12927,1,2,0:0:0:26:
448,192,12927,1,0,0:0:0:26:
192,192,13077,128,0,13152:0:0:0:53:snare.wav
64,192,13227,1,4,0:0:0:20:
320,192,13227,1,0,0:0:0:20:
192,192,13227,1,0,0:0:0:20:
448,192,13227,1,2,0:0:0:20:
320,192,13377,1,0,0:0:0:40:
448,192,13377,1,0,0:0:0:40:
64,192,13527,1,8,0:0:0:26:
192,192,13527,1,2,0:0:0:26:
320,192,13527,1,0,0:0:0:26:
192,192,13677,1,0,0:0:0:40:
448,192,13677,1,0,0:0:0:40:
64,192,13827,1,8,0:0:0:26:
320,192,13827,1,0,0:0:0:26:
448,192,13827,1,0,0:0:0:26:
192,192,13977,1,0,0:0:0:40:
320,192,13977,1,0,0:0:0:40:
64,192,14127,1,2,0:0:0:26:
192,192,14127,1,8,0:0:0:26:
448,192,14127,1,0,0:0:0:26:
64,192,14277,1,0,0:0:0:40:
320,192,14277,1,0,0:0:0:40:
192,192,14427,1,8,0:0:0:26:
320,192,14427,1,0,0:0:0:26:
448,192,14427,1,0,0:0:0:26:
64,192,14577,1,0,0:0:0:40:
192,192,14577,1,0,0:0:0:40:
64,192,14727,1,2,0:0:0:26:
320,192,14727,1,8,0:0:0:26:
448,192,14727,1,0,0:0:0:26:
192,192,14877,1,0,0:0:0:40:
448,192,14877,1,0,0:0:0:40:
64,192,15027,1,8,0:0:0:26:
192,192,15027,1,0,0:0:0:26:
320,192,15027,1,0,0:0:0:26:
64,192,15177,1,0,0:0:0:80:
192,192,15327,1,2,0:0:0:26:
320,192,15327,1,8,0:0:0:26:
448,192,15327,1,0,0:0:0:26:
320,192,15477,1,0,0:0:0:40:
448,192,15477,1,0,0:0:0:40:
64,192,15627,1,8,0:0:0:26:
192,192,15627,1,0,0:0:0:26:
448,192,15627,1,0,0:0:0:26:
192,192,15777,1,0,0:0:0:40:
320,192,15777,1,0,0:0:0:40:
64,192,15927,1,2,0:0:0:26:
320,192,15927,1,8,0:0:0:26:
448,192,15927,1,0,0:0:0:26:
64,192,16077,1,0,0:0:0:40:
192,192,16077,1,0,0:0:0:40:
192,192,16227,1,8,0:0:0:26:
320,192,16227,1,0,0:0:0:26:
448,192,16227,1,0,0:0:0:26:
64,192,16377,1,0,0:0:0:40:
448,192,16377,1,0,0:0:0:40:
64,192,16527,1,2,0:0:0:26:
192,192,16527,1,8,0:0:0:26:
320,192,16527,1,0,0:0:0:26:
320,192,16677,1,0,0:0:0:40:
448,192,16677,1,0,0:0:0:40:
64,192,16827,1,8,0:0:0:26:
192,192,16827,1,0,0:0:0:26:
448,192,16827,1,0,0:0:0:26:
192,192,16977,1,0,0:0:0:40:
320,192,16977,1,0,0:0:0:40:
64,192,17127,1,8,0:0:0:26:
320,192,17127,1,2,0:0:0:26:
448,192,17127,1,0,0:0:0:26:
64,192,17277,1,0,0:0:0:40:
192,192,17277,1,0,0:0:0:40:
192,192,17427,1,8,0:0:0:26:
320,192,17427,1,0,0:0:0:26:
448,192,17427,1,0,0:0:0:26:
320,192,17577,1,0,0:0:0:40:
448,192,17577,1,0,0:0:0:40:
64,192,17727,1,2,0:0:0:26:
192,192,17727,1,8,0:0:0:26:
448,192,17727,1,0,0:0:0:26:
64,192,17877,1,0,0:0:0:40:
192,192,17877,1,0,0:0:0:40:
64,192,18027,1,8,0:0:0:26:
320,192,18027,1,0,0:0:0:26:
448,192,18027,1,0,0:0:0:26:
192,192,18177,1,0,0:0:0:40:
448,192,18177,1,0,0:0:0:40:
64,192,18327,1,2,0:0:0:26:
192,192,18327,1,8,0:0:0:26:
320,192,18327,1,0,0:0:0:26:
64,192,18477,1,0,0:0:0:40:
448,192,18477,1,0,0:0:0:40:
192,192,18627,1,8,0:0:0:26:
320,192,18627,1,0,0:0:0:26:
448,192,18627,1,0,0:0:0:26:
64,192,18777,1,0,0:0:0:40:
320,192,18777,1,0,0:0:0:40:
192,192,18927,1,8,0:0:0:26:
320,192,18927,1,2,0:0:0:26:
448,192,18927,1,0,0:0:0:26:
64,192,19077,1,0,0:0:0:40:
192,192,19077,1,0,0:0:0:40:
64,192,19227,1,8,0:0:0:26:
320,192,19227,1,0,0:0:0:26:
448,192,19227,1,0,0:0:0:26:
192,192,19377,1,0,0:0:0:40:
320,192,19377,1,0,0:0:0:40:
64,192,19527,1,8,0:0:0:26:
320,192,19527,1,2,0:0:0:26:
448,192,19527,1,0,0:0:0:26:
192,192,19677,1,0,0:0:0:40:
448,192,19677,1,0,0:0:0:40:
64,192,19827,1,8,0:0:0:26:
192,192,19827,1,0,0:0:0:26:
320,192,19827,1,0,0:0:0:26:
192,192,19977,1,0,0:0:0:40:
320,192,19977,1,0,0:0:0:40:
64,192,20127,1,8,0:0:0:26:
192,192,20127,1,2,0:0:0:26:
448,192,20127,1,0,0:0:0:26:
320,192,20277,1,0,0:0:0:40:
448,192,20277,1,0,0:0:0:40:
64,192,20427,1,8,0:0:0:26:
192,192,20427,1,0,0:0:0:26:
448,192,20427,1,0,0:0:0:26:
192,192,20577,1,0,0:0:0:40:
320,192,20577,1,0,0:0:0:40:
64,192,20727,1,8,0:0:0:26:
320,192,20727,1,2,0:0:0:26:
448,192,20727,1,0,0:0:0:26:
64,192,20877,1,0,0:0:0:40:
192,192,20877,1,0,0:0:0:40:
192,192,21027,1,8,0:0:0:26:
320,192,21027,1,0,0:0:0:26:
448,192,21027,1,0,0:0:0:26:
64,192,21177,1,0,0:0:0:40:
448,192,21177,1,0,0:0:0:40:
64,192,21327,1,8,0:0:0:26:
192,192,21327,1,2,0:0:0:26:
320,192,21327,1,0,0:0:0:26:
320,192,21477,1,0,0:0:0:40:
448,192,21477,1,0,0:0:0:40:
64,192,21627,1,2,0:0:0:26:
192,192,21627,1,0,0:0:0:26:
448,192,21627,1,0,0:0:0:26:
64,192,21777,1,2,0:0:0:26:
320,192,21777,1,8,0:0:0:26:
192,192,21777,1,0,0:0:0:26:
64,192,21927,1,2,0:0:0:26:
320,192,21927,1,0,0:0:0:26:
448,192,21927,1,0,0:0:0:26:bump.wav
64,192,22077,1,0,0:0:0:40:
192,192,22077,1,0,0:0:0:40:
192,192,22227,1,8,0:0:0:26:
320,192,22227,1,0,0:0:0:26:
448,192,22227,1,0,0:0:0:26:
448,192,22377,1,2,0:0:0:40:
320,192,22377,1,0,0:0:0:40:
64,192,22452,1,2,0:0:0:40:
192,192,22452,1,0,0:0:0:40:
448,192,22527,1,2,0:0:0:40:
320,192,22527,1,0,0:0:0:40:
192,192,22677,1,0,0:0:0:40:
320,192,22677,1,0,0:0:0:40:
64,192,22827,1,2,0:0:0:20:
192,192,22827,1,0,0:0:0:20:
320,192,22827,1,0,0:0:0:20:
448,192,22827,128,4,22977:0:0:0:20:
64,192,22977,1,0,0:0:0:80:
192,192,23127,1,8,0:0:0:26:
320,192,23127,1,2,0:0:0:26:
448,192,23127,1,0,0:0:0:26:
64,192,23277,128,0,23427:0:0:0:40:
320,192,23277,1,0,0:0:0:40:
192,192,23427,1,8,0:0:0:26:
320,192,23427,1,0,0:0:0:26:
448,192,23427,1,0,0:0:0:26:
448,192,23577,1,0,0:0:0:80:
64,192,23727,1,8,0:0:0:26:
192,192,23727,1,2,0:0:0:26:
320,192,23727,1,0,0:0:0:26:
448,192,23877,1,0,0:0:0:80:
320,192,23952,1,0,0:0:0:80:
64,192,24027,1,8,0:0:0:26:
192,192,24027,128,0,24177:0:0:0:26:
448,192,24027,1,0,0:0:0:26:
320,192,24177,1,0,0:0:0:80:
64,192,24327,1,2,0:0:0:26:
320,192,24327,1,0,0:0:0:26:
448,192,24327,1,8,0:0:0:26:
64,192,24477,128,0,24627:0:0:0:40:
448,192,24477,1,0,0:0:0:40:
192,192,24627,1,8,0:0:0:26:
320,192,24627,1,0,0:0:0:26:
448,192,24627,1,0,0:0:0:26:
192,192,24777,1,0,0:0:0:40:
320,192,24777,1,0,0:0:0:40:
64,192,24927,1,8,0:0:0:26:
192,192,24927,1,2,0:0:0:26:
320,192,24927,1,0,0:0:0:26:
192,192,25077,1,0,0:0:0:40:
320,192,25077,1,0,0:0:0:40:
64,192,25227,1,8,0:0:0:26:
192,192,25227,1,0,0:0:0:26:
448,192,25227,128,0,25377:0:0:0:26:
320,192,25377,1,0,0:0:0:80:
64,192,25527,1,8,0:0:0:26:
320,192,25527,1,2,0:0:0:26:
448,192,25527,1,0,0:0:0:26:
64,192,25677,128,0,25827:0:0:0:40:
192,192,25677,1,0,0:0:0:40:
192,192,25827,1,8,0:0:0:26:
320,192,25827,1,0,0:0:0:26:
448,192,25827,1,0,0:0:0:26:
320,192,25977,1,0,0:0:0:80:
64,192,26127,1,2,0:0:0:26:
192,192,26127,1,8,0:0:0:26:
448,192,26127,1,0,0:0:0:26:
320,192,26277,1,0,0:0:0:80:
192,192,26352,1,0,0:0:0:80:
64,192,26427,1,8,0:0:0:26:
320,192,26427,1,0,0:0:0:26:
448,192,26427,128,0,26577:0:0:0:26:
192,192,26577,1,0,0:0:0:80:
64,192,26727,1,8,0:0:0:26:
320,192,26727,1,2,0:0:0:26:
448,192,26727,1,0,0:0:0:26:
192,192,26877,1,0,0:0:0:40:
320,192,26877,128,0,27027:0:0:0:40:
64,192,27027,1,8,0:0:0:26:
192,192,27027,1,0,0:0:0:26:
448,192,27027,1,0,0:0:0:26:
448,192,27177,1,0,0:0:0:80:
448,192,27252,1,0,0:0:0:80:
64,192,27327,1,2,0:0:0:26:
192,192,27327,1,8,0:0:0:26:
320,192,27327,1,0,0:0:0:26:
320,192,27477,1,0,0:0:0:40:
448,192,27477,1,0,0:0:0:40:
64,192,27627,1,4,0:0:0:26:
192,192,27627,128,0,27777:0:0:0:26:
448,192,27627,1,8,0:0:0:26:
320,192,27777,1,0,0:0:0:80:
64,192,27927,1,8,0:0:0:26:
192,192,27927,1,2,0:0:0:26:
448,192,27927,1,0,0:0:0:26:
320,192,28077,128,0,28227:0:0:0:40:
448,192,28077,1,0,0:0:0:40:
64,192,28227,1,8,0:0:0:26:
192,192,28227,1,0,0:0:0:26:
448,192,28227,1,0,0:0:0:26:
64,192,28377,1,0,0:0:0:40:
320,192,28377,128,0,28452:0:0:0:40:
64,192,28527,1,8,0:0:0:26:
320,192,28527,128,2,28677:0:0:0:26:
448,192,28527,1,0,0:0:0:26:
192,192,28677,1,0,0:0:0:80:
64,192,28827,1,8,0:0:0:26:
320,192,28827,1,0,0:0:0:26:
192,192,28827,128,0,28977:0:0:0:26:
448,192,28977,1,0,0:0:0:80:
64,192,29127,1,2,0:0:0:26:
192,192,29127,1,8,0:0:0:26:
448,192,29127,1,0,0:0:0:26:
64,192,29277,128,0,29427:0:0:0:40:
320,192,29277,1,0,0:0:0:40:
192,192,29427,1,8,0:0:0:26:
320,192,29427,1,0,0:0:0:26:
448,192,29427,1,0,0:0:0:26:
192,192,29577,1,0,0:0:0:40:
448,192,29577,128,0,29652:0:0:0:40:
64,192,29727,1,2,0:0:0:26:
192,192,29727,1,8,0:0:0:26:
448,192,29727,128,0,29802:0:0:0:26:
320,192,29877,1,0,0:0:0:40:
448,192,29877,128,0,29952:0:0:0:40:
64,192,30027,1,8,0:0:0:26:
192,192,30027,128,0,30177:0:0:0:26:
320,192,30027,1,4,0:0:0:26:
448,192,30177,1,0,0:0:0:80:
64,192,30327,1,8,0:0:0:26:
192,192,30327,1,2,0:0:0:26:
320,192,30327,1,0,0:0:0:26:
320,192,30477,128,0,30627:0:0:0:40:
448,192,30477,1,0,0:0:0:40:
64,192,30627,1,8,0:0:0:26:
192,192,30627,1,0,0:0:0:26:
448,192,30627,1,0,0:0:0:26:
64,192,30777,1,0,0:0:0:40:
320,192,30777,128,0,30852:0:0:0:40:
64,192,30927,1,2,0:0:0:26:
320,192,30927,128,0,31077:0:0:0:26:
448,192,30927,1,8,0:0:0:26:
192,192,31077,1,0,0:0:0:80:
64,192,31227,1,8,0:0:0:26:
192,192,31227,1,0,0:0:0:26:
448,192,31227,128,0,31377:0:0:0:26:
320,192,31377,1,0,0:0:0:80:
64,192,31527,1,2,0:0:0:26:
192,192,31527,1,8,0:0:0:26:
448,192,31527,1,0,0:0:0:26:
192,192,31677,128,0,31752:0:0:0:40:
320,192,31677,1,0,0:0:0:40:
64,192,31827,128,8,31902:0:0:0:26:
320,192,31827,1,0,0:0:0:26:
448,192,31827,1,2,0:0:0:26:
192,192,31977,1,8,0:0:0:26:
320,192,31977,128,2,32052:0:0:0:26:
448,192,31977,1,0,0:0:0:26:bump.wav
64,192,32127,1,2,0:0:0:26:
192,192,32127,1,8,0:0:0:26:
448,192,32127,128,0,32427:0:0:0:26:bump.wav
64,192,32427,1,2,0:0:0:26:
192,192,32427,1,0,0:0:0:26:
320,192,32427,1,4,0:0:0:26:
320,192,32577,1,0,0:0:0:40:
448,192,32577,1,0,0:0:0:40:
64,192,32727,1,8,0:0:0:26:
192,192,32727,1,2,0:0:0:26:
448,192,32727,1,0,0:0:0:26:
64,192,32877,1,0,0:0:0:40:
192,192,32877,1,0,0:0:0:40:
64,192,33027,1,8,0:0:0:26:
320,192,33027,1,0,0:0:0:26:
448,192,33027,1,0,0:0:0:26:
192,192,33177,1,0,0:0:0:40:
320,192,33177,1,0,0:0:0:40:
64,192,33327,1,8,0:0:0:26:
192,192,33327,1,2,0:0:0:26:
448,192,33327,1,0,0:0:0:26:
64,192,33477,1,0,0:0:0:40:
320,192,33477,1,0,0:0:0:40:
192,192,33627,1,8,0:0:0:26:
320,192,33627,1,0,0:0:0:26:
448,192,33627,1,0,0:0:0:26:
64,192,33777,1,0,0:0:0:40:
192,192,33777,1,0,0:0:0:40:
64,192,33927,1,8,0:0:0:26:
320,192,33927,1,2,0:0:0:26:
448,192,33927,1,0,0:0:0:26:
192,192,34077,1,0,0:0:0:40:
448,192,34077,1,0,0:0:0:40:
64,192,34227,1,8,0:0:0:26:
192,192,34227,1,0,0:0:0:26:
320,192,34227,1,0,0:0:0:26:
64,192,34377,1,0,0:0:0:80:
192,192,34527,1,2,0:0:0:26:
320,192,34527,1,8,0:0:0:26:
448,192,34527,1,0,0:0:0:26:
320,192,34677,1,0,0:0:0:40:
448,192,34677,1,0,0:0:0:40:
64,192,34827,1,8,0:0:0:26:
192,192,34827,1,0,0:0:0:26:
448,192,34827,1,0,0:0:0:26:
192,192,34977,1,0,0:0:0:40:
320,192,34977,1,0,0:0:0:40:
64,192,35127,1,2,0:0:0:26:
320,192,35127,1,8,0:0:0:26:
448,192,35127,1,0,0:0:0:26:
64,192,35277,1,0,0:0:0:40:
192,192,35277,1,0,0:0:0:40:
192,192,35427,1,8,0:0:0:26:
320,192,35427,1,0,0:0:0:26:
448,192,35427,1,0,0:0:0:26:
64,192,35577,1,0,0:0:0:40:
448,192,35577,1,0,0:0:0:40:
64,192,35727,1,2,0:0:0:26:
192,192,35727,1,8,0:0:0:26:
320,192,35727,1,0,0:0:0:26:
320,192,35877,1,0,0:0:0:40:
448,192,35877,1,0,0:0:0:40:
64,192,36027,1,8,0:0:0:26:
192,192,36027,1,0,0:0:0:26:
448,192,36027,1,0,0:0:0:26:
192,192,36177,1,0,0:0:0:40:
320,192,36177,1,0,0:0:0:40:
64,192,36327,1,8,0:0:0:26:
320,192,36327,1,2,0:0:0:26:
448,192,36327,1,0,0:0:0:26:
64,192,36477,1,0,0:0:0:40:
192,192,36477,1,0,0:0:0:40:
192,192,36627,1,8,0:0:0:26:
320,192,36627,1,0,0:0:0:26:
448,192,36627,1,0,0:0:0:26:
320,192,36777,1,0,0:0:0:40:
448,192,36777,1,0,0:0:0:40:
64,192,36927,1,2,0:0:0:26:
192,192,36927,1,8,0:0:0:26:
448,192,36927,1,0,0:0:0:26:
64,192,37077,1,0,0:0:0:40:
192,192,37077,1,0,0:0:0:40:
64,192,37227,1,8,0:0:0:26:
320,192,37227,1,0,0:0:0:26:
448,192,37227,1,0,0:0:0:26:
192,192,37377,1,0,0:0:0:40:
448,192,37377,1,0,0:0:0:40:
64,192,37527,1,2,0:0:0:26:
192,192,37527,1,8,0:0:0:26:
320,192,37527,1,0,0:0:0:26:
64,192,37677,1,0,0:0:0:40:
448,192,37677,1,0,0:0:0:40:
192,192,37827,1,8,0:0:0:26:
320,192,37827,1,0,0:0:0:26:
448,192,37827,1,0,0:0:0:26:
64,192,37977,1,0,0:0:0:40:
320,192,37977,1,0,0:0:0:40:
192,192,38127,1,8,0:0:0:26:
320,192,38127,1,2,0:0:0:26:
448,192,38127,1,0,0:0:0:26:
64,192,38277,1,0,0:0:0:40:
192,192,38277,1,0,0:0:0:40:
64,192,38427,1,8,0:0:0:26:
320,192,38427,1,0,0:0:0:26:
448,192,38427,1,0,0:0:0:26:
192,192,38577,1,0,0:0:0:40:
320,192,38577,1,0,0:0:0:40:
64,192,38727,1,8,0:0:0:26:
320,192,38727,1,2,0:0:0:26:
448,192,38727,1,0,0:0:0:26:
192,192,38877,1,0,0:0:0:40:
448,192,38877,1,0,0:0:0:40:
64,192,39027,1,8,0:0:0:26:
192,192,39027,1,0,0:0:0:26:
320,192,39027,1,0,0:0:0:26:
192,192,39177,1,0,0:0:0:40:
320,192,39177,1,0,0:0:0:40:
64,192,39327,1,8,0:0:0:26:
320,192,39327,1,2,0:0:0:26:
448,192,39327,1,0,0:0:0:26:
320,192,39477,1,0,0:0:0:40:
448,192,39477,1,0,0:0:0:40:
64,192,39627,1,8,0:0:0:26:
192,192,39627,1,0,0:0:0:26:
448,192,39627,1,0,0:0:0:26:
192,192,39777,1,0,0:0:0:40:
320,192,39777,1,0,0:0:0:40:
64,192,39927,1,2,0:0:0:26:
320,192,39927,1,8,0:0:0:26:
448,192,39927,1,0,0:0:0:26:
64,192,40077,1,0,0:0:0:40:
192,192,40077,1,0,0:0:0:40:
192,192,40227,1,8,0:0:0:26:
320,192,40227,1,0,0:0:0:26:
448,192,40227,1,0,0:0:0:26:
64,192,40377,1,0,0:0:0:40:
448,192,40377,1,0,0:0:0:40:
64,192,40527,1,2,0:0:0:26:
192,192,40527,1,8,0:0:0:26:
320,192,40527,1,0,0:0:0:26:
320,192,40677,1,0,0:0:0:40:
448,192,40677,1,0,0:0:0:40:
64,192,40827,1,8,0:0:0:26:
192,192,40827,1,0,0:0:0:26:
448,192,40827,1,0,0:0:0:26:tom.wav
320,192,40977,1,0,0:0:0:40:tom.wav
448,192,40977,1,0,0:0:0:40:
192,192,41052,1,0,0:0:0:80:tom.wav
64,192,41127,1,0,0:0:0:40:
320,192,41127,1,0,0:0:0:40:bump.wav
448,192,41202,1,0,0:0:0:40:bump.wav
64,192,41277,1,0,0:0:0:40:
192,192,41277,1,0,0:0:0:40:
192,192,41427,1,2,0:0:0:40:
320,192,41427,1,8,0:0:0:40:
448,192,41577,1,8,0:0:0:80:
448,192,41652,1,8,0:0:0:80:
64,192,41727,128,8,41877:0:0:0:40:
320,192,41727,1,2,0:0:0:40:
448,192,41877,128,0,42027:0:0:0:80:
64,192,42027,1,2,0:0:0:26:
192,192,42027,1,4,0:0:0:26:
320,192,42027,1,8,0:0:0:26:
320,192,42177,1,0,0:0:0:40:
448,192,42177,1,0,0:0:0:40:
64,192,42327,1,8,0:0:0:26:
192,192,42327,1,2,0:0:0:26:
448,192,42327,1,0,0:0:0:26:
192,192,42477,128,0,42627:0:0:0:40:
320,192,42477,1,0,0:0:0:40:
64,192,42627,1,8,0:0:0:26:
320,192,42627,1,0,0:0:0:26:
448,192,42627,1,0,0:0:0:26:
192,192,42777,1,0,0:0:0:40:
448,192,42777,1,0,0:0:0:40:
64,192,42927,1,2,0:0:0:26:
320,192,42927,1,8,0:0:0:26:
448,192,42927,1,0,0:0:0:26:
64,192,43077,1,0,0:0:0:40:
192,192,43077,1,0,0:0:0:40:
192,192,43227,1,8,0:0:0:26:
320,192,43227,1,0,0:0:0:26:
448,192,43227,1,0,0:0:0:26:
64,192,43377,1,0,0:0:0:40:
448,192,43377,1,0,0:0:0:40:
64,192,43527,1,2,0:0:0:26:
192,192,43527,1,8,0:0:0:26:
320,192,43527,1,0,0:0:0:26:
192,192,43677,128,0,43827:0:0:0:40:
448,192,43677,1,0,0:0:0:40:
64,192,43827,1,8,0:0:0:26:
320,192,43827,1,0,0:0:0:26:
448,192,43827,1,0,0:0:0:26:
320,192,43977,1,0,0:0:0:80:
64,192,44127,1,2,0:0:0:26:
192,192,44127,1,8,0:0:0:26:
448,192,44127,1,0,0:0:0:26:
320,192,44277,1,0,0:0:0:40:
448,192,44277,1,0,0:0:0:40:
64,192,44427,1,8,0:0:0:26:
192,192,44427,1,0,0:0:0:26:
320,192,44427,1,0,0:0:0:26:
64,192,44577,1,0,0:0:0:40:
448,192,44577,1,0,0:0:0:40:
192,192,44727,1,2,0:0:0:26:
320,192,44727,1,8,0:0:0:26:
448,192,44727,1,0,0:0:0:26:
64,192,44877,1,0,0:0:0:40:
320,192,44877,128,0,45027:0:0:0:40:
64,192,45027,1,8,0:0:0:26:
192,192,45027,1,0,0:0:0:26:
448,192,45027,1,0,0:0:0:26:
320,192,45177,1,0,0:0:0:40:
448,192,45177,1,0,0:0:0:40:
64,192,45327,1,2,0:0:0:26:
192,192,45327,1,8,0:0:0:26:
320,192,45327,1,0,0:0:0:26:
192,192,45477,1,0,0:0:0:40:
448,192,45477,1,0,0:0:0:40:
64,192,45627,1,8,0:0:0:26:
320,192,45627,1,0,0:0:0:26:
448,192,45627,1,0,0:0:0:26:
64,192,45777,1,0,0:0:0:40:
192,192,45777,1,0,0:0:0:40:
192,192,45927,1,8,0:0:0:26:
320,192,45927,1,2,0:0:0:26:
448,192,45927,1,0,0:0:0:26:
64,192,46077,1,0,0:0:0:40:
320,192,46077,128,0,46227:0:0:0:40:
64,192,46227,1,8,0:0:0:26:
192,192,46227,1,0,0:0:0:26:
448,192,46227,1,0,0:0:0:26:
320,192,46377,1,0,0:0:0:80:
320,192,46452,1,0,0:0:0:80:
64,192,46527,1,8,0:0:0:26:
192,192,46527,128,0,46677:0:0:0:26:
448,192,46527,1,2,0:0:0:26:
448,192,46677,128,0,46827:0:0:0:80:
64,192,46827,1,2,0:0:0:26:
192,192,46827,1,8,0:0:0:26:
320,192,46827,1,4,0:0:0:26:
320,192,46977,1,0,0:0:0:40:
448,192,46977,1,0,0:0:0:40:
64,192,47127,1,2,0:0:0:26:
192,192,47127,1,8,0:0:0:26:
448,192,47127,1,0,0:0:0:26:
192,192,47277,128,0,47427:0:0:0:40:
320,192,47277,1,0,0:0:0:40:
64,192,47427,1,8,0:0:0:26:
320,192,47427,1,0,0:0:0:26:
448,192,47427,1,0,0:0:0:26:
192,192,47577,1,0,0:0:0:40:
448,192,47577,1,0,0:0:0:40:
64,192,47727,1,2,0:0:0:26:
320,192,47727,1,0,0:0:0:26:
448,192,47727,1,8,0:0:0:26:
64,192,47877,1,0,0:0:0:40:
192,192,47877,1,0,0:0:0:40:
192,192,48027,1,8,0:0:0:26:
320,192,48027,1,0,0:0:0:26:
448,192,48027,1,0,0:0:0:26:
64,192,48177,1,0,0:0:0:40:
448,192,48177,1,0,0:0:0:40:
64,192,48327,1,2,0:0:0:26:
192,192,48327,1,8,0:0:0:26:
320,192,48327,1,0,0:0:0:26:
192,192,48477,128,0,48627:0:0:0:40:
448,192,48477,1,0,0:0:0:40:
64,192,48627,1,8,0:0:0:26:
320,192,48627,1,0,0:0:0:26:
448,192,48627,1,0,0:0:0:26:
320,192,48777,1,0,0:0:0:80:
320,192,48852,1,0,0:0:0:80:
64,192,48927,1,2,0:0:0:26:
192,192,48927,1,8,0:0:0:26:
448,192,48927,1,0,0:0:0:26:
320,192,49077,1,0,0:0:0:40:
448,192,49077,1,0,0:0:0:40:
64,192,49227,1,8,0:0:0:26:
192,192,49227,1,0,0:0:0:26:
320,192,49227,1,0,0:0:0:26:
64,192,49377,1,0,0:0:0:40:
448,192,49377,1,0,0:0:0:40:
192,192,49527,1,8,0:0:0:26:
320,192,49527,1,2,0:0:0:26:
448,192,49527,1,0,0:0:0:26:
64,192,49677,1,0,0:0:0:40:
320,192,49677,128,0,49827:0:0:0:40:
64,192,49827,1,8,0:0:0:26:
192,192,49827,1,0,0:0:0:26:
448,192,49827,1,0,0:0:0:26:
320,192,49977,1,0,0:0:0:40:
448,192,49977,1,0,0:0:0:40:
64,192,50127,1,8,0:0:0:26:
192,192,50127,1,2,0:0:0:26:
320,192,50127,1,0,0:0:0:26:
192,192,50277,1,0,0:0:0:40:
448,192,50277,1,0,0:0:0:40:
64,192,50427,1,8,0:0:0:26:
320,192,50427,1,0,0:0:0:26:
448,192,50427,1,0,0:0:0:26:
64,192,50577,1,0,0:0:0:40:
192,192,50577,1,0,0:0:0:40:
192,192,50727,1,8,0:0:0:26:
320,192,50727,1,2,0:0:0:26:
448,192,50727,1,0,0:0:0:26:
64,192,50877,1,0,0:0:0:40:
320,192,50877,128,0,51027:0:0:0:40:
64,192,51027,1,8,0:0:0:26:
192,192,51027,1,0,0:0:0:26:
448,192,51027,1,0,0:0:0:26:
320,192,51177,1,8,0:0:0:40:
448,192,51177,1,0,0:0:0:40:
320,192,51252,1,8,0:0:0:40:
448,192,51252,1,0,0:0:0:40:
64,192,51327,1,8,0:0:0:26:
192,192,51327,1,0,0:0:0:26:
448,192,51327,1,0,0:0:0:26:
192,192,51477,1,8,0:0:0:40:
320,192,51477,1,2,0:0:0:40:
64,192,51627,128,4,51702:0:0:0:0:
192,192,51627,128,0,51702:0:0:0:0:
320,192,51627,128,0,51777:0:0:0:0:
448,192,51627,128,2,51777:0:0:0:0:
