osu file format v14

[General]
AudioFilename: audio.mp3
AudioLeadIn: 0
PreviewTime: 32277
Countdown: 0
SampleSet: Normal
StackLeniency: 0.7
Mode: 1
LetterboxInBreaks: 0
WidescreenStoryboard: 1

[Editor]
DistanceSpacing: 0.8
BeatDivisor: 4
GridSize: 4
TimelineZoom: 2.7

[Metadata]
Title:166 - Suzuya Homerarete Nobiru Type Nandesu.
TitleUnicode:166 - 鈴谷褒められて伸びるタイプなんです。
Artist:saradisk
ArtistUnicode:皿
Creator:Eriha
Version:Kantan
Source:艦隊これくしょん -艦これ-
Tags:kancolle kankore kantai collection japanese electronic saradisc sara novelty video game kadokawa games love&joy love & joy yuki kimura sarah emi bridcutt ブリドカットセーラ恵美
BeatmapID:3519644
BeatmapSetID:1722078

[Difficulty]
HPDrainRate:8
CircleSize:5
OverallDifficulty:3
ApproachRate:5
SliderMultiplier:1.4
SliderTickRate:1

[Events]
//Background and Video events
0,0,"bg.jpg",0,70
//Break Periods
//Storyboard Layer 0 (Background)
//Storyboard Layer 1 (Fail)
//Storyboard Layer 2 (Pass)
//Storyboard Layer 3 (Foreground)
//Storyboard Layer 4 (Overlay)
//Storyboard Sound Samples

[TimingPoints]
3627,300,4,1,0,70,1,0
3627,-125,4,1,0,70,0,0
12008,-125,4,1,0,70,0,0
12308,-117.647058823529,4,1,0,75,0,0
12608,-111.111111111111,4,1,0,80,0,0
13227,-100,4,1,0,90,0,1
22827,-100,4,1,0,90,0,0
32427,-100,4,1,0,90,0,1
41727,-100,4,1,0,90,0,0
42027,-100,4,1,0,90,0,1
51627,-100,4,1,0,90,0,0

[HitObjects]
256,192,3627,5,4,0:0:0:0:
256,192,4227,1,8,0:0:0:0:
256,192,5427,1,8,0:0:0:0:
256,192,6027,1,0,0:0:0:0:
256,192,6627,1,8,0:0:0:0:
256,192,7827,1,8,0:0:0:0:
256,192,8427,1,0,0:0:0:0:
256,192,9027,1,12,0:0:0:0:
256,192,10227,1,12,0:0:0:0:
256,192,10827,1,0,0:0:0:0:
256,192,11427,1,12,0:0:0:0:
256,192,12027,1,0,0:0:0:0:
256,192,12327,1,0,0:0:0:0:
256,192,12627,1,12,0:0:0:0:
256,192,13227,1,12,0:0:0:0:
256,192,13827,1,8,0:0:0:0:
256,192,14127,1,8,0:0:0:0:
256,192,14427,1,0,0:0:0:0:
256,192,15027,1,0,0:0:0:0:
256,192,15627,1,8,0:0:0:0:
256,192,15927,1,0,0:0:0:0:
256,192,16227,1,8,0:0:0:0:
256,192,16527,1,8,0:0:0:0:
256,192,16827,1,0,0:0:0:0:
256,192,18027,1,8,0:0:0:0:
256,192,18627,1,8,0:0:0:0:
256,192,18927,1,8,0:0:0:0:
256,192,19227,1,0,0:0:0:0:
256,192,19827,1,0,0:0:0:0:
256,192,20427,1,8,0:0:0:0:
256,192,20727,1,8,0:0:0:0:
256,192,21027,1,0,0:0:0:0:
256,192,21327,1,8,0:0:0:0:
256,192,21627,1,0,0:0:0:0:
256,192,22827,1,4,0:0:0:0:
256,192,23427,1,0,0:0:0:0:
256,192,23727,1,8,0:0:0:0:
256,192,24027,1,0,0:0:0:0:
256,192,24627,1,8,0:0:0:0:
256,192,25227,1,0,0:0:0:0:
256,192,25527,1,8,0:0:0:0:
256,192,25827,1,0,0:0:0:0:
256,192,26127,1,8,0:0:0:0:
256,192,26427,1,0,0:0:0:0:
256,192,27627,1,4,0:0:0:0:
256,192,28227,1,8,0:0:0:0:
256,192,28527,1,8,0:0:0:0:
256,192,28827,1,0,0:0:0:0:
256,192,29427,1,8,0:0:0:0:
256,192,30027,1,0,0:0:0:0:
256,192,30327,1,0,0:0:0:0:
256,192,30627,1,8,0:0:0:0:
256,192,30927,1,8,0:0:0:0:
256,192,31227,1,0,0:0:0:0:
256,192,32427,1,12,0:0:0:0:
256,192,33027,1,8,0:0:0:0:
256,192,33327,1,0,0:0:0:0:
256,192,33627,1,0,0:0:0:0:
256,192,34227,1,0,0:0:0:0:
256,192,34827,1,8,0:0:0:0:
256,192,35127,1,0,0:0:0:0:
256,192,35427,1,8,0:0:0:0:
256,192,35727,1,0,0:0:0:0:
256,192,36027,1,0,0:0:0:0:
256,192,37227,1,8,0:0:0:0:
256,192,37827,1,8,0:0:0:0:
256,192,38127,1,0,0:0:0:0:
256,192,38427,1,0,0:0:0:0:
256,192,39027,1,0,0:0:0:0:
256,192,39627,1,8,0:0:0:0:
256,192,39927,1,8,0:0:0:0:
256,192,40227,1,8,0:0:0:0:
256,192,40527,1,0,0:0:0:0:
256,192,40827,1,0,0:0:0:0:
256,192,42027,1,4,0:0:0:0:
256,192,42627,1,0,0:0:0:0:
256,192,42927,1,8,0:0:0:0:
256,192,43227,1,0,0:0:0:0:
256,192,43827,1,8,0:0:0:0:
256,192,44427,1,0,0:0:0:0:
256,192,44727,1,8,0:0:0:0:
256,192,45027,1,0,0:0:0:0:
256,192,45327,1,8,0:0:0:0:
256,192,45627,1,0,0:0:0:0:
256,192,46827,1,4,0:0:0:0:
256,192,47427,1,8,0:0:0:0:
256,192,47727,1,8,0:0:0:0:
256,192,48027,1,0,0:0:0:0:
256,192,48627,1,8,0:0:0:0:
256,192,49227,1,0,0:0:0:0:
256,192,49527,1,0,0:0:0:0:
256,192,49827,1,8,0:0:0:0:
256,192,50127,1,8,0:0:0:0:
256,192,50427,1,0,0:0:0:0:
256,192,51627,1,4,0:0:0:0:
